#TITLE:resp.;
#SUBTITLE:;
#ARTIST:LU;
#TITLETRANSLIT:;
#SUBTITLETRANSLIT:;
#ARTISTTRANSLIT:;
#CREDIT:;
#BANNER:;
#BACKGROUND:;
#LYRICSPATH:;
#CDTITLE:;
#MUSIC:resp.mp3;
#OFFSET:-1.370;
#SAMPLESTART:12.443;
#SAMPLELENGTH:12.000;
#SELECTABLE:YES;
#BPMS:0.000=174.000;
#STOPS:;
#BGCHANGES:;

//---------------dance-single - ----------------
#NOTES:
     dance-single:
     :
     Hard:
     7:
     0.531,0.593,0.709,0.354,0.000:
0000
0000
0000
0000
,
0000
0000
0000
0000
,
0000
0000
0000
0000
,
0000
0000
0000
0000
,
0000
0000
0000
0000
,
0000
0000
0000
0000
,
0000
0000
0000
0000
,
0000
1M1M
0000
M1M1
,
1000
0100
0001
0100
0000
1010
0000
1001
,
0000
0101
0000
0110
0000
1000
0100
0000
,
0100
0010
0100
0010
0000
1001
0000
0110
,
0000
1010
0000
0101
0000
0010
0100
0000
,
0001
0010
0100
0010
0000
0101
0000
0110
,
0000
1010
0000
0110
0000
0100
0001
0000
,
1000
0010
0100
0001
0000
0101
0000
1010
,
0000
0110
0000
1001
0000
1000
0100
0000
,
2001
0000
3100
0020
0000
0130
2000
0000
,
3100
0020
0000
0130
0010
0000
1000
0000
,
0210
0000
0310
2000
0000
3001
0020
0000
,
0031
0200
0000
0310
0100
0000
0001
0000
,
2100
0000
3010
0002
0000
1003
0020
0000
,
1030
0002
0000
1003
0001
0000
0010
0000
,
2100
0000
3010
0200
0000
0310
2000
0000
,
3001
0200
0000
0310
1000
0000
0100
0000
,
002M
0000
103M
0200
000M
1300
002M
0000
,
M130
0200
M000
0310
M010
0000
M100
0000
,
2M00
0000
3M01
0020
0M00
1030
0M02
0000
,
01M3
2000
00M0
3100
10M0
0000
01M0
0000
,
1000
0100
0010
0100
0000
1010
0000
0110
,
0000
1010
0000
0101
0000
1001
0000
0000
,
0010
0100
1000
0100
0000
0110
0000
1001
,
0000
0110
0000
1001
0000
0110
0000
0000
,
2000
0000
0000
3010
0000
0000
2000
0000
,
0000
3010
0000
0000
1000
0000
0001
0000
,
0200
0000
0000
0310
0000
0000
0200
0000
,
0000
0301
0000
0000
0100
0000
0001
0000
,
2000
0000
0000
3100
0000
0000
0020
0000
,
0000
0031
0000
0000
0100
0000
0010
0000
,
0200
0000
0000
1300
0000
0000
0200
0000
,
0000
0310
0000
0000
0100
0000
1000
0000
,
0100
0000
0001
0010
0000
0100
0000
1000
,
0100
0000
1000
0010
0000
0100
0000
0010
,
1000
0000
0001
0010
0000
0100
0000
0010
,
1000
0000
0010
0100
0000
0010
0000
1000
,
0001
0000
1000
1001
0000
0100
0110
0000
,
0000
1000
1000
1010
0000
0100
0001
0000
,
0010
0000
0100
1100
0000
0100
0110
0000
,
0000
0001
0010
0011
0000
0100
1000
0000
,
1010
0000
0000
1001
0000
0000
0110
0000
,
0000
1001
0000
0000
0110
0000
1010
0000
,
1100
0000
0000
1010
0000
0000
1001
0000
,
0000
0110
0000
0000
1000
0100
1000
0000
,
1100
0000
0000
0011
0000
0000
0110
0000
,
0000
1010
0000
0000
0101
0000
0110
0000
,
1100
0000
0000
0101
0000
0000
1100
0000
,
0000
0110
0000
0000
0010
0001
0010
0000
,
1000
0100
1000
0100
0000
0011
0000
1100
,
0000
0110
0000
1001
0000
0100
0010
0000
,
0010
0100
0010
0100
0000
0101
0000
1010
,
0000
0110
0000
1001
0000
0010
0100
0000
,
0000
0010
0100
1000
0000
0100
0000
1000
,
0000
0100
0000
0001
0000
1000
0000
0000
,
0000
0100
0010
0100
0000
1000
0000
0100
,
0000
0010
0000
0100
0000
0100
0020
0000
,
0000
0000
0000
0000
,
0030
0000
0000
0000
;

//---------------dance-single - ----------------
#NOTES:
     dance-single:
     :
     Easy:
     4:
     0.318,0.314,0.150,0.258,0.000: // measure 1
0000
0000
0000
0000
,  // measure 2
0000
0000
0000
0000
,  // measure 3
0000
0000
0000
0000
,  // measure 4
0000
0000
0000
0000
,  // measure 5
0000
0000
0000
0000
,  // measure 6
0000
0000
0000
0000
,  // measure 7
0000
0000
0000
0000
,  // measure 8
0000
1001
0000
0110
,  // measure 9
1000
0010
0100
0100
,  // measure 10
0010
0100
0100
0000
,  // measure 11
0100
0001
1000
0100
,  // measure 12
0010
0100
0001
0000
,  // measure 13
0100
0010
0010
0100
,  // measure 14
1000
0100
0010
0000
,  // measure 15
0001
0100
0100
0010
,  // measure 16
0100
1000
0100
0000
,  // measure 17
2000
0000
3020
0000
,  // measure 18
0230
0000
0301
0010
,  // measure 19
0002
0000
0023
0000
,  // measure 20
0230
0000
0310
0100
,  // measure 21
2000
0000
3200
0000
,  // measure 22
0320
0000
0031
0010
,  // measure 23
0200
0000
0320
0000
,  // measure 24
2030
0000
3100
0010
,  // measure 25
0100
0100
0100
0100
,  // measure 26
0010
0010
0010
0010
,  // measure 27
1000
1000
1000
1000
,  // measure 28
0001
0001
0001
0001
,  // measure 29
1000
0100
0010
0100
,  // measure 30
1000
0100
0010
0000
,  // measure 31
0001
0010
0100
0010
,  // measure 32
0001
0100
0010
0000
,  // measure 33
2000
0000
0000
3200
,  // measure 34
0000
0000
0310
0100
,  // measure 35
0002
0000
0000
0203
,  // measure 36
0000
0000
1300
0100
,  // measure 37
0020
0000
0000
0230
,  // measure 38
0000
0000
0310
1000
,  // measure 39
0002
0000
0000
0203
,  // measure 40
0000
0000
0310
0100
,  // measure 41
0001
0010
0000
0100
,  // measure 42
1000
0100
0000
0010
,  // measure 43
0001
0010
0000
0010
,  // measure 44
0100
0001
0000
1000
,  // measure 45
1000
0000
0110
0000
,  // measure 46
1000
0100
0110
0000
,  // measure 47
0001
0000
1001
0000
,  // measure 48
0010
0100
0110
0000
,  // measure 49
0010
0000
0110
0000
,  // measure 50
1000
0100
1001
0100
,  // measure 51
0010
0000
1001
0000
,  // measure 52
0100
0010
0110
1000
,  // measure 53
0001
0000
1100
0000
,  // measure 54
0001
0010
0011
0100
,  // measure 55
1000
0000
0101
0000
,  // measure 56
0100
0010
1010
0100
,  // measure 57
0100
0010
0100
1000
,  // measure 58
0100
0010
0002
0000
,  // measure 59
1003
0100
0010
0100
,  // measure 60
1000
0100
0020
0000
,  // measure 61
0030
0100
1000
0100
,  // measure 62
0010
0100
0020
0000
,  // measure 63
0030
1000
0100
0010
,  // measure 64
0100
0010
0001
0020
,  // measure 65
0000
0000
0000
0000
,  // measure 66
0030
0000
0000
0000
;

//---------------dance-single - ----------------
#NOTES:
     dance-single:
     :
     Medium:
     6:
     0.380,0.383,0.150,0.225,0.000:
0000
0000
0000
0000
,
0000
0000
0000
0000
,
0000
0000
0000
0000
,
0000
0000
0000
0000
,
0000
0000
0000
0000
,
0000
0000
0000
0000
,
0000
0000
0000
0000
,
0000
1010
0000
0101
,
1000
0000
0100
0010
0000
0100
0000
1000
,
0000
0100
0000
0010
0000
1010
0000
0000
,
0100
0000
0010
0100
0000
0100
0000
1000
,
0000
0100
0000
0010
0000
0110
0000
0000
,
0001
0000
0010
0001
0000
0100
0000
0010
,
0000
0100
0000
1000
0000
0110
0000
0000
,
0100
0000
1000
0010
0000
0100
0000
1000
,
0000
0100
0000
1000
0000
1100
0000
0000
,
2000
0000
0000
3020
0000
0000
0230
0000
,
0000
2300
0000
0000
3100
0000
0010
0000
,
0200
0000
0000
2300
0000
0000
3020
0000
,
0000
2030
0000
0000
3010
0000
0100
0000
,
0002
0000
0000
0023
0000
0000
0230
0000
,
0000
0320
0000
0000
0130
0000
1000
0000
,
0200
0000
0000
0320
0000
0000
0230
0000
,
0000
0302
0000
0000
0013
0000
0100
0000
,
1000
0000
0100
0020
0000
0000
0230
0000
,
0000
1300
0000
1000
0010
0000
0100
0000
,
1000
0000
0010
0200
0000
0000
0320
0000
,
0000
0130
0000
1000
0100
0000
0010
0000
,
1000
0000
0010
0100
0000
0010
0000
0100
,
0000
1000
0000
0100
0000
0110
0000
0000
,
0001
0000
0010
0100
0000
0100
0000
0010
,
0000
1000
0000
0100
0000
0110
0000
0000
,
0010
0000
0000
0010
0000
0000
0010
0000
,
0000
0100
0000
0000
1000
0000
0100
0000
,
0001
0000
0000
0001
0000
0000
0001
0000
,
0000
1000
0000
0000
0010
0000
0100
0000
,
1000
0000
0000
1000
0000
0000
0100
0000
,
0000
0100
0000
0000
1000
0000
0100
0000
,
0010
0000
0000
0010
0000
0000
0100
0000
,
0000
0100
0000
0000
1000
0000
0100
0000
,
1000
0000
0000
0100
0000
0010
0000
1000
,
0001
0000
0000
0001
0000
0010
0000
0100
,
1000
0000
0100
0010
0000
0100
0000
1000
,
0001
0000
0010
0100
0000
0001
0000
0010
,
0100
0000
1000
0010
0000
0100
0010
0000
,
0000
1000
1000
1000
0000
0100
0010
0000
,
0100
0000
1000
0100
0000
0001
0010
0000
,
0000
0100
0100
0100
0000
0010
0100
0000
,
1000
0000
0000
0010
0000
0000
0110
0000
,
0000
0100
0000
0000
0010
0000
0100
0000
,
1000
0000
0000
0001
0000
0000
0110
0000
,
0000
1000
0000
0000
0010
0100
0010
0000
,
1000
0000
0000
0010
0000
0000
0110
0000
,
0000
1000
0000
0000
0100
0000
0010
0000
,
0001
0000
0000
0010
0000
0000
1100
0000
,
0000
0010
0000
0000
0100
0010
0100
0000
,
1000
0100
0010
0100
0000
0100
0000
0010
,
0000
0100
0000
0010
0000
0110
0000
0000
,
1000
0100
1000
0100
0000
0001
0000
0010
,
0000
0100
0000
0010
0000
0110
0000
0000
,
0000
0100
0010
0100
0000
0100
0000
0010
,
0000
0100
0000
1000
0000
0100
0000
0000
,
0000
0010
0100
0010
0000
1000
0000
0100
,
0000
0010
0000
0100
0000
0010
0200
0000
,
0000
0000
0000
0000
0000
0000
0000
0300
;
