#TITLE:Otherside;
#SUBTITLE:;
#ARTIST:Taishi;
#TITLETRANSLIT:;
#SUBTITLETRANSLIT:;
#ARTISTTRANSLIT:;
#CREDIT:;
#BANNER:;
#BACKGROUND:;
#LYRICSPATH:;
#CDTITLE:;
#MUSIC:Otherside.mp3;
#OFFSET:0.000;
#SAMPLESTART:29.150;
#SAMPLELENGTH:12.000;
#SELECTABLE:YES;
#BPMS:0.000=132.000;
#STOPS:;
#BGCHANGES:;

//---------------dance-single - ----------------
#NOTES:
     dance-single:
     :
     Easy:
     3:
     0.254,0.374,0.212,0.381,0.000:
0000
0000
0000
0000
,
0000
0000
0000
0000
,
0000
0000
0000
0000
,
0000
0000
0000
0000
,
1000
1000
0001
0000
,
0010
0010
0100
0000
,
1000
1000
0001
0000
,
0010
0010
0100
1000
,
1000
0001
0010
0200
,
1300
0010
0100
1100
,
0010
0100
0001
2000
,
3100
0010
0100
0002
,
0013
0100
1000
0020
,
0130
1000
0010
0110
,
0001
0010
0100
0200
,
0310
1000
0010
0200
,
1300
0002
0000
0000
,
0003
2002
0000
3003
,
0220
0330
2002
3003
,
0010
0200
0000
0000
,
2300
0000
0000
0000
,
3100
0020
0000
0000
,
2030
3000
0002
0003
,
2002
0000
0000
0000
,
0000
0000
0000
0000
,
0000
3003
0010
0000
,
0200
0000
0000
0000
,
0300
0000
0100
0010
,
0002
0003
2000
3000
,
0100
0000
0000
0100
,
2000
0000
0000
0000
,
3001
0000
0000
0001
,
0200
0000
2300
0000
,
3000
0000
0001
0010
,
0200
0000
0000
0000
,
0300
0000
0010
0100
,
2000
0000
3002
0000
,
0013
0000
0000
0000
,
2000
0000
0000
0000
,
3020
0000
0000
0031
,
2002
3003
0220
0330
,
1001
0000
0001
0010
,
1010
0100
0011
0100
,
1010
0100
1100
0001
,
0011
0010
0110
1000
,
1100
0100
0011
0010
,
1001
0110
2002
0000
,
3003
0000
0010
0100
,
2000
0000
0000
0010
,
3200
0000
0301
1000
,
0200
0000
0000
0000
,
0000
0000
0300
0001
,
2000
0000
0000
3010
,
0100
1000
0110
1001
,
1100
0011
2200
3300
,
2000
3000
0001
0010
,
0200
0000
0000
1300
,
0010
0000
0100
0010
,
1000
0000
0010
0000
,
0100
0000
0000
0000
,
0000
0000
0100
0010
,
0001
0000
0000
0000
,
0000
0000
0010
0000
,
0100
0000
0000
0000
;

//---------------dance-single - Copied from----------------
#NOTES:
     dance-single:
     Copied from:
     Challenge:
     8:
     0.424,0.569,0.229,0.339,0.220:
0000
0000
0000
0000
,
0000
0000
0000
0000
,
0000
0000
0000
0000
,
0000
0000
0000
0000
,
1000
0000
0100
0010
0100
0000
1000
0000
,
0001
0000
0010
0100
0010
0000
0001
0000
,
0010
0000
0100
1000
0100
0000
0010
0000
,
0200
0000
0320
0000
2030
0000
3001
0010
,
0100
0000
0010
0100
0010
0000
1000
0000
0100
0000
0000
0000
0010
0100
0000
0000
,
1000
0000
0100
0010
1000
0000
0100
0000
1000
0000
0100
0000
0010
1000
0000
0000
,
0010
0000
0100
1000
0100
0000
0010
0000
1000
0000
0100
0000
0010
0100
0000
0000
,
1000
0000
0010
0100
0010
0000
0100
0000
1000
0000
0010
0100
1000
0000
0100
0000
,
0010
0000
0100
1000
0100
0000
1000
0000
0100
0000
0010
0000
1000
0100
0000
0000
,
0001
0000
0010
0100
0001
0000
0100
0000
0010
0000
0100
0000
0010
0100
0000
0000
,
1000
0000
0100
0010
1000
0000
0100
0000
0010
0000
1000
0000
0100
1000
0000
0000
,
0100
0000
0010
1000
0100
0000
0010
0000
0100
0000
1000
0100
0010
0000
0100
0000
,
1001
0210
0010
0010
,
0310
1000
0200
0000
1000
0000
1000
0000
,
0302
0000
2003
0000
,
3010
0100
2000
0000
0010
0000
0100
0000
,
3002
1000
1000
1000
,
1003
0010
0200
0000
0010
0000
0010
0300
,
2002
3003
0220
0000
,
0000
0000
0000
0330
,
2002
0000
0000
0000
,
3003
0000
0110
0000
,
2100
0000
0010
0000
,
3100
0000
0010
0100
,
2020
0000
3030
0000
0202
0000
0303
1000
,
0200
0000
0000
0000
0000
0300
1000
0100
,
0020
0000
0000
0000
0000
0000
0000
0001
,
0001
0000
0030
0100
,
0210
0000
0310
1000
,
0200
0000
1300
0000
,
2001
0000
0001
0000
,
3001
0000
0010
0100
,
2200
0000
3300
0000
0022
0000
0033
0100
,
2000
0000
0000
0000
3000
0000
0010
0100
,
2000
0000
0000
0000
0010
0000
0000
0010
,
0010
0000
3010
0100
,
2001
0000
3001
0010
,
2000
0000
0000
0000
3001
0010
0100
0010
,
0100
0000
0100
0010
0110
0000
1000
0100
,
1100
0000
0010
0100
0110
0000
0001
0010
,
0110
0000
0001
0010
0011
0000
0010
0100
,
1100
0000
0000
0000
0000
0000
1000
0000
0000
0100
0000
0000
1000
0000
0100
0000
1000
0000
0100
0000
0000
1000
0000
0000
,
1000
0100
1000
0100
0000
0000
0001
0010
0001
0010
0000
0000
,
0100
1000
0100
1000
0000
0000
0010
0000
0000
1100
0000
0000
,
0001
0010
0100
0010
0000
0000
0100
1000
0100
0010
0000
0000
,
1000
0100
1000
0100
0000
0000
0010
0100
0010
1000
0000
0000
,
0001
0010
0100
0010
0000
0000
1000
0100
1000
0010
0000
0000
,
0001
0010
0100
0010
0000
0000
1000
0100
1000
0100
0000
0000
,
1000
0100
1000
0020
0000
0000
0000
0000
0000
1030
0000
0000
,
0100
0010
0110
1001
,
1000
0100
0010
1000
0000
0000
0100
0000
0000
1000
0010
0100
,
1000
0000
0000
0100
0010
0100
1000
0000
0000
0001
0000
0000
,
0010
0100
1000
0100
0000
0000
0010
0100
1000
0100
0000
0000
,
2000
0000
3010
0100
,
2001
0000
0010
0000
,
0100
0000
0000
0000
,
3000
0000
0010
0100
,
2100
0000
0100
0000
,
3100
0000
0110
0000
,
2002
0000
0000
0000
,
3003
0000
0000
0000
;

//---------------dance-single - Copied from----------------
#NOTES:
     dance-single:
     Copied from:
     Hard:
     7:
     0.341,0.507,0.102,0.398,0.144:
0000
0000
0000
0000
,
0000
0000
0000
0000
,
0000
0000
0000
0000
,
0000
0000
0000
0000
,
1000
0100
1000
0010
,
0100
1000
0010
0100
,
1000
0010
0100
1000
,
0001
0000
0010
0000
0100
0000
1000
0010
,
1000
0000
0000
0000
0100
0000
0010
0000
0100
0000
1000
0000
0000
0001
0000
0000
,
0010
0000
0000
0000
0100
0000
1000
0000
0100
0000
0010
0000
0000
1000
0000
0000
,
0100
0000
0000
0000
1000
0000
0010
0000
0100
0000
0001
0000
0000
0010
0000
0000
,
0100
0000
0100
1000
0100
0010
0200
0000
,
1300
0000
0000
0000
0100
0000
1000
0000
0010
0000
0100
0000
0000
0001
0000
0000
,
0010
0000
0000
0000
0001
0000
0010
0000
0001
0000
0010
0000
0000
0100
0000
0000
,
0010
0000
0000
0000
0100
0000
0010
0000
1000
0000
0100
0000
0000
0010
0000
0000
,
1000
0000
0100
0010
0100
1000
0200
0300
,
2001
0020
0000
0030
,
0000
0010
0002
0000
0000
0000
3003
0100
,
0020
0000
0000
0030
2000
0000
0000
0000
,
3000
0001
0020
0000
0000
0000
0030
0000
,
2002
0000
0000
3003
,
0000
0100
0020
0000
0000
0000
0030
0000
,
2000
0000
3002
0000
,
0000
0020
0000
0000
0000
0000
0000
0000
,
0033
0000
0000
0000
,
0000
0000
0010
0000
,
2000
0000
0000
0000
,
3000
0000
0010
0100
,
0002
0000
0000
0000
0000
0000
0003
0100
,
0020
0000
0000
0000
0030
0000
1000
0100
,
0020
0000
0000
0000
0030
0000
0000
0100
,
0200
0000
0000
0300
0000
0000
0100
0000
,
0020
0000
0030
0100
,
1000
0000
0200
0000
,
2300
0000
0010
0000
,
3010
0000
0010
0100
,
0002
0000
0000
0000
0000
0000
0003
0100
,
0020
0000
0000
0000
0030
0000
1000
0100
,
2000
0000
0000
0000
0000
0000
3000
0010
,
0020
0000
0030
0100
,
2000
0000
3020
0100
,
0032
0000
0103
0010
,
1001
0000
0010
0100
0101
0000
0010
0100
,
1010
0000
0100
0010
0110
0000
1000
0100
,
1001
0000
0010
0100
0110
0000
1000
0100
,
0110
0000
0000
0000
0000
0000
1000
0000
0000
0100
0000
0000
0010
0000
0100
0000
1000
0000
0010
0000
0000
0000
0000
0000
,
1000
0000
0000
1000
0100
0010
0100
0000
0000
0001
0010
0100
,
0010
0000
0000
0100
1000
0100
0020
0000
0000
2030
0000
0000
,
3100
0000
0000
0010
0100
1000
0010
0000
0000
0002
0000
0000
,
0203
0000
0000
1300
0100
0010
0002
0000
0000
0023
0000
0000
,
1030
0000
0000
0010
0100
1000
0100
0000
0000
0100
0010
0100
,
0010
0000
0000
0001
0010
0001
0010
0000
0000
0020
0000
0000
,
1030
0000
0000
0001
0010
0100
0010
0000
0000
2000
0000
0000
,
3200
0320
0032
0103
,
1000
0100
0010
2000
0000
0000
3200
0000
0000
0310
0100
1000
,
0100
0000
0000
0100
1000
0100
0020
0000
0000
0230
0000
0000
,
2300
0000
0000
3100
0010
0100
1000
0000
0000
0002
0000
0000
,
0023
0030
1000
0100
,
1001
0000
0010
0000
,
0100
0000
0000
0000
,
0000
0000
1000
0100
,
0010
0000
0000
0000
,
0000
0000
1001
0000
,
0110
0000
0000
0000
;

//---------------dance-single - ----------------
#NOTES:
     dance-single:
     :
     Medium:
     5:
     0.316,0.374,0.254,0.305,0.000: // measure 1
0000
0000
0000
0000
,  // measure 2
0000
0000
0000
0000
,  // measure 3
0000
0000
0000
0000
,  // measure 4
0000
0000
0000
0000
,  // measure 5
1000
0001
0010
1000
,  // measure 6
0100
1000
0010
0100
,  // measure 7
1000
0100
0100
0010
,  // measure 8
1000
0001
0001
0100
,  // measure 9
1000
0000
0010
0100
1000
0000
0010
0000
,  // measure 10
1000
0000
0100
0010
1000
0000
0100
0000
,  // measure 11
0001
0000
0100
0010
0001
0000
0010
0000
,  // measure 12
0001
0000
0010
0100
0001
0001
0020
0000
,  // measure 13
1030
0000
0010
0010
0100
0000
1000
0000
,  // measure 14
1000
0000
0100
0100
0010
0000
0100
0000
,  // measure 15
0010
0000
0001
0001
0010
0000
0100
0000
,  // measure 16
0010
0000
0100
1000
0100
0010
0200
0000
,  // measure 17
1300
0220
0000
0000
,  // measure 18
0330
1000
0200
0000
0000
0000
0000
0000
,  // measure 19
0302
0000
0023
0000
,  // measure 20
0030
0100
2000
0000
0000
0000
3000
0010
,  // measure 21
0200
0000
0000
0300
,  // measure 22
0000
0010
0200
0000
0000
0000
0000
0300
,  // measure 23
2002
3003
0220
0330
,  // measure 24
2200
0000
0000
0000
,  // measure 25
3300
0000
0000
0000
,  // measure 26
0000
0000
0010
0000
,  // measure 27
0110
0000
1001
0000
,  // measure 28
0110
0000
1000
0010
,  // measure 29
2200
0000
3300
0000
0022
0000
0033
1000
,  // measure 30
1000
0000
0000
0000
0000
0000
0010
0001
,  // measure 31
0011
0000
0000
0000
0000
0000
0000
0010
,  // measure 32
0010
0000
0000
1000
,  // measure 33
0220
0330
1001
0100
,  // measure 34
0010
0000
1000
0000
,  // measure 35
1001
0000
1000
0000
,  // measure 36
1000
0000
0010
0100
,  // measure 37
2200
0000
3300
0000
0022
0000
0033
0010
,  // measure 38
0100
0000
0000
0000
0000
0000
1000
0100
,  // measure 39
1000
0000
0000
0000
1000
0000
0000
0010
,  // measure 40
0010
0000
1000
0001
,  // measure 41
0220
0330
1001
0100
,  // measure 42
1000
0000
0000
0000
0001
0000
1000
1000
,  // measure 43
1100
0100
0110
0010
,  // measure 44
0011
0010
1010
0100
,  // measure 45
0101
0010
1010
0010
,  // measure 46
1001
0000
0010
0000
0001
0001
1000
0000
,  // measure 47
1001
0110
2000
0010
,  // measure 48
0100
3001
1000
0100
,  // measure 49
2000
0010
0001
0100
,  // measure 50
3020
0000
1030
0100
,  // measure 51
2001
0001
0010
0001
,  // measure 52
3010
0001
0010
1000
,  // measure 53
1002
1000
0010
0103
,  // measure 54
1000
0100
0010
0001
,  // measure 55
1000
0100
1000
0000
2001
0000
0001
0000
,  // measure 56
0001
3001
0010
0100
,  // measure 57
2000
0001
0001
3001
,  // measure 58
0020
0100
1000
0001
,  // measure 59
1030
0000
0010
0000
,  // measure 60
0100
0000
1000
0000
,  // measure 61
0100
0000
0001
0010
,  // measure 62
0100
0000
0100
0000
,  // measure 63
0100
0000
1000
0000
,  // measure 64
1001
0000
0000
0000
;
