#VERSION:0.82;
#TITLE:Super Fantasy;
#SUBTITLE:;
#ARTIST:SHK;
#TITLETRANSLIT:;
#SUBTITLETRANSLIT:;
#ARTISTTRANSLIT:;
#GENRE:;
#ORIGIN:;
#CREDIT:;
#BANNER:Super Fantasy-jacket.png;
#BACKGROUND:Super Fantasy-bg.png;
#PREVIEWVID:;
#JACKET:Super Fantasy-jacket.png;
#CDIMAGE:;
#DISCIMAGE:;
#LYRICSPATH:;
#CDTITLE:;
#MUSIC:Super Fantasy.mp3;
#OFFSET:-0.140000;
#SAMPLESTART:46.320000;
#SAMPLELENGTH:7.760000;
#SELECTABLE:YES;
#BPMS:0.000=145.000;
#STOPS:;
#DELAYS:;
#WARPS:51.000=8.000,
63.000=8.000,
243.000=8.000,
255.000=8.000,
316.000=8.000;
#TIMESIGNATURES:0.000=4=4;
#TICKCOUNTS:0.000=8;
#COMBOS:0.000=1;
#SPEEDS:0.000=1.000=0.000=0;
#SCROLLS:0.000=1.000;
#FAKES:;
#LABELS:0.000=Song Start;
#BGCHANGES:0.000=Super Fantasy - SHK (BGA).mp4=1.000=0=0=0=StretchNoLoop====,
99999=-nosongbg-=1.000=0=0=0 // don't automatically add -songbackground-
;
#KEYSOUNDS:;
#ATTACKS:
;

//---------------dance-single - SilveR----------------
#NOTEDATA:;
#CHARTNAME:SilveR;
#STEPSTYPE:dance-single;
#DESCRIPTION:SilveR;
#CHARTSTYLE:;
#DIFFICULTY:Edit;
#METER:17;
#RADARVALUES:0.920955,1.000000,0.141229,0.390456,1.000000,716.000000,17.000000,47.000000,18.000000,1.000000,6.000000,4.000000,44.000000,0.920955,1.000000,0.141229,0.390456,1.000000,716.000000,17.000000,47.000000,18.000000,1.000000,6.000000,4.000000,44.000000;
#CREDIT:SilveR;
#NOTES:
// measure 0
0000
0000
0000
0000
,  // measure 1
0000
0000
0000
0000
,  // measure 2
0000
0000
0000
0000
,  // measure 3
0000
0000
0000
0000
,  // measure 4
0001
0100
0100
0100
,  // measure 5
1000
0100
0100
0100
,  // measure 6
0001
0010
0010
0010
,  // measure 7
1001
0000
0000
0220
0000
0330
0LL0
0000
,  // measure 8
0000
1000
0010
1000
0010
1000
0010
1000
0001
1000
0001
1000
0100
0010
0001
1000
,  // measure 9
0000
0001
0010
0001
0010
0001
1000
0001
1000
0001
0100
0010
1000
0001
0100
0010
,  // measure 10
0000
1000
0010
1000
0010
1000
0010
0100
0010
0100
0001
0100
0001
0100
0001
1000
,  // measure 11
0001
1000
0100
0010
0001
0100
0010
0100
0001
0010
0100
0001
0100
0010
0100
1000
,  // measure 12
0000
0001
0010
0001
1000
0001
1000
0010
1000
0001
1000
0100
1000
0000
1111
0000
,  // measure 13
0000
1000
0010
1000
0001
1000
0001
0010
0001
1000
0100
0010
0100
0000
0000
0000
,  // measure 14
0000
0000
0000
0000
0000
0000
1000
MMMM
,  // measure 15
0000
0001
0100
0001
1000
0001
1000
0100
1000
0001
0010
0100
0010
0000
1111
0000
,  // measure 16
0001
0100
0010
1000
0010
1000
0010
0100
0001
0100
0001
0010
0001
1000
0000
0000
,  // measure 17
0000
0000
0000
0000
0000
0000
0010
MMMM
,  // measure 18
1000
0010
0100
0001
0100
0001
0100
0010
1000
0010
1000
0100
1000
0001
1000
0001
,  // measure 19
0010
0100
1000
0010
1000
0001
1000
0100
0010
0001
0010
0100
1000
0001
1000
0001
,  // measure 20
1000
0000
0001
0100
0010
0000
1000
0100
0010
0000
0001
1000
0010
0000
1000
0001
,  // measure 21
0010
0000
1000
0100
1000
0000
0010
0100
0001
0000
1000
0010
1000
0000
0001
0100
,  // measure 22
0010
0000
0100
0001
0100
0000
0010
1000
0010
0000
1000
0010
0100
0000
0001
1000
,  // measure 23
0010
0000
1000
0001
0100
0000
0001
0100
0001
0000
1000
0010
1000
0000
0100
0001
,  // measure 24
1000
0000
0010
1000
0010
0000
0100
0001
1000
0000
0100
1000
0100
0000
1000
0010
,  // measure 25
0100
0000
0001
0010
0001
0000
0100
0001
0010
0000
0001
0010
0001
0000
1000
0001
,  // measure 26
0100
0000
0001
1000
0001
0000
1000
0001
1000
0000
0010
0100
0001
0000
1000
0010
,  // measure 27
0100
0000
0001
1000
0010
0000
0100
0010
0100
0000
0010
0100
0010
0000
2000
0000
,  // measure 28
3100
1000
0100
1000
0100
1000
0100
1000
0001
1000
0001
1000
0001
1000
0001
0100
,  // measure 29
0001
0100
0001
0100
0001
0100
0001
0010
0100
0010
0100
1000
0010
1000
0010
0100
,  // measure 30
0001
0100
0010
1000
0010
0100
0001
0100
0010
1000
0100
0010
0001
1000
0001
0010
,  // measure 31
0100
1000
0010
0100
0001
0100
0001
1000
0010
0100
0001
1000
0040
0000
0000
0000
,  // measure 32
0030
0100
0001
0100
0001
0100
0001
1000
0001
1000
0001
1000
0100
1000
0010
0100
,  // measure 33
0000
0001
0010
0001
0010
0001
1000
0001
1000
0001
1000
0010
1000
0010
0100
0001
,  // measure 34
0000
1000
0100
1000
0100
1000
0100
0010
0100
0010
0100
0010
0001
0010
0001
0010
,  // measure 35
0001
0100
0001
0010
0001
0100
0001
0010
0001
1000
0001
1000
0010
1000
0100
1000
,  // measure 36
0000
0001
0100
0001
0100
0001
1000
0001
1000
0001
1000
0100
1000
0100
1000
0001
,  // measure 37
0000
1000
0100
1000
0100
1000
0010
1000
0010
1000
0001
1000
0001
0010
0001
4000
,  // measure 38
3000
0001
1000
0010
0100
0001
0100
0010
1000
0010
0100
0001
0100
0001
1000
0010
,  // measure 39
0100
0001
0100
1000
0100
0010
1000
0100
0010
0001
0010
0100
1000
0001
0100
0010
,  // measure 40
1000
0002
0103
0002
0013
0200
1300
2000
,  // measure 41
3100
2000
3001
0002
1003
0020
1030
0200
,  // measure 42
0301
0002
1003
2000
3010
0020
1030
0002
,  // measure 43
0103
0020
0130
0002
0013
2000
3010
0200
,  // measure 44
0301
0000
0200
0000
1300
0000
0020
0000
0130
0000
0001
1000
0001
0000
1000
0001
,  // measure 45
1000
0000
0002
0000
1003
0000
0200
0000
1300
0000
0020
0000
0130
0000
0001
0010
,  // measure 46
0001
0000
1000
0010
0100
0000
0010
0100
0001
0000
0100
0001
1000
0000
0100
1000
,  // measure 47
0001
0000
0100
0001
0010
0000
0001
0010
0100
0000
0010
0100
1000
0100
1000
0001
,  // measure 48
0000
0000
0000
0000
0000
0000
1000
0100
0010
0001
0010
0100
,  // measure 49
4000
3000
0110
1001
,  // measure 50
1100
0000
0000
0000
0000
0000
0010
1000
0001
1000
0010
1000
,  // measure 51
0400
0000
0000
0300
0000
0000
0101
0000
1010
0000
1100
0000
,  // measure 52
0011
0000
0000
0000
0000
0000
1000
0010
0100
0001
0100
0010
,  // measure 53
4000
3000
0011
1100
,  // measure 54
1001
0000
0000
0000
0000
0000
0100
0010
0100
0001
0010
0001
,  // measure 55
4000
0000
3000
0000
2020
0000
0101
3030
,  // measure 56
0001
0100
0001
1000
0001
0100
0001
1000
0010
1000
0001
1000
0010
0100
0010
0100
,  // measure 57
0000
0001
0010
0001
1000
0001
0010
0001
1000
0010
1000
0001
1000
0010
0100
0010
,  // measure 58
0000
0100
1000
0100
1000
0001
0100
0001
0100
0010
1000
0010
1000
0001
0010
0001
,  // measure 59
0010
0001
1000
0001
1000
0100
1000
0001
0100
0001
0100
0001
0010
0001
1000
0010
,  // measure 60
2000
0000
0001
0010
0001
0000
0010
0000
0001
0000
3001
0000
1111
0000
0000
0000
,  // measure 61
0000
0000
0000
0000
,  // measure 62
0000
0000
0000
MMMM
,  // measure 63
0000
2000
0000
0001
0100
0000
0100
0000
0010
0000
3100
0000
1111
0000
0000
0000
,  // measure 64
0000
0000
0000
0000
,  // measure 65
0000
0000
0000
MMMM
,  // measure 66
2000
0000
0200
3000
0002
0300
0200
0003
0020
0300
0002
0030
2000
0003
0020
3000
,  // measure 67
0002
0030
0200
0003
2000
0300
0200
3000
0002
0300
0020
0003
0200
0030
0002
0300
,  // measure 68
1003
0100
1000
0010
1000
0100
1000
0010
,  // measure 69
0100
0001
0010
0001
0100
0001
0010
0001
,  // measure 70
0100
0001
0100
0001
0100
0010
0100
0010
0100
1000
0100
1000
0001
1000
0001
1000
,  // measure 71
0010
1000
0010
1000
0010
0100
0010
0100
1000
0100
1000
0100
1000
0001
1000
0001
,  // measure 72
1000
0010
1000
0100
1000
0010
1000
0100
,  // measure 73
0001
0010
0001
0100
0001
0010
0001
0100
,  // measure 74
1000
0100
1000
0100
1000
0100
1000
0100
0001
0100
0001
0100
0001
0100
0001
0100
,  // measure 75
0001
0010
0001
0010
0001
0010
0001
0010
1000
0010
1000
0010
1000
0010
1000
0010
,  // measure 76
2000
0000
3000
0000
,  // measure 77
2002
0000
0000
0000
,  // measure 78
0000
0000
0000
0000
0000
0000
0000
3003
,  // measure 79
0000
0000
0000
0000
,  // measure 80
0000
0000
0000
0000
,  // measure 81
LMML
0000
0000
0000
;

//---------------dance-single - ----------------
#NOTEDATA:;
#CHARTNAME:;
#STEPSTYPE:dance-single;
#DESCRIPTION:;
#CHARTSTYLE:;
#DIFFICULTY:Challenge;
#METER:15;
#RADARVALUES:0.850934,1.000000,0.215997,0.772605,0.631376,602.000000,26.000000,93.000000,10.000000,1.000000,5.000000,4.000000,16.000000,0.850934,1.000000,0.215997,0.772605,0.631376,602.000000,26.000000,93.000000,10.000000,1.000000,5.000000,4.000000,16.000000;
#CREDIT:;
#NOTES:
// measure 0
0000
0000
0000
0000
,  // measure 1
0000
0000
0000
0000
,  // measure 2
0000
0000
0000
0000
,  // measure 3
0000
0000
0000
0000
,  // measure 4
0001
0100
0100
0100
,  // measure 5
1000
0100
0100
0100
,  // measure 6
0001
0010
0010
0010
,  // measure 7
1001
0000
0000
0220
0000
0330
0LL0
0000
,  // measure 8
1000
0000
0001
0000
0100
0000
0001
0000
1000
0001
1000
0001
0100
0001
0100
0000
,  // measure 9
0001
0000
1000
0000
0010
0000
0100
0000
0001
0010
0001
0010
0100
1000
0100
0000
,  // measure 10
1000
0010
0100
0001
1000
0100
0010
0001
,  // measure 11
1000
0010
1000
0010
0100
0010
0100
0010
0100
0001
0100
0001
1000
0001
1000
0100
,  // measure 12
1000
0010
0100
0001
1000
0100
1MM1
0000
,  // measure 13
0000
0000
0000
0000
,  // measure 14
0000
0000
0000
M11M
,  // measure 15
0001
0100
1000
0100
0010
1000
M11M
0000
,  // measure 16
0000
0000
0000
0000
,  // measure 17
0000
0000
0000
1MM1
,  // measure 18
2000
0000
0200
3000
0002
0300
0200
0003
2000
0300
0002
3000
0020
0003
2000
0030
,  // measure 19
0020
3000
0200
0030
2000
0300
0002
3000
0020
0003
0200
0030
0002
0300
0200
0003
,  // measure 20
1300
0000
0001
0100
0010
0000
1000
0100
0010
0000
0001
1000
0010
0000
1000
0001
,  // measure 21
0010
0000
1000
0100
1000
0000
0010
0100
0001
0000
1000
0010
1000
0000
0001
0100
,  // measure 22
0010
0000
0100
0001
0100
0000
0010
1000
0010
0000
1000
0010
0100
0000
0001
1000
,  // measure 23
0010
0000
1000
0001
0100
0000
0001
0100
0001
0000
1000
0010
1000
0000
0100
0001
,  // measure 24
1000
0000
0010
1000
0010
0000
0100
0001
1000
0000
0100
1000
0100
0000
1000
0010
,  // measure 25
0100
0000
0001
0010
0001
0000
0100
0001
0010
0000
0001
0010
0001
0000
1000
0001
,  // measure 26
0100
0000
0001
1000
0001
0000
1000
0001
1000
0000
0010
0100
0001
0000
1000
0010
,  // measure 27
0100
0000
0001
1000
0010
0000
0100
0010
0100
0000
0010
0100
0010
2000
0000
3000
,  // measure 28
0002
0000
0200
0003
0020
0300
0200
0030
2000
0300
0200
3000
0020
0300
2000
0030
,  // measure 29
0200
3000
0020
0300
0200
0030
0002
0300
0200
0003
0020
0300
0200
0030
2000
0300
,  // measure 30
0002
3000
0020
0003
0200
0030
2000
0300
0200
3000
0020
0300
0200
0030
0002
0300
,  // measure 31
2000
0003
0020
3000
0200
0030
2000
0300
0200
3000
0002
0300
0403
0000
0000
0000
,  // measure 32
1300
0000
0010
0000
0100
0000
0001
0000
1000
0010
0100
0001
0100
0010
1000
0010
,  // measure 33
0100
0000
0001
0000
0010
0000
0100
0000
1000
0001
0010
0100
0010
0001
1000
0100
,  // measure 34
0010
0001
0100
0001
0010
1000
0100
1000
,  // measure 35
0010
0010
0100
0100
0001
0001
0100
0100
,  // measure 36
0110
0100
1100
0100
0101
0100
0110
1100
,  // measure 37
1000
0000
0001
0000
0100
0000
0010
0000
1000
0001
0100
0010
0100
0001
1000
0100
,  // measure 38
0010
0100
1000
0001
0010
0100
0010
0001
1000
0010
0100
0001
0100
0010
1000
0010
,  // measure 39
0100
0001
1000
0010
0100
0001
1000
0010
0100
0010
1000
0001
0100
0001
0100
0010
,  // measure 40
1000
0002
0103
0002
0013
0200
1300
2000
,  // measure 41
3100
2000
3001
0002
1003
0020
1030
0200
,  // measure 42
0301
0002
1003
2000
3010
0020
1030
0002
,  // measure 43
0103
0020
0130
0002
0013
2000
3010
0200
,  // measure 44
0301
0000
0200
0000
1300
0000
0020
0000
0130
0000
0001
1000
0001
0000
1000
0001
,  // measure 45
1000
0000
0002
0000
1003
0000
0200
0000
1300
0000
0020
0000
0130
0000
0001
0010
,  // measure 46
0001
0000
1000
0010
0100
0000
0010
0100
0001
0000
0100
0001
1000
0000
0100
1000
,  // measure 47
0001
0000
0100
0001
0010
0000
0001
0010
0100
0000
0010
0100
1000
0100
1000
0001
,  // measure 48
0000
0000
0000
0000
0000
0000
1000
0100
0010
0001
0010
0100
,  // measure 49
4000
3000
0110
1001
,  // measure 50
1100
0000
0000
0000
0000
0000
0010
1000
0001
1000
0010
1000
,  // measure 51
0400
0000
0000
0300
0000
0000
0101
0000
1010
0000
1100
0000
,  // measure 52
0011
0000
0000
0000
0000
0000
1000
0010
0100
0001
0100
0010
,  // measure 53
4000
3000
0011
1100
,  // measure 54
1001
0000
0000
0000
0000
0000
0100
0010
0100
0001
0010
0001
,  // measure 55
4000
0000
3000
0000
2020
0000
0101
3030
,  // measure 56
1000
0000
0001
0000
1000
0000
0001
0000
0100
0010
0100
0010
0100
0010
0100
0010
,  // measure 57
0100
0000
0010
0000
0100
0000
0010
0000
1000
0001
1000
0001
1000
0001
1000
0001
,  // measure 58
1000
0100
0010
0001
1000
0100
0010
0001
,  // measure 59
1000
0010
0100
0001
0100
0010
1000
0010
1000
0010
0100
0001
0100
0001
1000
0010
,  // measure 60
2000
0100
0100
0100
0100
3100
MM11
0000
,  // measure 61
0000
0000
0000
0000
,  // measure 62
0000
0000
0000
11MM
,  // measure 63
0002
0100
0100
0100
0100
0103
1M1M
0000
,  // measure 64
0000
0000
0000
0000
,  // measure 65
0000
0000
0000
M1M1
,  // measure 66
0002
0000
0020
0003
2000
0030
0020
3000
0200
0030
2000
0300
0002
3000
0200
0003
,  // measure 67
2000
0300
0020
3000
0002
0030
0020
0003
2000
0030
0200
3000
0020
0300
2000
0030
,  // measure 68
3001
0010
0001
0100
0001
0010
0001
0100
,  // measure 69
0010
1000
0100
1000
0010
1000
0100
1000
,  // measure 70
0010
1000
0010
1000
0010
0100
0010
0100
0010
0001
0010
0001
1000
0001
1000
0001
,  // measure 71
0100
0001
0100
0001
0100
0010
0100
0010
0001
0010
0001
0010
0001
1000
0001
1000
,  // measure 72
0001
0100
0001
0010
0001
0100
0001
0010
,  // measure 73
1000
0100
1000
0010
1000
0100
1000
0010
,  // measure 74
0001
0010
0001
0010
0001
0010
0001
0010
1000
0010
1000
0010
1000
0010
1000
0010
,  // measure 75
1000
0100
1000
0100
1000
0100
1000
0100
0001
0100
0001
0100
0001
0100
0001
0100
,  // measure 76
0002
0000
0003
0000
,  // measure 77
2002
0000
0000
0000
,  // measure 78
0000
0000
0000
0000
0000
0000
0000
3003
,  // measure 79
0000
0000
0000
0000
,  // measure 80
0000
0000
0000
0000
,  // measure 81
LMML
0000
0000
0000
;
