#TITLE:Star Gate Heaven;
#SUBTITLE:(FUTURE LOVE Mix);
#ARTIST:SySF. feat. Donna Burke;
#TITLETRANSLIT:;
#SUBTITLETRANSLIT:;
#ARTISTTRANSLIT:;
#GENRE:;
#CREDIT:;
#MENUCOLOR:;
#METERTYPE:DDR;
#BANNER:Star Gate Heaven (FUTURE LOVE Mix).png;
#BACKGROUND:Star Gate Heaven (FUTURE LOVE Mix)-bg.png;
#LYRICSPATH:;
#CDTITLE:SilveR.png;
#MUSIC:Star Gate Heaven (FUTURE LOVE Mix).mp3;
#OFFSET:-0.085;
#SAMPLESTART:32.688;
#SAMPLELENGTH:15.000;
#SELECTABLE:YES;
#LISTSORT:;
#DISPLAYBPM:*;
#BPMS:0.000=147.000;
#STOPS:;
#BGCHANGES:;
#ATTACKS:;

//---------------dance-single - ----------------
#NOTES:
     dance-single:
     :
     Challenge:
     9:
     0.573,0.655,0.349,0.236,0.304:
0000
0000
0000
0000
,
0000
0000
0000
0000
,
1000
0011
0100
0110
,
1000
0000
0000
1001
0000
0000
0000
0010
0000
0000
0100
0000
1000
0000
0000
0000
,
0001
0000
0100
0010
1000
0000
0100
0010
,
0001
0100
1000
0100
0001
0010
1000
0100
,
1000
0000
0000
0000
1010
0000
0000
0000
0010
0000
0000
0021
0000
0000
0031
0000
,
0100
0000
0000
0210
0000
0000
0301
0000
1000
0000
0000
2100
0000
0000
3010
0000
,
0001
0000
0101
0000
1000
0000
2100
0001
,
3010
0000
0000
0012
0000
0000
1003
0000
0010
0000
0000
2010
0000
0000
3001
0000
,
0100
0000
0101
0000
1000
0000
1010
0010
,
0100
1100
0001
0101
,
1000
0000
0010
0000
0100
0000
0001
0000
1000
0000
0000
0100
0000
0000
0001
0000
,
0010
0000
0000
1000
0000
0000
0100
0000
0001
0000
0000
0010
0000
0000
0001
0000
,
1000
0000
0000
0000
0010
0000
0100
0000
0001
0000
0000
0101
0000
0000
1000
0000
,
0010
0000
0000
0110
0000
0000
0000
0000
1000
0000
0000
0011
0000
0000
0010
0000
,
0001
0000
0110
0000
1000
0000
1001
0001
,
0100
0000
0000
1010
0000
0000
0001
0000
0010
0000
0000
0110
0000
0000
0001
0000
,
0100
0000
0000
0101
0000
0000
1000
0000
0010
0000
0000
0110
0000
0000
1000
0000
,
1001
0101
1100
1100
,
0001
0000
0000
0000
0010
0000
0000
0000
0100
0000
1000
0001
0100
0001
0100
0000
,
0010
0000
0000
0000
1000
0000
0000
0000
0001
0000
0010
0100
1000
0100
1000
0000
,
0001
0000
0000
0100
0000
0000
0010
0000
0000
0000
0000
0000
0000
0000
1000
0000
,
0001
0000
0000
0010
0000
0000
0100
0000
0000
0000
0000
0000
1000
0000
0000
0000
,
0001
0000
0000
0000
0100
0000
0010
0000
1000
0000
0001
0010
0001
0010
0001
0100
,
0001
0100
0001
0000
1000
0010
1000
0000
0001
0000
0000
0000
0100
0010
0100
0000
,
2002
0000
3003
0000
,
1000
0000
0000
0100
0000
0000
0001
0000
0100
0000
0000
0010
0000
0000
0001
0000
,
1000
0000
0000
0000
0010
0100
0000
0000
0100
0000
0001
0000
1000
0001
1000
0001
,
0100
0010
0100
0000
0000
0000
1000
0000
0001
0000
0010
0000
0100
0000
0001
0000
,
0100
0000
0000
0001
0000
0000
0010
0000
0000
0000
0000
0000
0000
0000
0001
0000
,
0100
0000
0000
1000
0000
0000
0010
0000
0000
0000
0000
0000
0110
0000
0000
0000
,
1000
0000
0000
0000
0001
0100
0001
0000
1000
0000
0010
0100
0010
0100
0001
0100
,
0001
1000
0001
1000
0100
0010
0100
0000
0010
0000
0000
0000
0001
0000
0000
0000
,
0220
0000
0330
0000
,
0001
0000
0000
1000
0000
0000
0001
0000
0100
0000
0000
0010
0000
0000
1000
0000
,
0001
0000
0001
1000
0100
0010
0001
0100
,
0020
0000
0001
0000
0100
0000
1030
0001
,
1000
0000
1000
0010
1000
0100
0001
0100
,
0020
0000
0001
0000
0100
0000
1030
0010
,
0100
0000
0100
0001
0100
1000
0100
0010
,
0002
0000
0000
0000
0100
0000
0000
0000
0010
0000
0000
0000
1000
0003
0010
0000
,
1000
0000
1000
0100
0001
0100
0010
0001
,
0200
0000
1000
0000
0001
0000
0310
1000
,
0010
0000
0010
0100
0001
1000
0100
1000
,
0002
0000
0010
0000
1000
0000
0013
0100
,
0010
0000
0010
0001
0100
0001
0100
0001
,
2000
0000
0010
0000
0001
0000
0010
3001
,
0100
1000
0100
0010
1000
0100
0010
0001
,
0200
0000
0302
0000
,
2003
0000
0000
0001
3200
0010
0001
0001
,
0320
0000
0000
0000
,
0031
0010
0001
0010
0000
0001
0100
0001
0000
0100
0010
0100
0001
1000
0100
1000
;

//---------------dance-double - ----------------
#NOTES:
     dance-double:
     :
     Challenge:
     10:
     0.642,0.684,0.472,0.056,0.326: // measure 1
00000000
00000000
00000000
00000000
,  // measure 2
00000000
00000000
00000000
00000000
,  // measure 3
00001000
00000010
00000000
00001000
00000001
00000000
00000100
00000010
00000000
00001000
00000100
00000000
00010000
00000100
00000000
00000000
,  // measure 4
00101000
00000000
00000000
00101000
00000000
00000000
00000000
01010000
00000000
00000000
10000000
00000000
00010000
00000000
00000000
00000000
,  // measure 5
10000000
01000000
00010000
00001000
00000100
00000001
00001000
00000001
,  // measure 6
00000001
00000010
00001000
00010000
00100000
10000000
00010000
10000000
,  // measure 7
01000000
00000000
00000000
00000000
01010000
00000000
00000000
00000000
10000000
00000000
00000000
10100000
00000000
00000000
00010000
00000000
,  // measure 8
01000000
00000000
00000000
01010000
00000000
00000000
00001000
00000000
00011000
00000000
00000000
00001100
00000000
00000000
00001010
00000000
,  // measure 9
00000101
00000000
00000001
00000000
00001000
00000000
00001100
00001000
,  // measure 10
00000010
00000000
00000000
00010000
00000000
00000000
00001000
00000000
00101000
00000000
00000000
01010000
00000000
00000000
10001000
00000000
,  // measure 11
10010000
00000000
01000000
00100000
10000000
00000000
01000000
00100000
,  // measure 12
00010000
00000000
00011000
00000000
00000010
00000100
00000001
00000100
,  // measure 13
00001000
00010000
00100000
10000000
00100000
01000000
00010000
00001000
,  // measure 14
00000010
00000100
00000001
00001000
00000100
00010000
00100000
01000000
,  // measure 15
00001000
00000000
00000000
00000000
00011000
00000000
00010000
00000000
00000100
00000000
00000000
00001010
00000000
00000000
00000100
00000000
,  // measure 16
00000001
00000000
00000000
00000101
00000000
00000000
00000000
00000000
00001001
00000000
00000000
00000200
00000000
00000000
00010000
00000000
,  // measure 17
00100000
00000300
00000000
00000000
00001000
00000000
00100000
00000000
00001000
00000000
00000000
00000000
00011000
00000000
00010000
00000000
,  // measure 18
00100000
00000000
00000000
01100000
00000000
00000000
00010000
00000000
10000000
00000000
00000000
11000000
00000000
00000000
00100000
00000000
,  // measure 19
00001000
00000000
00000000
00011000
00000000
00000000
00000010
00000000
00000100
00000000
00000000
00000110
00000000
00000000
00000001
00000000
,  // measure 20
00001010
00000001
00000100
00001000
,  // measure 21
00100000
00000000
10000000
00000000
00100000
00000000
00010000
00000000
01000000
00000000
00100000
01000000
00010000
01000000
00001000
00010000
,  // measure 22
00001000
00000000
00000100
00000000
00001000
00000000
00000000
00000000
00000010
00000000
00000100
00000001
00000100
00000001
00001000
00000010
,  // measure 23
00001000
00000100
00010000
00001000
00100000
00000000
00110000
00001000
,  // measure 24
00010000
00000000
00010000
01000000
00100000
00000000
11000000
00000000
,  // measure 25
10000000
00000000
01000000
00000000
00010000
00001000
00010000
00000000
00000100
00000000
00001000
00000010
00001000
00000001
00000100
00000001
,  // measure 26
00000100
00000010
00001000
00000000
00000001
00000100
00000001
00000000
00001000
00000000
00000000
00000000
00000010
00000000
00001000
00000000
,  // measure 27
00020200
00000000
00030300
00000000
,  // measure 28
00011000
00000000
00000000
00100000
00000000
00000000
00010000
00000000
01010000
00000000
00000000
10000000
00000000
00000000
01000000
00000000
,  // measure 29
00100000
00000000
00000000
00000000
00010000
01000000
00000000
00000000
01000000
00000000
00001000
00010000
00000100
00001000
00000010
00001000
,  // measure 30
00000001
00000100
00000001
00000100
00000010
00001000
00000000
00000000
00000101
00000000
00000000
00000000
00000100
00000000
00001000
00000000
,  // measure 31
00011000
00000000
00000000
00001000
00000000
00000000
01200000
00000000
00000000
00000000
00000000
00000000
00000000
00300000
01000000
00000000
,  // measure 32
10000000
00000000
00000000
01000000
00000000
00000000
00010000
00000000
00000000
00000000
00000000
00000000
00011000
00000000
00000000
00000000
,  // measure 33
00000010
00000000
00000000
00000000
00001000
00000001
00000000
00000000
00000100
00000000
00000010
00010000
00001000
00010000
00000100
00100000
,  // measure 34
00010000
00100000
00010000
00001000
00000100
00010000
00001000
00000000
00010000
00000000
00000000
00000000
10000000
01000000
00100000
00001000
,  // measure 35
00020000
00000000
00030000
00000000
,  // measure 36
00000100
00000000
00000000
00000001
00000000
00000000
00001000
00000000
00000010
00000000
00000000
00010000
00000000
00000000
00100000
00000000
,  // measure 37
10000000
00000000
10000000
01000000
00010000
00000100
00000010
00000001
,  // measure 38
00000100
00000000
00000100
00000000
00000110
00000000
00000100
00000001
,  // measure 39
00001000
00000000
00000100
00000010
00010000
00100000
01000000
10000000
,  // measure 40
00010000
00000000
00110000
00000000
01000000
00000000
00100000
10000000
,  // measure 41
11000000
00000000
10000000
01000000
00001000
00000010
00000001
00000100
,  // measure 42
00001000
00000000
00001100
00000000
00000001
00000000
00001001
00001000
,  // measure 43
00000010
00000000
00000010
00000100
00010000
00100000
01000000
10000000
,  // measure 44
00100000
00000000
01100000
00000000
10010000
00000000
01000000
10000000
,  // measure 45
01000000
00100000
00000010
00000100
00000001
00000010
00001000
00010000
,  // measure 46
00100000
10000000
01000000
00100000
00001000
00000010
00000100
00000001
,  // measure 47
00001000
00000010
00010000
00100000
10000000
01000000
00010000
00001000
,  // measure 48
00000100
00000001
00000010
00000001
00000100
00000001
00001000
00000010
,  // measure 49
00000100
00000001
00010000
00100000
10000000
00010000
00100000
00000010
,  // measure 50
00000100
00000001
00000010
00001000
00010000
00100000
01000000
00100000
,  // measure 51
00010000
00001000
00000010
00000100
00000001
00001000
00000100
00010000
,  // measure 52
00000010
00100000
00010000
01000000
10000000
01000000
00010000
00100000
,  // measure 53
00001000
00010000
00000000
00000000
00000010
00000100
00000000
00000000
00000001
00000100
00000000
00000000
00001000
00010000
01000000
00100000
;
