#TITLE:Save Me;
#SUBTITLE:;
#ARTIST:Euphoria;
#TITLETRANSLIT:;
#SUBTITLETRANSLIT:;
#ARTISTTRANSLIT:;
#GENRE:;
#CREDIT:;
#BANNER:Save Me-bn.png;
#BACKGROUND:Save Me-bg.png;
#LYRICSPATH:;
#CDTITLE:SilveR.png;
#MUSIC:Save Me.mp3;
#OFFSET:-0.220000;
#SAMPLESTART:66.320000;
#SAMPLELENGTH:11.040000;
#SELECTABLE:YES;
#BPMS:0.000000=174.179993
,96.000000=87.089996
,144.000000=174.179993
,208.000000=348.360992
,209.000000=174.179993
,209.500000=348.360992
,210.500000=174.179993
,211.000000=348.360992
,212.000000=174.179993
,212.500000=348.360992
,213.500000=174.179993
,214.000000=348.360992
,215.000000=174.179993
,215.500000=348.360992
,216.500000=174.179993
,217.000000=348.360992
,218.000000=174.179993
,218.500000=348.360992
,219.500000=174.179993
,220.000000=348.360992
,221.000000=174.179993
,221.500000=348.360992
,222.500000=174.179993
,223.000000=348.360992
,224.000000=174.179993
,224.500000=348.360992
,225.500000=174.179993
,226.000000=348.360992
,227.000000=174.179993
,227.500000=348.360992
,228.500000=174.179993
,229.000000=348.360992
,230.000000=174.179993
,230.500000=348.360992
,231.500000=174.179993
;
#STOPS:
;
#BGCHANGES:31.000=Blizzard1.avi=1.000=1=0=1===CrossFade==,
63.000=Fireworks1.avi=1.000=1=0=1===CrossFade==,
95.000=Tunnel3.avi=0.500=1=0=1===CrossFade==,
111.500=Tunnel7.avi=0.500=1=0=1===CrossFade==,
143.500=Save Me-bg.png=1.000=1=0=1===CrossFade==,
207.000=Spikes2.avi=1.000=1=0=1===CrossFade==,
232.000=Spiral2.avi=1.000=0=0=1=====,
240.000=Bubble1R.avi=1.000=0=0=1=====,
303.000=Save Me-bg.png=1.000=1=0=1===CrossFade==,
99999=-nosongbg-=1.000=0=0=0 // don't automatically add -songbackground-
;
#KEYSOUNDS:;
#ATTACKS:;

//---------------dance-single - ----------------
#NOTES:
     dance-single:
     :
     Hard:
     10:
     0.466303,0.540646,0.490846,0.139073,0.089988,322.000000,60.000000,17.000000,0.000000,0.000000,0.000000,0.466303,0.540646,0.490846,0.139073,0.089988,322.000000,60.000000,17.000000,0.000000,0.000000,0.000000:
// measure 0
0000
0000
0000
0000
,  // measure 1
0000
0000
0000
0000
,  // measure 2
0000
0000
0000
0000
,  // measure 3
0000
0000
0000
0000
,  // measure 4
1000
0000
0001
0000
1000
0100
0000
0000
,  // measure 5
1000
0010
0001
0000
,  // measure 6
0001
0000
1000
0000
0001
0100
0000
0000
,  // measure 7
0001
0010
1000
0000
,  // measure 8
1001
0100
0010
1000
,  // measure 9
0100
0010
0001
0100
,  // measure 10
1000
0010
0001
0100
,  // measure 11
0010
0010
1000
0100
,  // measure 12
0001
0100
0001
0010
,  // measure 13
1000
0010
0100
1000
,  // measure 14
0010
1000
0010
0100
,  // measure 15
0010
0000
0001
0000
0100
0000
0000
1000
,  // measure 16
0001
0000
1001
0000
0100
0010
1000
0000
,  // measure 17
1000
0001
0010
0100
,  // measure 18
1000
0000
1100
0000
0001
0100
0010
0000
,  // measure 19
1001
0110
0100
0001
,  // measure 20
1100
0000
0011
0000
1000
0001
0100
0000
,  // measure 21
1000
1010
1001
0000
,  // measure 22
0001
0000
0011
0000
0100
0001
0000
0000
,  // measure 23
1000
0100
0010
0000
,  // measure 24
1001
0000
0110
0000
0000
1000
1010
0000
,  // measure 25
0110
0000
0000
0000
1001
0000
0000
0000
0000
0000
0100
0000
0001
0010
0000
0000
,  // measure 26
0001
0000
1001
0000
0000
0100
0110
0000
,  // measure 27
0100
0000
0000
0000
1001
0000
0000
0000
0000
0000
0100
0000
0010
0100
0000
0000
,  // measure 28
1000
0000
1000
0010
0100
0000
0000
0000
0002
0000
0000
2000
0003
3000
0100
0000
,  // measure 29
0010
0000
0001
0000
0100
0000
1000
0000
0010
0000
0100
0000
1000
0010
0000
0000
,  // measure 30
0100
0000
0010
0000
1000
0000
0100
0000
0010
0000
0001
0100
0000
1000
0000
1000
,  // measure 31
0000
0000
0000
0100
0000
0010
0000
0002
0000
0000
0000
0000
2000
0000
0003
3000
,  // measure 32
0001
0000
0000
2000
0000
0200
0000
3000
0300
0000
0000
0002
0000
0020
0000
0003
,  // measure 33
0030
0000
0000
0020
0000
0200
0000
0030
0300
0000
0000
2000
0000
0020
0000
3000
,  // measure 34
0030
0000
0001
0100
0001
0000
0010
0000
0000
0000
1000
0010
0000
0100
0000
0000
,  // measure 35
0000
0000
0001
0000
0010
0000
0100
0000
2000
0000
0000
0000
0002
3000
0003
0000
,  // measure 36
1010
0000
0000
1001
0000
0000
0000
0000
,  // measure 37
0101
0000
0000
1001
0000
0000
0000
0000
,  // measure 38
0110
0000
0000
1100
0000
0000
0000
0000
,  // measure 39
1010
0000
0000
0101
0000
0000
1100
0000
,  // measure 40
0011
0000
0000
1001
0000
0000
0000
0000
,  // measure 41
0101
0000
0000
1010
0000
0000
0000
0000
,  // measure 42
1100
0000
0000
1001
0000
0000
0000
0000
,  // measure 43
0011
0000
0000
1001
0000
0000
0110
0000
,  // measure 44
0101
1000
0001
1000
,  // measure 45
0110
0000
1000
0001
0000
1000
0100
1000
,  // measure 46
0010
1000
1100
1000
,  // measure 47
1010
0000
1000
0100
0000
1000
0001
0010
,  // measure 48
0001
0100
0101
0001
,  // measure 49
0011
0000
1000
0001
0000
0100
0001
1000
,  // measure 50
0010
1000
1001
0100
,  // measure 51
0101
0000
1000
0010
0000
0100
0001
0100
,  // measure 52
0010
0000
1000
0010
0000
1000
0100
0000
,  // measure 53
1000
0100
0000
1000
0010
0000
0001
0010
,  // measure 54
0000
0001
0010
0000
0100
0010
0000
1000
,  // measure 55
0001
0000
0100
0010
0000
1000
0001
0000
,  // measure 56
0100
0001
0000
0010
0001
0000
1000
0010
,  // measure 57
0000
0100
0010
0000
1000
0010
0000
1000
,  // measure 58
0100
0000
0000
0000
,  // measure 59
0000
0000
0000
0000
,  // measure 60
0001
0011
0100
1010
,  // measure 61
1000
0000
0001
0100
0000
0001
0010
0001
,  // measure 62
1000
1010
0100
0110
,  // measure 63
0001
0000
1000
0100
0000
0010
0100
1000
,  // measure 64
0100
1100
1000
1010
,  // measure 65
1000
0000
0001
0100
0000
0001
0010
0001
,  // measure 66
1000
1010
0100
0110
,  // measure 67
0001
0000
0100
0010
0000
1000
0010
0100
,  // measure 68
0001
0101
0001
0011
,  // measure 69
1000
0000
0100
0010
0000
0001
0010
0100
,  // measure 70
1000
1100
1000
1010
,  // measure 71
1000
0000
0100
0010
0000
0001
0100
0001
,  // measure 72
1000
1010
1000
1001
,  // measure 73
0100
0000
0001
1000
0000
0010
0100
0001
,  // measure 74
1000
1001
0100
0101
,  // measure 75
0010
0000
0100
1000
0000
0100
0010
0001
,  // measure 76
0200
0001
1000
0000
,  // measure 77
0302
0000
0000
2000
0000
0003
3000
0000
;

//---------------dance-single - ----------------
#NOTES:
     dance-single:
     :
     Medium:
     8:
     0.348267,0.413435,0.220881,0.057265,0.000000,264.000000,27.000000,7.000000,0.000000,0.000000,0.000000,0.348267,0.413435,0.220881,0.057265,0.000000,264.000000,27.000000,7.000000,0.000000,0.000000,0.000000:
// measure 0
0000
0000
0000
0000
,  // measure 1
0000
0000
0000
0000
,  // measure 2
0000
0000
0000
0000
,  // measure 3
0000
0000
0000
0000
,  // measure 4
1000
0000
1000
0000
0001
0100
0000
0000
,  // measure 5
1000
0100
0010
0000
,  // measure 6
0001
0000
0001
0000
0100
0001
0000
0000
,  // measure 7
1000
0010
0100
0000
,  // measure 8
1001
0000
0101
0000
,  // measure 9
1010
0100
1000
0010
,  // measure 10
0110
0000
1001
0000
,  // measure 11
0011
0001
0010
0001
,  // measure 12
0011
0000
0101
0000
,  // measure 13
1001
1000
0100
1000
,  // measure 14
1010
0000
0110
0000
,  // measure 15
0101
0000
1001
0000
,  // measure 16
1000
0000
0010
0000
1000
0001
0000
0000
,  // measure 17
0100
0010
0100
0000
,  // measure 18
0001
0000
0010
0000
0001
1000
0000
0000
,  // measure 19
0100
0010
0100
0000
,  // measure 20
1000
0000
0010
0000
1000
0001
0000
0000
,  // measure 21
0100
0001
0100
0000
,  // measure 22
0010
0000
1000
0000
0010
1000
0000
0000
,  // measure 23
0001
1000
0100
1000
,  // measure 24
0110
0000
1001
0000
0000
1000
1010
0000
,  // measure 25
1000
0000
1001
0000
0000
0100
0001
0000
,  // measure 26
1000
0000
1010
0000
0000
0010
0100
0000
,  // measure 27
0001
0000
0101
0000
0000
0010
0100
0000
,  // measure 28
1000
0000
0001
0000
0100
0010
0100
0010
,  // measure 29
1000
0001
0100
0001
0010
0100
1000
0000
,  // measure 30
0001
1000
0010
0100
,  // measure 31
0002
0100
1000
0103
,  // measure 32
0101
2000
3000
0002
,  // measure 33
0003
0020
0030
0200
,  // measure 34
0300
1000
0001
1000
,  // measure 35
0010
0100
1000
0001
,  // measure 36
0110
1000
0001
1000
,  // measure 37
0010
0100
0001
0100
,  // measure 38
0010
1000
0100
0010
,  // measure 39
0001
1000
0100
0010
,  // measure 40
0001
0100
0010
0000
,  // measure 41
1000
0000
0000
0001
0000
0000
0010
0000
,  // measure 42
0100
1000
0100
0001
,  // measure 43
0100
0000
1001
0000
,  // measure 44
0100
0010
1000
0000
,  // measure 45
0001
0000
0000
1000
0000
0000
0010
0000
,  // measure 46
0100
0001
1000
0100
,  // measure 47
0010
0000
0000
0001
0000
0000
1000
0000
,  // measure 48
0010
0000
0000
0110
0000
0000
0000
0000
,  // measure 49
1001
0000
0000
0100
0000
0000
1000
0000
,  // measure 50
0010
0000
0110
0000
,  // measure 51
1001
0000
0000
0100
0000
0000
0000
0000
,  // measure 52
1000
0000
0000
0010
0000
0000
0100
0000
,  // measure 53
0000
0001
0000
0000
0010
0000
0000
0100
,  // measure 54
0000
0000
1000
0000
0000
0001
0000
0000
,  // measure 55
0100
0000
0000
0010
0000
0000
1000
0000
,  // measure 56
0000
0100
0000
0000
0010
0000
0000
0001
,  // measure 57
0000
0000
1000
0000
0000
0010
0000
0000
,  // measure 58
0100
0000
0000
0000
,  // measure 59
0000
0000
0000
0000
,  // measure 60
0001
1000
0001
1000
,  // measure 61
0010
0000
1000
0100
0000
0010
0001
0010
,  // measure 62
0001
1000
0001
0010
,  // measure 63
0001
0000
1000
0010
0000
1000
0100
1000
,  // measure 64
0100
0010
0100
1000
,  // measure 65
0100
0000
0010
0001
0000
0100
0001
1000
,  // measure 66
0001
0100
0010
0100
,  // measure 67
0001
0000
1000
0001
0000
1000
0010
0000
,  // measure 68
0100
0010
1000
0001
,  // measure 69
0010
0000
0001
0100
0000
0010
1000
0010
,  // measure 70
0100
0010
1000
0001
,  // measure 71
0010
0000
0100
0010
0000
0001
0010
0001
,  // measure 72
0100
0010
0100
0001
,  // measure 73
1000
0000
0100
0010
0000
0001
0010
0100
,  // measure 74
1000
0010
1000
0100
,  // measure 75
1000
0000
0001
0100
0000
0010
1000
0000
,  // measure 76
1001
0001
1000
0000
,  // measure 77
0020
0000
0000
0200
0000
0030
0300
0000
;

//---------------dance-single - ----------------
#NOTES:
     dance-single:
     :
     Easy:
     5:
     0.282821,0.414100,0.106350,0.049085,0.000000,223.000000,13.000000,6.000000,0.000000,0.000000,0.000000,0.282821,0.414100,0.106350,0.049085,0.000000,223.000000,13.000000,6.000000,0.000000,0.000000,0.000000:
// measure 0
0000
0000
0000
0000
,  // measure 1
0000
0000
0000
0000
,  // measure 2
0000
0000
0000
0000
,  // measure 3
0000
0000
0000
0000
,  // measure 4
0001
0000
1000
0000
,  // measure 5
0001
0001
0001
0000
,  // measure 6
0010
0000
0100
0000
,  // measure 7
0010
0010
0010
0000
,  // measure 8
0110
1001
1000
0100
,  // measure 9
0010
0001
0100
0010
,  // measure 10
1000
0001
0100
1000
,  // measure 11
0100
0001
0010
0100
,  // measure 12
1000
0010
0001
0100
,  // measure 13
0010
0001
1000
0010
,  // measure 14
0100
1000
0010
0001
,  // measure 15
1000
0100
0010
0000
,  // measure 16
0001
0101
1000
0010
,  // measure 17
0100
0001
1000
0010
,  // measure 18
0100
0001
1000
0100
,  // measure 19
0010
0001
0100
0010
,  // measure 20
1000
0000
0000
0001
0000
0000
0000
0000
,  // measure 21
0010
0000
0000
0100
0000
0000
0000
0000
,  // measure 22
1000
0000
0000
0100
0000
0000
0000
0000
,  // measure 23
0001
0000
0000
0000
,  // measure 24
0110
0000
1001
0000
0000
0010
0010
0000
,  // measure 25
0110
0000
1001
0000
0000
0100
0010
0100
,  // measure 26
0001
0000
1001
0000
0000
0001
1000
0000
,  // measure 27
0110
0000
1001
0000
0000
0100
0001
0000
,  // measure 28
1000
0010
0100
0000
0001
0000
1000
0000
,  // measure 29
0010
1000
0001
0000
0100
0001
1000
0000
,  // measure 30
0010
1000
0100
0001
,  // measure 31
1000
0001
0100
1000
,  // measure 32
0101
2000
3000
0002
,  // measure 33
0003
0020
0030
0200
,  // measure 34
0300
1000
0000
0010
,  // measure 35
0000
0100
0000
0001
,  // measure 36
1001
0000
0110
0000
,  // measure 37
0001
0000
1000
0000
,  // measure 38
0100
0000
0010
0000
,  // measure 39
0001
0000
1000
0000
,  // measure 40
0010
0000
0100
0000
,  // measure 41
0001
0000
1000
0000
,  // measure 42
0010
0000
1000
0000
,  // measure 43
0001
0000
0100
0000
,  // measure 44
0010
0000
0000
0100
0000
0000
0000
0000
,  // measure 45
0001
0000
0000
1000
0000
0000
0000
0000
,  // measure 46
0001
0000
0000
0010
0000
0000
0000
0000
,  // measure 47
0100
0000
0000
1000
0000
0000
0001
0000
,  // measure 48
0100
0000
0000
0010
0000
0000
0000
0000
,  // measure 49
1000
0000
0000
0001
0000
0000
0000
0000
,  // measure 50
0010
0000
0000
0100
0000
0000
0000
0000
,  // measure 51
1000
0000
0000
0001
0000
0000
0100
0000
,  // measure 52
0010
0000
0000
1000
,  // measure 53
0000
0000
0001
0000
,  // measure 54
0000
0010
0000
0000
,  // measure 55
0100
0000
0000
1000
,  // measure 56
0000
0000
0000
0000
0001
0000
0000
0100
,  // measure 57
0000
0000
0001
0000
0000
0100
0000
0000
,  // measure 58
0010
0000
0000
0000
,  // measure 59
0000
0000
0000
0000
,  // measure 60
0001
0001
1000
1000
,  // measure 61
0001
0010
0100
1000
,  // measure 62
0010
0010
0100
0100
,  // measure 63
0010
1000
0001
0100
,  // measure 64
0001
0001
1000
1000
,  // measure 65
0100
0010
0001
0100
,  // measure 66
0010
0010
1000
1000
,  // measure 67
0010
0100
0001
0100
,  // measure 68
0001
0001
1000
1000
,  // measure 69
0100
0010
0100
0010
,  // measure 70
1000
1000
0001
0001
,  // measure 71
0010
0100
0010
0100
,  // measure 72
1000
1000
0010
0010
,  // measure 73
0100
0001
1000
0100
,  // measure 74
0010
0010
0001
0001
,  // measure 75
1000
0010
0001
0100
,  // measure 76
1000
0001
1000
0000
,  // measure 77
0002
0000
0000
2000
0000
0000
0003
3000
;

//---------------dance-double - ----------------
#NOTES:
     dance-double:
     :
     Easy:
     3:
     0.157772,0.279782,0.024542,0.000000,0.000000,132.000000,3.000000,0.000000,0.000000,0.000000,0.000000,0.157772,0.279782,0.024542,0.000000,0.000000,132.000000,3.000000,0.000000,0.000000,0.000000,0.000000:
00000000
00000000
00000000
00000000
,
00000000
00000000
00000000
00000000
,
00000000
00000000
00000000
00000000
,
00000000
00000000
00000000
00000000
,
00000100
00000000
00000000
00000000
,
00010000
00000000
00000000
00000000
,
00000010
00000000
00000000
00000000
,
00000001
00000000
00000000
00000000
,
00001000
00000000
00000000
00000000
,
00010000
00000000
00000000
00000000
,
00100000
00000000
00000000
00000000
,
01000000
00000000
00000000
00000000
,
00000100
00000000
00000000
00000000
,
00100000
00000000
00000000
00000000
,
00001000
00000000
00000000
00000000
,
00010000
00000000
00000000
00000000
,
10000000
00000000
00000000
00000000
,
01000000
00000000
00000000
00000000
,
00001000
00000000
00000000
00000000
,
00000010
00000000
00000000
00000000
,
00000100
00000000
00000000
00000000
,
00010000
00000000
00000000
00000000
,
00001000
00000000
00000000
00000000
,
00011000
00000000
00000000
00000000
,
01000000
00010000
10000000
01000000
,
00100000
00010000
01000000
00001000
,
00000100
00000001
00001000
00000001
,
00000010
00000100
00001000
00000010
,
00010000
00001000
00100000
01000000
,
10000000
00010000
01000000
00100000
,
00010000
00100000
10000000
01000000
,
00010000
00001000
00000001
00000110
,
00000001
00001000
00010000
00001000
,
00000100
00000010
00000100
00010000
,
00001000
00100000
01000000
10000000
,
00010000
00001000
00000100
00000010
,
00001000
00000000
00000000
00000000
,
00000001
00000000
00000000
00000000
,
00000100
00000000
00000000
00000000
,
00000010
00000000
00000000
00000000
,
00010000
00000000
00000000
00000000
,
10000000
00000000
00000000
00000000
,
00100000
00000000
00000000
00000000
,
01000000
00000000
00000000
00000000
,
00010000
00000000
10000000
00000000
,
00010000
00000000
01000000
00000000
,
00100000
00000000
01000000
00000000
,
00010000
00000000
00000000
00000000
,
00001000
00000000
00000100
00000000
,
00000010
00000000
00000001
00000000
,
00001000
00000000
00000010
00000000
,
00000100
00000000
00000000
00000000
,
00001000
00000000
00000000
00010000
,
00000000
00000000
00001000
00000000
,
00000000
00010000
00000000
00000000
,
00000100
00000000
00000000
00100000
,
00000000
00000000
00000100
00000000
,
00000000
00100000
00000000
00000000
,
00010000
00000000
00000000
00000000
,
00000000
00000000
00000000
00000000
,
10000000
00000000
10000000
00000000
,
00001000
00000000
00010000
00000000
,
00000001
00000000
00000001
00000000
,
00010000
00000000
00001000
00000000
,
00100000
00000000
00100000
00000000
,
00001000
00000000
00010000
00000000
,
00000010
00000000
00000010
00000000
,
00010000
00000000
00001000
00000000
,
01000000
00000000
00010000
00000000
,
00001000
00000000
00000100
00000000
,
00000010
00000000
00001000
00000000
,
00010000
00000000
00100000
00000000
,
01000000
00000000
00010000
00000000
,
00001000
00000000
00100000
00000000
,
00000100
00000000
00001000
00000000
,
00000010
00000000
00000100
00000000
,
00001001
00000000
00000000
00000000
;

//---------------dance-double - ----------------
#NOTES:
     dance-double:
     :
     Medium:
     5:
     0.386833,0.414100,0.245423,0.081808,0.012271,291.000000,30.000000,10.000000,0.000000,0.000000,0.000000,0.386833,0.414100,0.245423,0.081808,0.012271,291.000000,30.000000,10.000000,0.000000,0.000000,0.000000:
00000000
00000000
00000000
00000000
,
00000000
00000000
00000000
00000000
,
00000000
00000000
00000000
00000000
,
00000000
00000000
00000000
00000000
,
10000000
10000000
00010000
00000000
,
01000000
01000000
00010000
00000000
,
00100000
00100000
00010000
00000000
,
10000000
10000000
00010000
00000000
,
00001100
00001000
00000001
00000010
,
00000100
00001000
00000010
00000100
,
00000001
00001000
00000100
00001000
,
00000010
00000100
00000001
00001000
,
00000010
00001000
00000100
00000010
,
00000001
00000100
00000010
00000100
,
00001000
00000001
00001000
00000010
,
00000100
00000000
00001000
00000000
00000001
00000000
00000000
00000100
,
00000010
00000000
00000110
00000000
00010000
00001000
00010000
00000000
,
00001000
00101000
00100000
01000000
,
10000000
00000000
10100000
00000000
10000000
00100000
01000000
00000000
,
00010000
01010000
10000000
01000000
,
00010000
00001000
00000100
00000010
,
00001000
00010000
00100000
01000000
,
00010000
00001000
00000100
00000000
,
00002002
00000000
00003003
00000000
,
00000001
00000000
00001001
00000000
00000000
00000010
00001000
00000000
,
00010000
00000000
00000000
00000000
00011000
00000000
00000000
00000000
00000000
00000000
00100000
00000000
00010000
01000000
00000000
00000000
,
00100000
00000000
01100000
00000000
00000000
01000000
10000000
00000000
,
01000000
00000000
00000000
00000000
10010000
00000000
00000000
00000000
00000000
00000000
10000000
00000000
01000000
10000000
00000000
00000000
,
10000000
00000000
00010000
00000000
00001000
00000000
00000000
00000000
00000010
00000000
00000000
00001000
00000000
00000000
00000000
00000000
,
00000001
00000100
00001000
00100000
00010000
00000000
01010000
00000000
,
00100000
00010000
00001000
00000000
00000100
00001000
00000010
00000000
,
00000100
00000001
00000100
00001000
00010000
00000000
00011000
00000000
,
00110000
02000000
03000000
20000000
,
30000000
00200000
00300000
00002000
,
00003000
00000000
00000100
00000001
00000000
00001000
00000100
00000000
,
00000000
00000010
00001000
00000001
00000010
00000000
00000110
00000000
,
00001000
00010000
00001000
00100000
,
00010000
01000000
00100000
01000000
,
00001000
00001000
00000100
00000010
,
00000001
00000001
00001000
00000010
,
00000100
00001000
00000100
00000001
,
00001000
00000100
00000001
00000100
,
00001000
00010000
00100000
00001000
,
00010000
00000010
00000100
00001000
,
00010000
00100000
01000000
00010000
,
00100000
00000000
00001000
00010000
00000000
00000100
00001000
00000000
,
00000010
00000100
00000010
00001000
,
00000100
00000000
00010000
00001000
00000000
00100000
00010000
00000000
,
00100000
01000000
00100000
10000000
,
00100000
00000000
00010000
00100000
00000000
10000000
00100000
00000000
,
01000000
10000000
01000000
00010000
,
01000000
00000000
10000000
01000000
00000000
00010000
01000000
10000000
,
00000000
00000000
00010000
01000000
00000000
00000000
00000000
00000000
,
00001000
00010000
00000000
00000000
00000000
00000000
00000100
00001000
,
00000000
00000000
00000000
00000000
00000010
00001000
00000000
00000000
,
00000000
00000000
00000001
00000100
00000000
00000000
00000000
00000000
,
00000010
00001000
00000000
00000000
00000000
00000000
00000100
00010000
,
00000000
00000100
00000000
00000000
00001000
00100000
00000000
00001000
,
00020000
00000000
00000000
00000000
,
00002000
00000000
00033000
00000000
,
00011000
00010100
00011000
00101000
,
00100000
00010000
01000000
00100000
,
10000000
01000000
00010000
00001000
,
00000100
00000000
00000001
00001000
00000000
00000001
00000100
00000000
,
00011000
00010100
00011000
00010010
,
00001000
00100000
00010000
01000000
,
00100000
10000000
01000000
00010000
,
01000000
00000000
10000000
00100000
00000000
00010000
00100000
00000000
,
00011000
00010100
00011000
00101000
,
00010000
01000000
00100000
10000000
,
01000000
00010000
00001000
00000100
,
00000010
00000000
00001000
00000100
00000000
00001000
00000010
00000000
,
00001100
00001010
00010010
00001010
,
00000100
00001000
00000001
00000100
,
00001000
00010000
00000010
00001000
,
00000100
00000000
00010000
00001000
00000000
00100000
00010000
00000000
,
01000000
00100000
01000000
00000000
,
00002000
00000000
00000000
00020000
00000000
00000000
00003000
00030000
;

//---------------dance-double - ----------------
#NOTES:
     dance-double:
     :
     Hard:
     8:
     0.483834,0.477041,0.646280,0.155434,0.049085,316.000000,79.000000,19.000000,0.000000,0.000000,0.000000,0.483834,0.477041,0.646280,0.155434,0.049085,316.000000,79.000000,19.000000,0.000000,0.000000,0.000000:
00000000
00000000
00000000
00000000
,
00000000
00000000
00000000
00000000
,
00000000
00000000
00000000
00000000
,
00000000
00000000
00000000
00000000
,
00110000
00000000
01010000
00000000
00100000
00010000
01000000
00000000
,
00010100
00001010
00001000
00000000
,
00001010
00000000
00001100
00000000
00010000
00001000
00000100
00000000
,
00011000
01010000
00010000
00000000
,
10000000
00010000
01000000
00100000
,
00001000
00000100
00000010
00000100
,
00100000
00010000
01000000
10000000
,
00010000
00000100
00001000
00000010
,
00000100
00010000
00100000
01000000
,
00010000
00001000
00000100
00000010
,
00001000
00010000
00100000
01000000
,
00010000
00000000
00001000
00000000
00000100
00000000
00000000
00000001
,
00001000
00000000
00001001
00000000
00000100
00000010
00001000
00000000
,
00000100
00010100
00100000
00001000
,
01000000
00000000
01100000
00000000
00010000
10000000
01000000
00000000
,
00100000
00110000
10010000
00100000
,
00001000
00010000
00000100
00001000
00000010
00000000
00000110
00000000
,
00000010
00010000
00001000
00100000
00010000
00000000
00110000
00000000
,
00100000
00001000
00010000
00000010
00001000
00000000
00001010
00000000
,
00002002
00000000
00003003
00000000
,
00000110
00000000
00001001
00000000
00000000
00000100
00000010
00000000
,
01100000
00000000
00000000
00000000
10010000
00000000
00000000
00000000
00000000
00000000
01000000
00000000
00100000
01000000
00000000
00000000
,
00000110
00000000
00001001
00000000
00000000
00000010
00000100
00000000
,
10010000
00000000
00000000
00000000
01100000
00000000
00000000
00000000
00000000
00000000
10000000
00000000
00100000
01000000
00000000
00000000
,
00010000
00000000
10000000
00000000
01000000
00000000
00000000
00000000
00020000
00000000
00000000
00032000
00000000
00000000
00003100
00000000
,
00000010
00001000
00000100
00000010
00000001
00000000
00000101
00000000
,
00000000
00000000
00001000
00000000
00001000
00000000
00000001
00000000
00000100
00000000
00010000
00001000
00000000
00100000
00000000
10000000
,
00000000
00000000
00000000
01000000
00000000
00001000
00000000
00000100
00000000
00000000
00000000
00000000
00000110
00000000
00000000
00000000
,
00001000
00000002
00000003
00002000
,
00003000
00200000
00300000
02000000
,
03000000
00000000
00010000
01000000
00100000
00000000
10000000
00000000
00000000
00000000
10000000
01000000
00000000
00100000
00000000
00000000
,
00000000
00001000
00010000
00000010
00000001
00000000
00000101
00000000
,
00001010
00000000
00000000
00001001
00000000
00000000
00001000
00000000
,
00010100
00000000
00100000
00001000
00000000
01000000
00010000
00000000
,
00110000
01000000
10000000
00100000
,
01000000
00000000
00010000
01000000
00000000
00100000
10000000
00000000
,
10010000
01000000
00011000
00000000
,
00001100
00000000
00001000
00000010
00000000
00001000
00000001
00000100
,
00000010
00001000
00000100
00010000
,
00100000
00000000
01000000
00010000
00000000
10000000
01000000
00000000
,
00110000
01000000
01100000
00000000
,
10020000
00000000
00000000
01030000
00000000
00000000
00000000
00000000
,
20100000
00000000
00000000
30010000
00000000
00000000
00000000
00000000
,
00021000
00000000
00000000
00030100
00000000
00000000
00001000
00000000
,
00000102
00000000
00000000
00001003
00000000
00000000
00000000
00000000
,
00002010
00000000
00000000
00013000
00000000
00000000
00000000
00000000
,
00210000
00000000
00000000
01300000
00000000
00000000
00000000
00000000
,
01010000
00000000
00000000
10010000
00000000
00000000
01100000
00000000
,
00010000
00000000
01000000
00001000
00000000
00000100
00000010
00000000
,
00001000
00010000
00000000
00100000
01000000
00000000
00010000
00001000
,
00000000
00000100
00000010
00000000
00001000
00010000
00000000
00100000
,
01000000
00000000
00010000
00001000
00000000
00000100
00000010
00000000
,
00000010
00001000
00000000
00000001
00001000
00000000
00000100
00010000
,
00000000
00001000
00100000
00000000
00010000
01000000
00000000
00100000
,
10000000
00000000
00000000
00000000
,
00000000
00000000
00000000
00000000
,
01010000
00011000
00001100
00001001
,
00000100
00000000
00000010
00001000
00000000
00000001
00000100
00000001
,
00000101
00001100
00011000
01010000
,
10000000
00000000
01000000
00100000
00000000
00010000
01000000
00010000
,
01010000
00011000
00001100
00001001
,
00000100
00000000
00000010
00001000
00000000
00000001
00000010
00000100
,
00001010
00011000
00110000
10010000
,
10000000
00000000
00100000
01000000
00000000
00010000
10000000
01000000
,
01100000
00011000
00000110
00001001
,
00000100
00000000
00000010
00001000
00000000
00000100
00000010
00000100
,
00000110
00011000
01100000
10010000
,
01000000
00000000
00100000
10000000
00000000
01000000
00010000
01000000
,
01100000
00011000
00000110
00001001
,
00000100
00000000
00000010
00001000
00000000
00000100
00000010
00000001
,
00000011
00000101
00001100
00011000
,
01010000
00000000
00100000
00010000
00000000
10000000
00100000
01000000
,
00020000
00032000
00023000
00030000
,
00000020
00000000
00000000
00000200
00000000
00000030
00000300
00000000
;

//---------------dance-single - ----------------
#NOTES:
     dance-single:
     :
     Challenge:
     12:
     0.543436,0.667857,0.580834,0.139073,0.126802,377.000000,71.000000,17.000000,0.000000,18.000000,0.000000,0.543436,0.667857,0.580834,0.139073,0.126802,377.000000,71.000000,17.000000,0.000000,18.000000,0.000000:
// measure 0
0000
0000
0000
0000
,  // measure 1
0000
0000
0000
0000
,  // measure 2
0000
0000
0000
0000
,  // measure 3
0000
0000
0000
0000
,  // measure 4
1000
0000
0001
0000
0100
0010
0100
0000
,  // measure 5
0001
0010
0100
0000
,  // measure 6
1000
0000
0001
0000
0010
1000
0010
0000
,  // measure 7
0100
1000
0010
0000
,  // measure 8
0001
1000
0001
1000
0010
1000
0010
1000
,  // measure 9
0001
1000
0001
1000
0001
0100
0001
0100
,  // measure 10
0010
1000
0010
1000
0010
0100
0010
0100
,  // measure 11
0010
0001
0010
0001
0010
0100
0010
0100
,  // measure 12
0001
0100
0001
0100
0010
0100
0010
0100
,  // measure 13
1000
0100
1000
0100
0010
0100
0010
0100
,  // measure 14
1000
0001
1000
0001
1000
0010
1000
0010
,  // measure 15
1000
0100
1000
0100
1000
0100
0001
0000
,  // measure 16
1000
0100
0001
0000
1000
0100
0010
0000
,  // measure 17
1000
0010
0100
0010
1000
0100
0010
0000
,  // measure 18
0001
0100
1000
0000
0001
0100
0010
0000
,  // measure 19
0001
0100
0010
1000
0100
0001
0100
0000
,  // measure 20
0010
0001
0100
0000
0010
1000
0010
0000
,  // measure 21
1000
0010
0100
0001
0010
0000
0000
0000
,  // measure 22
0001
0010
0100
0000
1000
0001
0000
0000
,  // measure 23
2002
0000
3003
0000
,  // measure 24
0201
0000
1001
0000
0000
0011
1310
0000
,  // measure 25
2100
0000
0000
0000
0011
0000
0000
0000
0000
0000
0101
0000
0011
0101
3000
0000
,  // measure 26
0102
0000
1100
0000
0000
0110
1013
0000
,  // measure 27
1200
0000
0000
0000
1001
0000
0000
0000
0000
0000
1320
0000
1100
1100
0030
0000
,  // measure 28
1000
0100
0010
0001
1000
0010
0100
0001
,  // measure 29
1000
0100
0001
0010
1000
0100
0010
0000
,  // measure 30
0001
0000
0100
0000
0010
0000
1000
0000
0100
0000
0001
0100
0000
1000
0000
0001
,  // measure 31
0000
0000
0000
0100
0000
0010
0000
2000
0000
0000
0000
0000
3001
0000
0000
0000
,  // measure 32
1000
0000
0000
0002
0000
1100
0000
0003
0000
0000
0000
2000
0000
0011
0000
3000
,  // measure 33
0000
0000
0000
0020
0000
0101
0000
0030
0000
0000
0000
0200
0000
1010
0000
0300
,  // measure 34
0000
0000
0001
0100
0001
0000
1000
0000
0000
0000
1000
0100
0000
0010
0000
0000
,  // measure 35
0000
0001
0100
1000
0010
0000
0001
0000
,  // measure 36
1001
0000
0000
1100
0000
0000
0000
0000
,  // measure 37
1001
0000
0000
0101
0000
0000
0010
0000
,  // measure 38
0100
1100
0010
1010
,  // measure 39
1000
0000
1001
0000
,  // measure 40
0000
2000
0002
3003
,  // measure 41
1000
0000
0000
0100
0000
0000
0000
0000
,  // measure 42
0110
0000
0000
1100
0000
0000
0000
0000
,  // measure 43
1001
0000
0000
0010
0000
0000
0101
0000
,  // measure 44
1010
0001
1000
0010
,  // measure 45
0110
0000
1000
0100
0000
1000
0001
0010
,  // measure 46
0001
0100
0110
1010
,  // measure 47
1001
0000
0010
0100
0000
1000
0010
0100
,  // measure 48
0010
1000
0110
0101
,  // measure 49
1001
0000
1000
0100
0000
0100
1000
0010
,  // measure 50
0100
0110
0110
0110
,  // measure 51
0110
0000
0001
1000
0000
0001
0100
0010
,  // measure 52
1000
0000
0000
0000
0001
0000
1000
0000
0000
0000
0010
0100
0001
0000
0000
0000
,  // measure 53
0100
0000
0010
0000
0000
0000
1000
0100
0010
0000
0000
0000
0001
0000
0100
0000
,  // measure 54
0000
0000
0010
1000
0010
0000
0000
0000
0100
0000
0001
0000
0000
0000
0010
0100
,  // measure 55
0010
0000
0000
0000
0001
0010
0001
0000
0000
0000
0100
0010
0100
0000
0000
0000
,  // measure 56
0010
1000
0010
0000
0000
0000
1000
0100
1000
0000
0000
0000
0001
0100
0001
0000
,  // measure 57
0000
0000
0010
0001
0010
0000
0000
0000
0100
0010
0100
0000
0000
0000
1000
0100
,  // measure 58
2000
0000
0000
0000
,  // measure 59
0000
0000
3000
0000
,  // measure 60
0101
1001
1100
1001
,  // measure 61
0010
0000
0010
0010
0000
1000
1000
1000
,  // measure 62
0100
0101
1100
0101
,  // measure 63
0010
0000
0100
0100
0000
1000
1000
1000
,  // measure 64
0001
0011
0101
1001
,  // measure 65
0010
0000
0100
0100
0000
0001
0001
0001
,  // measure 66
1000
1010
1001
1100
,  // measure 67
0001
0000
1000
1000
0000
0010
0100
0100
,  // measure 68
0010
1010
1100
0110
,  // measure 69
0001
0000
1000
1000
0000
0010
0010
0010
,  // measure 70
0100
0101
1001
1100
,  // measure 71
0010
0000
0001
0001
0000
1000
1000
1000
,  // measure 72
0010
0110
0101
1001
,  // measure 73
0010
0000
0001
0001
0000
0001
1000
1000
,  // measure 74
0010
0110
0101
1100
,  // measure 75
0010
0000
0001
0001
0000
1000
1000
0010
,  // measure 76
0100
0000
0000
0000
,  // measure 77
2000
0000
0000
0002
0000
3000
0003
0000
;
