#VERSION:0.83;
#TITLE:Reunited;
#SUBTITLE:;
#ARTIST:Optimistic;
#TITLETRANSLIT:;
#SUBTITLETRANSLIT:;
#ARTISTTRANSLIT:;
#GENRE:Happy Hardcore;
#ORIGIN:;
#CREDIT:;
#BANNER:Reunited-BN.png;
#BACKGROUND:Reunited-BG.png;
#PREVIEWVID:;
#JACKET:;
#CDIMAGE:;
#DISCIMAGE:;
#LYRICSPATH:;
#CDTITLE:;
#MUSIC:Optimistic - Reunited.mp3;
#OFFSET:0.000000;
#SAMPLESTART:230.031219;
#SAMPLELENGTH:14.991435;
#SELECTABLE:YES;
#DISPLAYBPM:87.500000:350.000000;
#BPMS:0.000=350.000,
1.000=175.000,
16.500=87.500,
16.750=175.000,
30.750=350.000,
31.750=175.000,
32.750=87.500,
33.000=175.000,
48.500=350.000,
49.500=175.000,
63.500=87.500,
63.750=175.000,
93.250=87.500,
93.500=175.000,
95.000=87.500,
95.250=175.000,
96.250=350.000,
97.250=175.000,
111.250=87.500,
111.500=175.000,
112.500=350.000,
113.500=175.000,
127.500=87.500,
127.750=175.000,
157.250=87.500,
157.500=175.000,
159.000=87.500,
159.250=175.000,
174.750=87.500,
175.000=175.000,
182.500=87.500,
182.750=175.000,
186.250=87.500,
186.500=175.000,
190.000=87.500,
190.250=175.000,
191.250=700.000,
215.250=350.000,
219.250=43.750,
251.250=175.000,
443.750=87.500,
444.000=175.000,
451.000=350.000,
452.000=175.000,
452.500=350.000,
453.500=175.000,
454.000=350.000,
455.000=175.000,
455.500=350.000,
456.500=175.000,
457.500=87.500,
457.750=175.000,
458.750=350.000,
459.750=175.000,
460.250=350.000,
461.250=175.000,
461.750=350.000,
462.750=175.000,
463.250=350.000,
464.250=175.000,
465.250=87.500,
465.500=175.000,
466.500=87.500,
466.750=175.000,
468.000=87.500,
468.250=175.000,
469.500=87.500,
469.750=175.000,
470.750=350.000,
471.750=175.000,
473.000=350.000,
474.000=175.000,
474.500=87.500,
474.750=175.000,
475.250=350.000,
476.250=175.000,
476.750=87.500,
477.000=175.000,
492.000=87.500,
492.250=175.000,
507.750=87.500,
508.000=175.000,
523.500=87.500,
523.750=175.000,
524.750=350.000,
525.750=175.000,
537.750=87.500,
538.000=175.000,
539.000=87.500,
539.250=175.000,
546.250=87.500,
546.500=175.000,
554.000=87.500,
554.250=175.000,
555.250=350.000,
556.250=175.000,
562.250=87.500,
562.500=175.000,
570.000=87.500,
570.250=175.000,
571.250=700.000,
625.250=175.000,
627.500=700.000,
659.500=175.000,
857.500=87.500,
857.750=175.000,
889.250=87.500,
889.500=175.000,
905.000=87.500,
905.250=175.000,
912.750=87.500,
913.000=175.000,
916.500=87.500,
916.750=175.000,
918.250=87.500,
918.500=175.000,
920.000=87.500,
920.250=175.000,
921.250=350.000,
922.250=175.000,
937.750=350.000,
938.750=175.000,
952.750=87.500,
953.000=175.000,
968.500=87.500,
968.750=175.000,
984.250=87.500,
984.500=175.000;
#STOPS:452.250=0.171,
453.750=0.171,
455.250=0.171,
456.750=0.171,
460.000=0.171,
461.500=0.171,
463.000=0.171,
464.500=0.171,
467.000=0.171,
468.500=0.171,
470.000=0.171,
472.750=0.171,
474.250=0.171,
475.000=0.171,
476.500=0.171,
478.250=0.171,
478.750=0.429,
538.250=0.171,
539.500=0.171,
625.250=0.086,
627.500=0.600,
628.500=0.600,
629.500=0.600,
630.500=0.600,
631.500=0.600,
632.500=0.600,
633.500=0.600,
634.500=0.600,
635.500=0.600,
636.500=0.600,
637.500=0.600,
638.500=0.600,
639.500=0.600,
640.500=0.600,
641.500=0.600,
642.500=0.600,
643.500=0.600,
644.500=0.600,
645.500=0.600,
646.500=0.600,
647.500=0.600,
648.500=0.600,
649.500=0.600,
650.500=0.600,
651.500=0.600,
652.500=0.600,
653.500=0.600,
654.500=0.600,
655.500=0.600,
656.500=0.600,
657.500=0.600,
658.500=0.600,
699.500=0.171;
#DELAYS:;
#WARPS:;
#TIMESIGNATURES:0.000=4=4;
#TICKCOUNTS:0.000=4;
#COMBOS:0.000=1;
#SPEEDS:0.000=1.000=0.000=0;
#SCROLLS:0.000=1.000;
#FAKES:;
#LABELS:0.000=Song Start;
#BGCHANGES:;
#KEYSOUNDS:;
#ATTACKS:
;

//---------------dance-single - ----------------
#NOTEDATA:;
#CHARTNAME:;
#STEPSTYPE:dance-single;
#DESCRIPTION:;
#CHARTSTYLE:;
#DIFFICULTY:Challenge;
#METER:17;
#RADARVALUES:0.639747,1.095191,0.268318,0.437358,1.253045,1669.000000,1569.000000,100.000000,163.000000,398.000000,1.000000,2.000000,0.000000,0.000000,0.639747,1.095191,0.268318,0.437358,1.253045,1669.000000,1569.000000,100.000000,163.000000,398.000000,1.000000,2.000000,0.000000,0.000000;
#CREDIT:StepManiatic;
#DISPLAYBPM:87.500000:350.000000;
#NOTES:
// measure 0
MMMM
0000
0000
0000
000M
0000
00M0
0000
0M00
0000
M000
00M0
0000
0M00
000M
0000
,  // measure 1
M000
0000
0M00
0000
00M0
0000
000M
0000
M000
00M0
0000
0M00
000M
0M00
000M
0000
,  // measure 2
M000
0000
00M0
0000
0M00
000M
M000
0000
0M00
M000
0000
00M0
0M00
000M
M000
0M00
,  // measure 3
00M0
0000
000M
0000
M000
0M00
M000
0000
000M
0M00
0000
000M
00M0
000M
00M0
0M00
,  // measure 4
M000
0000
0011
0001
0010
0100
0000
0010
0000
0001
0000
1000
0010
0100
0000
0001
,  // measure 5
0000
1000
0000
0100
0010
0001
0000
1000
0010
0000
0100
0001
0100
0001
0000
1000
,  // measure 6
0000
0100
0000
0010
0100
1000
0000
0001
0010
0000
0100
1000
0001
0010
0001
1000
,  // measure 7
0000
0010
0000
0100
0001
0100
0000
0010
1000
0000
0001
0100
0000
0010
0000
1000
,  // measure 8
0010
0100
0000
1001
1000
0000
0100
0000
0010
0000
0001
0100
0000
0010
1000
0000
,  // measure 9
0001
0000
0010
0000
0100
0000
1000
0000
0001
0100
0000
0010
1000
0010
1000
0000
,  // measure 10
0001
0000
0100
0000
0010
1000
0001
0000
0010
0001
0000
0100
0010
1000
0001
0010
,  // measure 11
0100
0000
1000
0000
0001
0010
0001
0000
1000
0010
0000
1000
0100
1000
0100
0010
,  // measure 12
0001
0000
1001
0000
0000
0000
1000
0000
0100
0000
0010
0001
0010
0001
0000
1000
,  // measure 13
0000
0010
0000
0100
0001
0000
1000
0000
0100
0000
1000
0010
0100
0001
0000
0100
,  // measure 14
0000
0001
0000
0010
0100
0000
1000
0000
0100
0000
0010
0001
1000
0010
0000
1000
,  // measure 15
0000
0000
0001
0000
0000
0000
0010
0000
0100
0000
1000
0000
0100
0000
1000
0000
0100
0000
1000
0000
0100
0000
1000
0000
0100
0000
0010
0000
0100
0010
0001
0000
,  // measure 16
0010
0001
0010
0001
0000
1000
0000
0010
0000
0000
0100
0001
1000
0000
0100
0000
,  // measure 17
0010
0000
0001
1000
0000
0010
0000
0100
0000
0000
0001
0100
0010
0000
1000
0000
,  // measure 18
0001
0000
0010
0100
0000
1000
0000
0001
0000
0000
0100
0001
1000
0000
0100
0000
,  // measure 19
0010
0000
0001
1000
0000
0010
0000
0100
0000
0000
0000
0001
0000
1000
0000
0100
,  // measure 20
0000
0000
0000
0100
0000
1000
0000
0100
0000
0000
1000
0010
0100
0000
0001
0000
,  // measure 21
1000
0000
0001
0010
0000
0001
0000
1000
0000
0000
0010
0100
0001
0000
1000
0000
,  // measure 22
0100
0000
0010
0001
0000
1000
0000
0010
0000
0000
1000
0001
0100
0000
0001
0000
,  // measure 23
0010
0000
0100
1000
0000
0010
0100
0000
0000
0000
0001
0000
0010
0100
0000
0000
,  // measure 24
0000
1001
0000
0000
0000
1000
0000
0100
0000
0010
0000
0001
1000
0000
0010
0000
,  // measure 25
0100
0000
0001
0100
0000
0010
0000
1000
0000
0001
0000
0010
0100
0000
1000
0000
,  // measure 26
0100
0000
0010
0001
0000
1000
0000
0010
0000
1000
0000
0001
0100
0000
0010
0000
,  // measure 27
0100
0000
0001
1000
0000
0100
0000
0010
0000
0100
0000
1000
0000
0001
0010
0000
,  // measure 28
0100
0000
1001
0000
0000
0000
0100
0000
1000
0000
0001
0000
0100
0010
0000
1000
,  // measure 29
0000
0010
0000
0100
0001
0000
1000
0000
0001
0000
0100
0000
0010
1000
0000
0001
,  // measure 30
0000
0010
0000
0100
1000
0000
0001
0000
1000
0000
0000
0000
0000
0000
1000
0100
,  // measure 31
1000
0000
0100
0000
1000
0000
0100
0000
1000
0000
0000
0000
0000
0000
0000
0000
0001
0000
0000
0000
1000
0000
0000
0000
0000
0000
0000
0000
0001
0100
0001
0000
,  // measure 32
0100
0001
0100
0010
0000
1000
0000
0001
0000
1000
0000
0100
0000
1000
0001
1000
,  // measure 33
0001
1000
0001
0100
0000
0010
0000
1000
0000
0010
0000
0100
0000
0010
1000
0010
,  // measure 34
1000
0010
0100
0010
0000
1000
0000
0100
0000
0010
0000
0001
0000
0010
0001
0010
,  // measure 35
0001
1000
0001
1000
0000
0001
0000
0100
0000
0010
0000
0100
0000
0001
0100
0001
,  // measure 36
0100
0010
0100
0010
0000
1000
0000
0001
0000
0010
0000
0100
0000
0010
0001
1000
,  // measure 37
0001
1000
0001
0100
0000
0010
0000
1000
0000
0001
0000
0010
0000
0100
1000
0100
,  // measure 38
1000
0100
1000
0001
0000
0100
0000
0010
0000
1000
0000
0010
0000
1000
0001
0010
,  // measure 39
0001
1000
0001
1000
0000
0010
0100
0000
0000
0000
0001
0000
1000
0100
0000
0000
,  // measure 40
0000
1100
0000
1000
0000
0010
0000
1000
0000
0100
0000
1000
0010
1000
0010
1000
,  // measure 41
0001
0100
0000
0001
0000
0100
0000
0010
0000
0100
0000
0001
0100
0001
1000
0001
,  // measure 42
0010
0001
0000
0100
0000
0010
0000
1000
0000
0001
0000
1000
0010
1000
0001
1000
,  // measure 43
0100
0000
1000
0000
0000
0000
0001
0000
0000
0000
0010
0000
0000
0000
0100
0000
0000
0000
1000
0000
0000
0000
0010
1000
0010
0000
1000
0000
0100
0000
1000
0000
,  // measure 44
0100
0000
0010
0000
0001
0000
1000
0000
0100
0000
0010
0001
0010
0001
0100
0001
,  // measure 45
0100
0000
0000
0000
0010
0000
0000
0000
1000
0000
0000
0000
0001
0000
0000
0000
0010
0000
0000
0000
0100
1000
0001
0000
0010
0000
0100
0000
0010
0000
0001
0000
,  // measure 46
0000
0000
0000
0000
0000
0000
0000
0000
0000
MMMM
0000
0000
0000
0000
1000
0000
,  // measure 47
0000
0000
0000
0000
0000
0000
0000
0000
MMMM
0000
0000
0000
0000
0220
0000
0000
,  // measure 48
0000
0000
0000
0000
,  // measure 49
0000
0000
0000
0000
,  // measure 50
0000
0000
0000
0000
,  // measure 51
0000
0000
0000
0000
,  // measure 52
0000
0000
0000
0000
,  // measure 53
0000
0000
0000
0000
0000
0000
0000
0000
0000
0000
0000
0000
0000
0330
0000
0000
,  // measure 54
0000
0000
0000
0000
0000
0000
0000
0000
0000
0000
0000
0000
0000
2000
0000
0000
,  // measure 55
0000
0000
0000
0000
0000
3002
0000
0000
0000
0203
0000
0000
0000
0320
0000
0000
,  // measure 56
0000
0000
0000
0000
0000
0230
0000
0000
0000
0302
0000
0000
0000
2103
0000
0000
,  // measure 57
0000
0000
0000
0000
0000
3020
0000
0000
0000
0230
0000
0000
0000
2300
0000
0000
,  // measure 58
0000
0000
0000
0000
0000
3200
0000
0000
0000
0302
0000
0000
0003
1001
0000
1000
,  // measure 59
0100
0010
0100
1000
0001
1000
0000
0001
0100
0010
0100
0001
1000
0100
0000
0010
,  // measure 60
0001
1000
0010
0100
0001
1000
0000
0100
0010
0000
0001
1000
0010
0100
0000
0001
,  // measure 61
0100
0010
0100
0001
1000
0001
0000
1000
0100
0010
0100
1000
0010
0100
0000
0001
,  // measure 62
0100
0010
0100
0001
1000
0100
0000
1000
0001
0000
0010
0001
1000
0010
0000
1000
,  // measure 63
0000
0010
0000
1000
0000
0100
0000
1000
0000
0100
0000
1000
0000
1001
0000
0001
,  // measure 64
0000
1001
0000
1000
0000
1001
0000
0001
0000
1001
0000
1000
0000
0010
0000
0100
,  // measure 65
0000
0010
0000
0100
0000
0001
0000
1000
0000
0001
0000
1000
0000
1100
0000
1000
,  // measure 66
0000
1001
0000
0001
0000
0101
0000
0001
0000
1001
0000
1000
0000
1100
0000
1000
,  // measure 67
0000
0010
0000
0100
0000
0001
0000
1000
0000
0010
0000
0100
0000
0110
0000
0010
,  // measure 68
0000
0110
0000
0100
0000
0110
0000
0010
0000
1000
0000
0001
0000
1001
0000
1000
,  // measure 69
0000
1001
0000
0001
0000
0100
0000
0010
0000
0110
0000
0010
0000
0110
0000
0100
,  // measure 70
0000
0001
0000
1000
0000
0100
0000
0010
0000
0001
0000
0010
0000
0110
0000
0100
,  // measure 71
0000
0010
0000
0001
0000
0011
0000
0001
0000
0101
0000
0100
0000
0010
0000
1000
,  // measure 72
0000
1010
0000
0010
0000
0110
0000
0100
0000
0101
0000
0001
0000
1001
0000
1000
,  // measure 73
0000
0001
0000
0100
0000
1010
0000
1000
0000
1001
0000
0001
0000
0100
0000
0001
,  // measure 74
0000
1100
0000
1000
0000
1010
0000
0010
0000
0110
0000
0100
0000
0101
0000
0001
,  // measure 75
0000
1000
0000
0001
0000
0101
0000
0001
0000
1001
0000
1000
0000
0100
0000
0010
,  // measure 76
0000
0011
0000
0001
0000
1001
0000
1000
0000
1010
0000
0010
0000
0110
0000
0100
,  // measure 77
0000
0010
0000
0100
0000
0101
0000
0001
0000
1001
0000
1000
0000
1010
0000
0000
,  // measure 78
0000
0100
0000
0002
0000
0000
0000
2000
0000
0000
0000
3003
0000
1001
0000
0000
,  // measure 79
0200
0000
0000
0302
0000
2003
0000
0000
3020
0000
0000
2030
0000
3002
0000
0000
,  // measure 80
0203
0000
0000
0302
0000
2003
0000
0000
3020
0000
0000
2030
0000
3200
0000
0000
,  // measure 81
0320
0000
0000
0032
0000
2003
0000
0000
3020
0000
0000
0230
0000
0302
0000
0000
,  // measure 82
2003
0000
0000
3200
0000
0320
0000
0000
0032
0000
0000
2003
0000
3020
0000
0000
,  // measure 83
0230
0000
0000
0320
0000
2030
0000
0000
3002
0000
0000
0023
0000
0032
0000
0000
,  // measure 84
2003
0000
0000
3200
0000
0320
0000
0000
0230
0000
0000
2300
0000
3002
0000
0000
,  // measure 85
0203
0000
0000
0320
0000
0230
0000
0000
0302
0000
0000
2003
0000
3200
0000
0000
,  // measure 86
0320
0000
0000
0032
0000
2003
0000
0000
3020
0000
0000
0130
0000
0001
0000
1000
,  // measure 87
0001
1000
0001
1000
0000
0000
0000
1000
0000
0000
0000
1000
0000
0001
0000
0100
,  // measure 88
0001
0100
0001
0100
0000
0000
0000
0100
0000
0000
0000
0100
0000
0010
0000
1000
,  // measure 89
0010
1000
0010
1000
0000
0000
0000
1000
0000
0000
0000
1000
0000
0100
0000
1000
,  // measure 90
0100
1000
0100
1000
0000
0000
0000
1000
0000
0000
0000
1000
0000
0001
0000
1000
,  // measure 91
0001
0100
0010
1000
0000
0000
0000
1000
0000
0000
0000
1000
0000
0001
0000
0010
,  // measure 92
0100
1000
0001
0010
0000
0000
0000
0010
0000
0000
0000
0010
0000
0001
0000
1000
,  // measure 93
0010
0100
0001
1000
0000
0010
0000
1000
0000
0001
0000
0100
0000
0010
0000
0100
,  // measure 94
0001
1000
0100
1000
0000
0001
0000
0010
0100
1000
0010
0100
0000
2002
0000
0000
,  // measure 95
0000
0000
0000
0000
0000
0000
0000
0000
0000
3000
0000
MM00
0000
0203
0000
00MM
,  // measure 96
0000
0000
0000
00MM
0000
0320
0000
MM00
0000
0000
0000
MM00
0000
2030
0000
00MM
,  // measure 97
0000
0000
0000
0000
0000
0000
0000
0000
0000
0000
0000
00MM
0000
3002
0000
MM00
,  // measure 98
0000
0000
0000
0MM0
0000
0023
0000
M00M
0000
0000
0000
MM00
0000
0230
0000
00MM
,  // measure 99
0000
0000
0000
M00M
0000
2300
0000
0MM0
0000
0000
0000
0000
0000
0000
0000
0000
,  // measure 100
0000
0000
0000
0MM0
0000
3200
0000
M00M
0000
0000
0000
00MM
0000
0320
0000
MM00
,  // measure 101
0000
0000
0000
M00M
0000
0032
0000
0MM0
0000
0000
0000
M0M0
0000
2003
0000
0M0M
,  // measure 102
0000
0000
0000
0MM0
0000
3020
0000
M00M
0000
0000
0000
MM00
0000
0230
0000
00MM
,  // measure 103
0000
0000
0000
M00M
0000
2300
0000
0MM0
0000
0000
0000
0MM0
0000
3200
0000
M00M
,  // measure 104
0000
0000
0000
M00M
0000
0302
0000
0MM0
0000
0000
0000
M0M0
0000
2003
0000
0M0M
,  // measure 105
0000
0000
0000
0000
0000
0000
0000
0000
0000
0000
0000
00MM
0000
3020
0000
MM00
,  // measure 106
0000
0000
0000
M00M
0000
0032
0000
0MM0
0000
0000
0000
MM00
0000
2003
0000
00MM
,  // measure 107
0000
0000
0000
0MM0
0000
3200
0000
M00M
0000
0000
0000
0000
0000
0000
0000
0000
,  // measure 108
0000
0000
0000
00MM
0000
0302
0000
MM00
0000
0000
0000
M0M0
0000
0023
0000
0M0M
,  // measure 109
0000
0000
0000
MM00
0000
2030
0000
00MM
0000
0000
0000
0M0M
0000
3002
0000
M0M0
,  // measure 110
0000
0000
0000
MM00
0000
0203
0000
00MM
0000
2000
0000
0000
0000
0300
0000
3M0M
,  // measure 111
MM00
0000
0000
0000
,  // measure 112
0000
0000
0000
0001
,  // measure 113
0000
0010
0100
0000
0000
0000
0000
1000
0001
0000
0000
0000
0000
0100
0010
0000
,  // measure 114
0000
0000
0000
0000
0000
0000
1000
0000
0001
0000
0000
0000
1000
0001
1000
0000
0000
0000
0000
0000
0000
0000
0001
0000
0000
0000
0000
0000
0000
0000
0000
0000
,  // measure 115
0100
0010
0000
0000
0000
0000
0100
0010
0000
0000
0000
0000
1000
0100
0000
0000
,  // measure 116
0000
0000
0000
0000
1000
0000
0010
0000
0000
0000
0100
0010
0100
0000
0000
0000
0000
0000
0000
0000
0101
0000
0000
0000
0001
0000
1000
0000
0000
0000
0000
0000
,  // measure 117
1100
0000
1000
1001
0000
0000
0010
0000
0001
1001
0000
0001
0000
0010
0000
0001
,  // measure 118
0000
0000
0000
0011
0001
0000
0000
0000
0000
1000
1100
0000
1000
0001
0000
0000
,  // measure 119
0000
0000
0101
0001
0000
2010
0000
0010
0000
3001
0000
0101
1100
0000
0000
0000
,  // measure 120
0000
0010
0100
0110
0000
0110
0000
1000
,  // measure 121
0100
0010
0001
0000
0000
0000
1000
0000
0000
0010
0000
0000
0100
0000
0000
0001
,  // measure 122
0000
0000
1000
0000
0000
0100
0000
0000
0010
0000
0000
0001
0000
0000
1000
0000
,  // measure 123
0010
0100
0000
0000
0000
0100
0000
0001
0000
1000
0000
0010
0000
0100
0000
0001
,  // measure 124
0000
1000
0000
0010
0000
0100
0000
0001
0000
1000
0000
0001
0000
0010
0000
0001
,  // measure 125
0000
1000
0000
0010
0000
1000
0001
1000
0001
1000
0010
1000
0010
0100
0010
0100
,  // measure 126
0010
0000
0100
0000
0001
0000
0100
0000
0001
0000
1000
0000
0001
0000
1000
0000
0001
0000
0010
0000
0001
0000
0010
0000
0001
0000
0010
0000
0100
0000
0010
0100
,  // measure 127
1000
0100
1000
0001
1000
0000
010M
0000
0010
0000
0100
0000
0M10
0000
0001
0000
,  // measure 128
100M
0010
M100
0010
10M0
0001
M100
0010
,  // measure 129
100M
0001
0M10
0100
10M0
0001
M100
0001
,  // measure 130
1M00
0000
0010
0000
100M
0000
0001
0000
M100
0000
0010
0000
01M0
0000
0001
1000
,  // measure 131
00M0
0100
0000
0010
M000
0000
0000
0001
0M00
0010
0000
0100
000M
1000
0000
0001
,  // measure 132
0M00
0010
0000
0100
M000
0010
0000
0001
00M0
1000
0000
0010
0M00
1000
0000
0001
,  // measure 133
M000
0100
0000
0001
00M0
1000
0000
0010
M000
0100
0000
0001
00M0
1000
0000
0100
,  // measure 134
M000
0010
0000
0100
00M0
1000
0000
0001
M100
0000
0001
0000
100M
0100
0000
1001
,  // measure 135
00M0
0100
0000
0010
M000
0100
0000
0010
0M00
0001
0000
1000
000M
0010
0000
0100
,  // measure 136
M000
0010
0000
0100
00M0
0001
0000
0100
M000
0001
1000
0000
010M
0000
0010
0000
,  // measure 137
M100
0010
0M01
0010
00M1
1000
001M
0100
,  // measure 138
M010
0000
0100
0000
00M1
0000
0100
0000
0M01
1000
0000
0100
000M
0010
0000
0000
,  // measure 139
0M00
0001
0000
0010
000M
0100
0000
0010
M000
0100
0000
1000
0M00
0001
0000
0100
,  // measure 140
00M0
0001
0000
0100
M000
0010
0000
0100
000M
0010
1000
0000
0M01
0000
0010
0000
,  // measure 141
0M01
0000
0010
0000
010M
0000
0010
0000
M100
0000
1000
0000
00M1
0000
0100
0001
,  // measure 142
0100
0000
0001
0000
1000
0000
0010
0000
1000
0000
0010
0000
0100
0000
0001
0000
01M0
0001
1000
0000
0010
0000
0100
0000
0001
0000
2000
0000
0000
0000
0000
0000
,  // measure 143
0000
0000
0000
0000
,  // measure 144
0000
0000
0000
0000
,  // measure 145
0000
0000
0000
0000
,  // measure 146
0000
0000
0000
0000
,  // measure 147
0000
0000
0000
0000
,  // measure 148
0000
0MMM
0000
0000
,  // measure 149
0MMM
0000
0000
0000
,  // measure 150
0MMM
0000
0000
0000
,  // measure 151
0MMM
0000
0000
0000
,  // measure 152
0000
0000
0000
0MMM
,  // measure 153
0000
0000
0000
0MMM
,  // measure 154
0000
0000
0000
0000
,  // measure 155
0MMM
0000
0000
0000
,  // measure 156
0MMM
0000
0000
0000
0000
3000
0000
0000
0000
0000
1000
0000
0001
0000
1MM1
0000
,  // measure 157
0000
M1M1
0000
1M1M
0000
1MM1
0000
M11M
,  // measure 158
0000
M1M1
0000
MM11
0000
11MM
0000
1MM1
,  // measure 159
0000
M11M
0000
M1M1
0000
1M1M
0000
1MM1
,  // measure 160
0000
MM11
0000
11MM
0000
M11M
0000
1M1M
,  // measure 161
0000
1MM1
0000
M1M1
0000
MM11
0000
M11M
,  // measure 162
0000
M11M
0000
1M1M
0000
1MM1
0000
M1M1
,  // measure 163
0000
1MM1
0000
M11M
0000
11MM
0000
MM11
,  // measure 164
0000
1M1M
0000
M1M1
0000
11MM
0000
1MM1
,  // measure 165
0000
0000
0000
0000
0000
0000
0000
0000
0000
0000
0000
0000
0000
0000
4000
0040
,  // measure 166
0000
0000
0000
0000
0000
0000
3030
1000
,  // measure 167
0000
1000
0000
0001
0000
0010
0100
0000
,  // measure 168
0100
0000
1000
0001
0000
0001
0000
0100
,  // measure 169
0000
0001
0000
1000
0000
0010
1000
0000
,  // measure 170
1000
0000
0001
0010
0000
0010
0000
0100
,  // measure 171
0000
1000
0000
0001
0000
0100
0010
0000
,  // measure 172
0010
0000
1000
0001
0000
0010
0000
0001
,  // measure 173
0000
0001
0000
1000
0000
0001
1000
0000
,  // measure 174
1000
0000
0010
0100
0000
0001
0000
1001
,  // measure 175
1000
0100
0010
0000
0001
0010
0000
0001
,  // measure 176
0010
0001
1000
0001
0100
0001
1000
0000
,  // measure 177
0001
0010
0100
0000
1000
0010
0000
1000
,  // measure 178
0010
0000
1000
0000
0001
0000
1000
0000
0100
0000
1000
0000
0001
0100
0001
1000
,  // measure 179
0010
1000
0001
0100
0001
1000
0010
1000
0001
0100
0001
1000
0010
1000
0001
0100
,  // measure 180
0001
0010
0100
1000
0100
0010
0001
0010
0100
1000
0100
0010
0100
1000
0100
1000
,  // measure 181
0001
1000
0001
1000
0001
0100
0001
0100
0010
0100
0010
0100
0010
1000
0010
1000
,  // measure 182
0001
0100
0010
1000
0010
0100
0010
1000
0001
0010
0001
1000
0010
0000
0000
0020
,  // measure 183
0000
0000
2030
0000
3002
0000
0000
0203
0000
0000
0302
0000
2003
0000
0000
3020
,  // measure 184
0000
0000
2030
0000
3002
0000
0000
0203
0000
0000
0302
0000
0023
0000
0000
0230
,  // measure 185
0000
0000
2300
0000
3002
0000
0000
0203
0000
0000
0320
0000
2030
0000
0000
3002
,  // measure 186
0000
0000
0023
0000
0230
0000
0000
2300
0000
0000
3002
0000
0203
0000
0000
0320
,  // measure 187
0000
0000
0230
0000
0302
0000
0000
2003
0000
0000
3200
0000
2300
0000
0000
3002
,  // measure 188
0000
0000
0023
0000
0230
0000
0000
0320
0000
0000
0032
0000
2003
0000
0000
3020
,  // measure 189
0000
0000
0230
0000
0320
0000
0000
2030
0000
0000
3002
0000
0023
0000
0000
0230
,  // measure 190
0000
0000
2300
0000
3002
0000
0000
0203
0000
0000
0310
0000
1000
0000
0001
0010
,  // measure 191
0001
1000
0001
0000
0000
0000
0001
0000
0000
0000
0001
0000
1000
0000
0010
1000
,  // measure 192
0010
0100
0010
0000
0000
0000
0010
0000
0000
0000
0010
0000
0100
0000
0001
0100
,  // measure 193
0001
1000
0001
0000
0000
0000
0001
0000
0000
0000
0001
0000
0010
0000
0001
0010
,  // measure 194
0001
1000
0001
0000
0000
0000
0001
0000
0000
0000
0001
0000
1000
0000
0001
1000
,  // measure 195
0010
0100
0001
0000
0000
0000
0001
0000
0000
0000
0001
0000
1000
0000
0100
0010
,  // measure 196
0001
1000
0100
0000
0000
0000
0100
0000
0000
0000
0100
0000
1000
0000
0001
0100
,  // measure 197
0010
1000
0001
0000
0100
0000
0001
0000
1000
0000
0010
0000
0100
0000
0010
1000
,  // measure 198
0001
0010
0001
0000
1000
0000
0100
0010
0001
0100
0010
0000
2002
0000
0000
0000
,  // measure 199
0000
0000
0000
0000
0003
00MM
3020
MM00
,  // measure 200
0000
MM00
0230
00MM
0000
00MM
0302
MM00
,  // measure 201
1000
0000
0000
0000
1000
MM00
2003
00MM
,  // measure 202
0100
0MM0
0000
000M
0100
00MM
3002
MM00
,  // measure 203
0010
M000
0000
0MM0
1000
0000
0000
0000
,  // measure 204
1000
0MM0
0023
M00M
0000
MM00
0230
00MM
,  // measure 205
1000
M00M
0000
00M0
2300
0M0M
0001
00M0
,  // measure 206
0000
0MM0
3200
M00M
0000
00MM
0320
MM00
,  // measure 207
0001
M00M
0000
0M00
0001
0M00
0230
M00M
,  // measure 208
0000
M00M
2300
0MM0
0000
0M0M
3002
M0M0
,  // measure 209
0100
0000
0000
0000
0100
MM00
0203
00MM
,  // measure 210
0010
M00M
0000
0000
0010
000M
0302
0M00
,  // measure 211
1000
0MM0
0000
M000
1000
0000
0000
0000
,  // measure 212
1000
MM00
0023
000M
0000
0M0M
0230
M0M0
,  // measure 213
0000
00MM
2300
0M00
0000
00M0
3002
0M00
,  // measure 214
0000
0000
00M0
0000
0203
0000
M000
0300
0000
0000
0000
0010
0000
1000
0000
0001
,  // measure 215
0000
0000
0010
0001
1000
0000
0010
0000
0100
0000
0001
0100
0000
0010
0000
1000
,  // measure 216
0000
0000
1000
0100
1000
0000
0010
0000
0100
0000
0001
0010
0000
0001
0000
1000
,  // measure 217
0000
0000
0001
0010
0100
0000
1000
0000
0100
0000
0010
0001
0000
1000
0000
0010
,  // measure 218
0000
0000
0100
0001
0000
1000
0000
0100
0000
0000
0000
1000
0000
0100
0000
1000
,  // measure 219
0000
0000
0001
0010
0100
0000
1000
0000
0010
0000
1000
0001
0000
1000
0000
0010
,  // measure 220
0000
0000
1000
0010
0100
0000
0001
0000
0100
0000
0010
1000
0000
0100
0000
0001
,  // measure 221
0000
0000
0001
0100
1000
0000
0010
0000
0100
0000
0001
0010
0000
0001
0000
0100
,  // measure 222
0000
0000
0000
0010
0000
1000
0100
0000
0000
0000
1001
0000
0100
0000
0010
0000
,  // measure 223
0000
1000
0001
1000
0000
0001
0000
1000
0000
0001
1000
0000
0001
0000
1000
0000
,  // measure 224
0000
0001
1000
0001
0000
1000
0000
0001
0000
1000
0001
0000
1000
0000
0001
0000
,  // measure 225
0000
0010
0100
0010
0000
0100
0000
0010
0000
0100
0010
0000
0100
0000
0010
0000
,  // measure 226
0000
0100
0010
0000
0100
0010
0000
0000
0000
0100
0000
1000
0000
0001
0000
0000
,  // measure 227
0100
0001
1000
0000
0001
0000
1000
0000
0001
0010
0000
0100
0000
1000
0000
0000
,  // measure 228
0000
0010
0000
0100
0001
0000
0000
0000
1000
0000
0100
0000
0010
0000
0000
0000
,  // measure 229
0001
0000
1000
0010
0000
0000
0000
0100
0000
0001
1000
0000
0000
0000
0001
0000
,  // measure 230
0010
0100
0000
0000
0000
1000
0000
0000
0000
0001
0000
0100
0000
0010
0000
0100
,  // measure 231
0000
0001
0000
1000
0000
0001
0000
0010
0000
0001
0000
1000
0000
0010
0000
0100
,  // measure 232
0000
0001
0000
1000
0000
0100
0000
0001
0000
0100
0000
1000
0000
0100
0000
0010
,  // measure 233
0000
0100
0000
1000
0000
0100
0000
0001
0000
0100
0000
1000
0000
0100
0000
0010
,  // measure 234
0000
0100
0000
1000
0000
0000
0000
1001
0000
0000
0000
0010
0000
0001
0000
1000
,  // measure 235
0000
0001
0000
1000
0000
0010
0000
0100
0000
0010
0000
1000
0000
0001
0000
0010
,  // measure 236
0000
0001
0000
1000
0000
0010
0000
0100
0000
0001
0000
0100
0000
1000
0000
0100
,  // measure 237
0000
0001
0000
0100
0000
0010
0000
0100
0000
0001
0000
0100
0000
1000
0000
0100
,  // measure 238
0000
0001
0000
0100
0010
0000
0000
0000
1000
0000
0010
0000
0001
0000
0000
0000
,  // measure 239
0010
0100
0001
0000
1000
0100
0001
0000
,  // measure 240
0100
0010
0100
0000
1000
0010
0100
0000
,  // measure 241
0001
0100
0010
0000
1000
0010
0001
0000
,  // measure 242
0010
0000
1000
0100
0000
0000
0000
1000
0000
0100
0000
0001
0000
0000
0000
0100
,  // measure 243
0000
1000
0000
0010
0000
0000
0000
1000
0000
0010
0000
0001
0000
0000
0000
0010
,  // measure 244
0000
1000
0000
0010
0000
0000
0000
1000
0000
0100
0000
0010
0000
0000
0000
0100
,  // measure 245
0000
0001
0000
0100
0000
0000
0000
0010
0000
0100
0000
1000
0000
0000
0000
0001
,  // measure 246
0000
0100
0010
0000
0000
0000
2002
0000
0000
0000
0000
0000
0000
0000
0000
0000
,  // measure 247
0000
0000
0000
3003
0000
0000
0000
0000
;
