#TITLE:Rave Until The Night Is Over;
#SUBTITLE:;
#ARTIST:DM Ashura feat. Freda;
#TITLETRANSLIT:;
#SUBTITLETRANSLIT:;
#ARTISTTRANSLIT:;
#CREDIT:;
#BANNER:Rave Until The Night Is Over-bn.png;
#BACKGROUND:Rave Until The Night Is Over-bg.png;
#LYRICSPATH:;
#CDTITLE:SilveR.png;
#MUSIC:Rave Until The Night Is Over.mp3;
#OFFSET:-0.100;
#SAMPLESTART:74.240;
#SAMPLELENGTH:12.420;
#SELECTABLE:YES;
#DISPLAYBPM:155.000;
#BPMS:0.000=155.000,191.000=160.000,192.000=155.000;
#STOPS:;
#BGCHANGES:31.000=Dance7.avi=1.000=1=0=1,
64.000=Light2.avi=1.000=0=0=1,
95.000=Rain1.avi=1.000=1=0=1,
127.000=DDR3.avi=0.400=1=0=1,
143.000=Square3.avi=1.000=1=0=1,
160.000=Stairs1.avi=1.000=0=0=1,
176.000=Text8.avi=1.000=0=0=1,
191.000=Tunnel12.avi=0.800=1=0=1,
223.000=Fire1R.avi=0.800=1=0=1,
255.000=Rave Until The Night Is Over-bg.png=1.000=1=0=1,
271.000=Dance7.avi=0.800=1=0=1,
288.000=Rave Until The Night Is Over-bg.png=1.000=0=0=1,
99999=-nosongbg-=1.000=0=0=0 // don't automatically add -songbackground-
;

//---------------dance-single - ----------------
#NOTES:
     dance-single:
     :
     Easy:
     3:
     0.183,0.284,0.035,0.017,0.000:
0000
0000
0000
0000
,
0000
0000
0000
0000
,
0000
0000
0000
0000
,
0000
0000
0000
0000
,
1000
0000
0000
0000
,
0100
0000
0000
0000
,
0001
0000
0000
0000
,
1010
0000
0000
0000
,
0001
0000
0001
0000
,
0010
0000
0010
0000
,
1000
0000
1000
0000
,
0100
0000
0100
0000
,
0001
0000
0001
0000
,
0001
0000
0001
0000
,
0001
0001
0001
0001
,
0001
0001
0001
0001
,
1000
0000
0010
0000
,
0100
0000
0001
0000
,
1000
0000
0001
0000
,
0100
0000
1000
0000
,
0010
0000
0010
0000
,
1000
0000
0001
0000
,
0010
0000
1000
0000
,
0100
0000
0110
0000
,
0001
0001
0000
0000
,
1000
1000
0000
0000
,
0010
0010
0000
0000
,
0100
0100
0000
0000
,
0001
0000
1000
0000
,
0001
0000
0010
0000
,
0100
0000
0010
0000
,
1000
0000
0100
0000
,
0001
0000
0000
0000
,
1000
0000
0000
0000
,
0010
0000
0000
0000
,
0100
0000
0000
0000
,
0001
0000
0100
0000
,
0010
0000
1000
0000
,
0100
0000
0010
0000
,
0001
0000
0100
0000
,
0001
0001
0001
0000
,
0010
0100
0010
0000
,
1000
0010
1000
0000
,
0100
0010
0100
0000
,
1000
0001
1000
0000
,
0010
0001
0010
0000
,
0100
0010
0100
0000
,
0001
0010
0001
1000
,
0100
0000
0001
0000
,
1000
0000
0010
0000
,
0100
0000
0001
0000
,
1000
0000
1000
0000
,
0100
0000
1000
0000
,
0010
0000
0100
0000
,
0001
0000
0100
0000
,
0010
0000
0011
0000
,
1000
0000
0001
0000
,
0010
0000
0001
0000
,
1000
0000
0010
0000
,
0100
0000
0001
0000
,
0010
0000
0001
0000
,
0100
0000
0100
0000
,
0010
0000
1000
0000
,
0010
0000
1000
0000
,
0001
0000
0000
0000
,
0100
0100
0100
0000
,
1000
0000
0000
0000
,
0010
0010
0010
0000
,
1000
0000
0000
0000
,
0001
0100
0001
0000
,
0010
0000
0000
0000
,
0100
0010
0100
0000
,
2002
0000
0000
0000
,
3003
0000
0000
0000
;

//---------------dance-single - ----------------
#NOTES:
     dance-single:
     :
     Medium:
     6:
     0.429,0.536,0.242,0.130,0.000:
0000
0000
0000
0000
,
0000
0000
0000
0000
,
0000
0000
0000
0000
,
0000
0000
0000
0000
,
0001
1000
0001
1000
,
0010
0100
0001
1000
,
0010
0100
0010
0100
,
0001
1000
0010
0100
,
0001
0000
0101
0000
1000
0010
1000
0000
,
0001
0000
0101
0000
0010
1000
0010
0000
,
0100
0000
0101
0000
1000
0010
1000
0000
,
0001
0000
0101
0000
0010
1000
0010
0000
,
1000
1100
0001
0101
,
1000
1100
0001
0101
,
2000
3002
2003
3002
,
1003
0001
1000
0001
1000
0001
1000
0001
,
0010
0000
0110
0000
1000
0001
0100
0000
,
0010
1000
0010
1000
0100
0000
0010
0001
,
0100
0000
0101
0000
0100
0001
1000
0000
,
0001
1000
0001
0000
0011
0000
0000
0000
,
0010
0000
0110
0000
0001
0100
0010
0000
,
1000
0010
1000
0100
0010
0000
0001
0100
,
0001
0000
0101
0000
1000
0100
1000
0000
,
0010
1000
0010
0000
0220
0000
0330
0000
,
0001
1000
0010
0100
,
0001
0000
0100
0001
0100
0000
0010
1000
,
0010
0100
0001
1000
,
0010
0100
0001
0100
,
1000
0100
1000
0100
,
0010
0000
1000
0100
1000
0000
0010
0100
,
0010
1000
0001
0010
,
0001
0100
0010
1000
,
0001
0000
0000
0001
0000
0000
0100
0000
,
0010
0000
0000
0010
0000
0000
1000
0000
,
0001
0000
0000
0001
0000
0000
0010
0000
,
0001
0000
0000
0001
0000
0000
0100
0000
,
0110
0000
0000
1000
0000
0000
0001
0000
,
0010
0000
0000
0001
0000
0000
0100
0000
,
1000
0000
0000
0100
0000
0000
0010
0000
,
1000
0000
0000
0100
0000
0000
0010
0000
,
0001
0010
0001
0000
0010
0001
0010
0000
,
0100
0010
0100
0010
0100
1000
0100
0000
,
1000
0010
1000
0000
0010
1000
0010
0000
,
0100
0010
0100
0010
0100
0001
0100
0000
,
0010
1000
0010
0000
0100
0001
0100
0000
,
0100
0010
0100
0010
1000
0001
1000
0000
,
0100
0000
0110
0000
,
1001
0000
0102
1003
,
0010
0000
0110
0000
1000
0001
0100
0000
,
0010
1000
0100
0000
1000
0000
0001
0000
,
0010
0000
0011
0000
0001
0100
0001
0000
,
1000
0010
1000
0000
0220
0000
0330
0000
,
0001
0000
0101
0000
1000
0100
1000
0000
,
0010
1000
0010
0100
0010
0000
0100
0001
,
1000
0000
1001
0000
0100
1000
0001
0000
,
0010
0001
0010
0000
0220
0000
0330
0000
,
1000
0000
0001
0000
0100
0001
0100
0000
,
0010
1000
0100
1000
0001
0000
0100
0000
,
0010
0000
1010
0000
1000
0100
1000
0000
,
0010
1000
0001
0100
0001
0000
0000
0000
,
0010
0000
0110
0000
0001
0010
0001
0000
,
0100
0010
0100
0001
1000
0000
1001
0000
,
0100
1000
0001
0100
,
0010
1000
1100
0000
,
0001
0001
0100
0100
,
1000
0100
0001
1000
,
0020
0000
0030
0000
,
0001
0010
0001
0100
,
2000
0000
3000
0000
,
0100
0100
0001
1000
,
0020
0000
0030
0000
,
0001
1000
0100
0001
,
2000
0000
0000
0000
,
3000
0000
0000
0000
;

//---------------dance-single - ----------------
#NOTES:
     dance-single:
     :
     Hard:
     10:
     0.699,0.820,0.207,0.207,0.367: // measure 1
0000
0000
0000
0000
,  // measure 2
0000
0000
0000
0000
,  // measure 3
0000
0000
0000
0000
,  // measure 4
0000
0000
0000
0000
,  // measure 5
0110
0000
1000
0100
0000
1000
0001
0010
0001
0000
0100
0000
0010
0000
0100
0000
,  // measure 6
0002
0000
0000
0000
0013
0000
0100
1000
0100
0000
0000
0000
0001
0100
0001
0100
,  // measure 7
0010
0000
1000
0001
1000
0000
0001
0100
0001
0100
0010
1000
0100
0000
0010
0000
,  // measure 8
0001
0000
0100
0010
0100
0000
0001
0100
0001
0000
1000
0100
1000
0100
0010
0001
,  // measure 9
0010
0000
0000
0000
1001
0000
0000
0000
0010
0000
0001
1000
0000
0000
0000
0000
,  // measure 10
0010
0000
0000
0000
1001
0000
0000
0000
0010
0000
1000
0001
0000
0000
0000
0000
,  // measure 11
0100
0000
0000
0000
1001
0000
0000
0000
0100
0000
0001
1000
0000
0000
0000
0000
,  // measure 12
0100
0000
0000
0000
1001
0000
0000
0000
0100
0000
1000
0001
0000
0000
0000
0000
,  // measure 13
0021
0130
1020
0130
,  // measure 14
0021
0130
1020
0130
,  // measure 15
0011
1010
0011
1010
,  // measure 16
0001
0000
0010
0000
1000
0000
0010
0000
0001
0000
0100
0000
1000
0100
0010
0100
,  // measure 17
0001
0000
0000
0000
1100
0000
0000
0000
0010
0000
0002
0100
0003
0000
0000
0000
,  // measure 18
0010
0001
0100
1000
0100
0010
0001
1000
,  // measure 19
0100
0010
1000
0010
0100
0001
0100
0010
,  // measure 20
0100
0010
0001
1000
0200
0000
0000
0000
,  // measure 21
0310
0000
0000
0000
1001
0000
0000
0000
0010
0000
1000
0100
0000
0000
0000
0000
,  // measure 22
0010
1000
0001
1000
0100
0010
0100
0001
,  // measure 23
0100
0010
1000
0010
0100
1000
0001
0100
,  // measure 24
0010
0001
1000
0100
0001
0000
0000
0000
,  // measure 25
0001
0000
0010
0000
0001
0000
0010
0001
0000
0001
0100
0000
0010
0000
0100
0000
,  // measure 26
0002
0000
0000
0000
1003
0000
0010
1000
0010
0000
0000
0000
0100
0001
0100
0001
,  // measure 27
1000
0000
0100
1000
0100
0000
0010
0100
0010
0100
1000
0000
0010
0000
0100
0000
,  // measure 28
0002
0000
0000
0000
1003
0000
0001
0100
0001
0000
0000
0000
0010
1000
0001
1000
,  // measure 29
0001
0000
0100
0001
0000
0001
0010
0001
0000
0001
1000
0000
0010
0000
0100
0000
,  // measure 30
0002
0000
0000
0000
1003
0000
0100
0010
0100
0000
0000
0000
1000
0010
0100
0001
,  // measure 31
0100
0000
0010
0100
0010
0000
0100
0001
0100
0001
1000
0000
0100
0000
0010
0000
,  // measure 32
0011
0000
0001
0010
0001
0000
0010
0001
1000
0000
0001
0100
0001
1000
0010
1000
,  // measure 33
0001
0000
0100
0001
0000
0010
0001
0000
1000
0001
0000
0100
0001
0000
0001
0000
,  // measure 34
1000
0000
0100
1000
0000
0010
1000
0000
0001
1000
0000
0100
1000
0000
1000
0000
,  // measure 35
0010
0000
0100
0001
0000
0100
0010
0000
0100
1000
0000
0100
0010
0000
0010
0000
,  // measure 36
1000
0000
0010
0100
0000
0001
0100
0000
0010
1000
0000
0010
0100
0000
0100
0000
,  // measure 37
0001
0000
0010
0001
0000
0001
0100
0000
0010
1000
0000
1000
0001
0000
1000
0000
,  // measure 38
0100
0000
0010
0001
0000
0001
0010
0000
0100
0010
0000
0010
0100
0000
1000
0000
,  // measure 39
0100
0000
1000
0010
0000
0010
1000
0000
0010
0100
0000
0100
0010
0000
0100
0000
,  // measure 40
0010
0000
0100
0001
0000
0001
1000
0000
1000
0100
0000
0100
0020
0000
0000
0000
,  // measure 41
0130
1000
0100
1000
0100
0010
0100
0010
,  // measure 42
0100
0001
0100
0001
0010
0100
0001
0000
,  // measure 43
1000
0010
1000
0010
0100
0001
0100
0001
,  // measure 44
1000
0100
0010
0100
1000
0001
0010
0000
,  // measure 45
0001
0100
0001
0100
0010
0100
0010
1000
,  // measure 46
0100
0010
0100
0010
0001
0100
1000
0000
,  // measure 47
0010
0100
0001
0010
0100
0010
0001
1000
,  // measure 48
0010
0100
0010
0100
0001
1000
0001
0000
,  // measure 49
1002
0000
0000
0000
0013
0000
0000
0000
0001
0000
0100
0010
0000
0000
0000
0000
,  // measure 50
1000
0100
1000
0001
0010
0100
0001
0100
,  // measure 51
1000
0010
1000
0010
0001
0100
0001
0100
,  // measure 52
1000
0010
1000
0010
0100
0000
0000
0000
,  // measure 53
2001
0000
0000
0000
3100
0000
0000
0000
0010
0000
0010
0001
0000
0000
0000
0000
,  // measure 54
0100
0001
1000
0100
0010
0100
1000
0001
,  // measure 55
0010
0001
0010
0001
0100
1000
0100
1000
,  // measure 56
0010
0001
0010
0001
1000
0000
0000
0000
,  // measure 57
0102
0000
0000
0000
0013
0000
0000
0000
0100
0000
0001
0010
0000
0000
0000
0000
,  // measure 58
0100
1000
0001
0100
0010
0100
0010
1000
,  // measure 59
0100
1000
0100
0001
0010
0001
0010
1000
,  // measure 60
0100
1000
0100
0001
0100
0000
0000
0000
,  // measure 61
0210
0000
0000
0000
0301
0000
0000
0000
1000
0000
0010
0100
0000
0000
0000
0000
,  // measure 62
0001
0010
0100
1000
0100
0010
0001
1000
,  // measure 63
0010
1000
0010
0001
0100
0001
0100
1000
,  // measure 64
0010
1000
0010
0100
0001
0000
0000
0000
,  // measure 65
0001
2000
0100
0100
0010
0010
0001
3001
,  // measure 66
0100
0002
0010
0010
1000
1000
0100
0103
,  // measure 67
1000
0200
1000
1000
0010
0010
0001
0301
,  // measure 68
0001
0020
0001
0001
1000
1000
0100
0130
,  // measure 69
1000
0010
0100
0100
0001
0001
1000
1000
,  // measure 70
0100
0010
0001
0001
1000
1000
0010
0000
,  // measure 71
1001
0101
1001
1100
,  // measure 72
0002
0000
0200
0003
2000
0300
0020
3000
,  // measure 73
0002
0030
0000
0000
0000
0000
0000
0000
,  // measure 74
0003
0000
0000
0000
;

//---------------dance-double - ----------------
#NOTES:
     dance-double:
     :
     Medium:
     7:
     0.491,0.536,0.276,0.207,0.017:
00000000
00000000
00000000
00000000
,
00000000
00000000
00000000
00000000
,
00000000
00000000
00000000
00000000
,
00000000
00000000
00000000
00000000
,
10000000
01000000
10000000
10000000
00100000
10000000
00100000
00100000
,
01000000
00000000
00100000
00010000
00001000
00000000
00000100
00001000
,
00010000
00000010
00010000
00000010
00001000
00000100
00001000
00000010
,
00000100
00000000
00000000
00000000
00000001
00000000
00000100
00000000
00000001
00000000
00000000
00000000
00001000
00000100
00001000
00000100
,
00001000
00000000
00001010
00000000
00000001
00000100
00000001
00000000
,
00010000
00000000
00010010
00000000
00000010
00000100
00000010
00000000
,
00100000
00000000
00101000
00000000
00000100
00010000
00000100
00000000
,
01000000
00000000
01001000
00000000
00010000
00100000
00010000
00000000
,
10000000
10010000
00100000
00101000
,
00000100
00001010
00000001
00000101
,
00000010
00000010
00000010
00000010
,
00000010
00000000
00000010
00000000
00000010
00000000
00000010
00000000
00000100
00000000
00000100
00000000
00000001
00000100
00000001
00001000
,
00000010
00000000
00010010
00000000
00000010
00000100
00001000
00000000
,
00100000
00001000
00010000
00000000
00101000
00000000
01001000
00000000
,
01010000
00000000
00010000
00000000
10000000
01000000
00100000
00000000
,
00010000
01000000
00010000
00001000
00000010
00000000
00000000
00000000
,
00000001
00000000
00000101
00000000
00000010
00001000
00000100
00000000
,
00000010
00000100
00000010
00010000
00000100
00001000
00000100
00010000
,
00001000
00000000
00010000
00000100
00001000
00010000
00100000
00000000
,
00010000
01000000
00100000
00000000
20020000
00000000
30030000
00000000
,
10000000
00000000
01000000
00000000
00100000
00001000
00000100
00000000
,
00001000
00000000
00000010
00000000
00000100
00000001
00000100
00000000
,
00000010
00000000
00010000
00000000
00001000
00100000
00010000
00000000
,
01000000
00000000
00100000
00000000
10000000
01000000
00010000
01000000
,
10000000
00000000
00100000
00000000
01000000
00010000
00001000
00000000
,
00100000
00000000
00001000
00000000
00010000
00000100
00001000
00000100
,
00010000
00000000
00000010
00000000
00000100
00000001
00000100
00000000
,
00000010
00001000
00000100
00000000
00000100
00010000
00001000
00100000
,
01000000
00000000
00000000
00000000
,
10000000
00000000
00000000
00000000
,
00001000
00000000
00000000
00000000
,
00000010
00000000
00000000
00000000
,
00000100
00000100
00000100
00000100
,
00001000
00001000
00001000
00001000
,
00100000
00100000
00100000
00100000
,
10000000
00000000
10000000
00000000
10000000
01000000
10000000
01000000
,
00010000
00000000
00010000
00000000
00100000
00010000
00100000
00000000
,
00001000
00010000
00001000
00000100
00000010
00000100
00000001
00000000
,
00001000
00000000
00000100
00000000
00000010
00000100
00000010
00000000
,
00000100
00001000
00000100
00100000
00001000
00100000
01000000
00000000
,
10000000
00100000
01000000
00010000
,
00100000
10000000
00100000
00000000
00010000
01000000
00010000
00000000
,
01100000
00000000
00011000
00000000
,
00000110
00000110
00001001
00001001
,
00000001
00000000
00000100
00000000
00001000
00010000
00000100
00000000
,
00001000
00000010
00001000
00000000
00011000
00000000
00010100
00000000
,
00001000
00000000
00100000
00000000
00010000
01000000
00010000
00000000
,
00100000
01000000
00100000
00000000
22000000
00000000
33000000
00000000
,
00010000
00000000
01010000
00000000
00100000
01000000
00100000
00000000
,
00001000
00010000
00001000
00000100
00000010
00000000
00000100
00000001
,
00000100
00000000
00000101
00000000
00001000
00000100
00001000
00000000
,
00001000
00100000
00001000
00000000
00220000
00000000
00330000
00000000
,
00010000
00000000
01010000
00000000
10000000
01000000
00010000
00000000
,
10000000
01000000
00100000
01000000
00010000
00000000
00001000
00000000
,
00010000
00011000
00000100
00001100
,
00000010
00001000
00000010
00001000
00000200
00000000
00000000
00000300
,
00001000
00000000
00001001
00000000
00000001
00000010
00000001
00000000
,
00001000
00000100
00000010
00000100
00001000
00000000
00000010
00000000
,
00010000
00011000
00100000
00110000
,
01000000
00100000
10000000
00100000
00010000
00000000
00000000
00000000
,
00010000
01000000
00100000
00000000
01000000
00000000
00010000
00000000
,
20000000
32000000
03020000
00032000
,
00003100
00000001
00000100
00000000
00000001
00000010
00000001
00000000
,
00000002
00000023
00002030
00023000
,
00130000
10000000
00100000
00000000
10000000
01000000
10000000
00000000
,
20000000
32000000
03020000
00032000
,
00003010
00000001
00000010
00000001
00000100
00000001
00000100
00000000
,
00000002
00000203
00002300
00203000
,
20300000
00000000
00000000
00000000
,
30000000
00000000
00000000
00000000
;

//---------------dance-double - ----------------
#NOTES:
     dance-double:
     :
     Hard:
     10:
     0.657,0.662,0.104,0.276,0.263:
00000000
00000000
00000000
00000000
,
00000000
00000000
00000000
00000000
,
00000000
00000000
00000000
00000000
,
00000000
00000000
00000000
00000000
,
00010000
00000000
01000000
00010000
00000000
00100000
00010000
00000000
00001000
00000000
00001000
00000000
00000100
00000000
00000100
00000000
,
00000010
00000000
00000000
00000000
00000001
00000000
00000001
00000100
00000001
00000000
00000000
00000000
00000001
00000000
00000010
00000000
,
00000100
00010000
00001000
00100000
01000000
10000000
00100000
01000000
,
00001000
00000000
00010000
00000000
00000010
00000000
00000100
00000000
00000001
00000000
00000010
00000000
00000001
00000100
00000001
00001000
,
00000010
00000000
00001000
00000000
00000200
00000000
00000000
00000000
00001000
00000000
00010000
00010000
00000300
00000000
00000000
00000000
,
00001000
00000000
01000000
00000000
00200000
00000000
00000000
00000000
10000000
00000000
01000000
01000000
00300000
00000000
00000000
00000000
,
01000000
00000000
00001000
00000000
00020000
00000000
00000000
00000000
00000010
00000000
00000100
00000100
00030000
00000000
00000000
00000000
,
00000100
00000000
00000001
00000000
00002000
00000000
00000000
00000000
00000001
00000000
00000010
00000010
00003000
00000000
00000000
00000000
,
00000001
00000010
00010000
00100000
,
00010000
01000000
00001000
00000100
,
00010000
00010000
00010000
00010000
,
00010000
00000000
00100000
00000000
00010000
00000000
00100000
00000000
00010000
00000000
01000000
00000000
00001000
00000100
00001000
00000010
,
00001000
00000000
00000000
00000000
00001001
00000000
00000000
00000000
00000001
00000000
00000001
00000100
00000000
00000000
00000000
00000000
,
00000010
00010000
00001000
00100000
00001000
00010000
00000010
00001000
,
00000100
00000010
00000100
00000010
00010000
00000100
00010000
00000100
,
00100000
00001000
00100000
00001000
02000000
00000000
03000000
00000000
,
00010000
00000000
00000000
00000000
00101000
00000000
00000000
00000000
00010000
00000000
00000100
00001000
00000000
00000000
00000000
00000000
,
00000010
00001000
00000001
00000100
00000010
00000100
00000001
00001000
,
00000100
00000001
00000100
00001000
00010000
00100000
01000000
00100000
,
00010000
00001000
00000100
00001000
00020000
00000000
00030000
00000000
,
00100000
00000000
00100000
00010000
00000000
01000000
00010000
10000000
00000000
00100000
10000000
00000000
00010000
00000000
00010000
00000000
,
02000000
00000000
00000000
00000000
03001000
00000000
00001000
00010000
00001000
00000000
00000000
00000000
00000100
00000001
00000100
00000001
,
00001000
00000100
00000010
00000100
00100000
00010000
01000000
00100000
,
01000000
00001000
00000010
00000001
00000010
00001000
01000000
10000000
,
01000000
00000000
00010000
01000000
00000000
01000000
00100000
01000000
00000000
00100000
10000000
00000000
01000000
00000000
01000000
00000000
,
20000000
00000000
00000000
00000000
30010000
00000000
00010000
00100000
00020000
00000000
00000000
00000000
00031000
00000000
00000100
00000000
,
00000001
00000010
00000001
00000100
00001000
00000100
00000010
00000100
,
00010000
00100000
01000000
00010000
00100000
00001000
00000100
00000010
,
00010000
00000000
00001000
00100000
00000000
00001000
00010000
00000000
00001000
01000000
00000000
00001000
00010000
00000000
00010000
00000000
,
00001000
00000000
00000010
00000001
00000000
00000010
00000100
00000000
00000010
00000001
00000000
00000010
00000100
00000000
00000100
00000000
,
00001000
00000000
00000010
00000100
00000000
00000010
00001000
00000000
00000010
00000100
00000000
00000010
00010000
00000000
00010000
00000000
,
00001000
00000000
00100000
00010000
00000000
00100000
00001000
00000000
00100000
00010000
00000000
00100000
00001000
00000000
00001000
00000000
,
01000000
00000000
00100000
01000000
00000000
00010000
01000000
00000000
10000000
01000000
00000000
00100000
10000000
00000000
10000000
00000000
,
01000000
00000000
00100000
00001000
00000000
00010000
00000100
00000000
00001000
00000010
00000000
00000100
00000001
00000000
00000001
00000000
,
00001000
00000000
00000100
00010000
00000000
00001000
00100000
00000000
00010000
01000000
00000000
00010000
10000000
00000000
10000000
00000000
,
00100000
00000000
01000000
00010000
00000000
00010000
00100000
00000000
00100000
00001000
00000000
00001000
00000100
00000000
00000010
00000000
,
00001000
00000100
00001000
00000100
00100000
00010000
00100000
00010000
,
10000000
01000000
10000000
01000000
00100000
00001000
00000100
00000000
,
00010000
00000010
00010000
00000010
00100000
00001000
00100000
00001000
,
01000000
00100000
00010000
01000000
00010000
00100000
01000000
00000000
,
10000000
01000000
10000000
00100000
01000000
00001000
00100000
00010000
,
01000000
00100000
01000000
00001000
00010000
00001000
00000100
00000000
,
00000220
00000330
00002002
00003003
,
00011000
00000000
00101000
00000000
10000000
01000000
10000000
00001000
,
10000000
00000000
00000000
00000000
20100000
00000000
00000000
00000000
00100000
00000000
00001000
00001000
30000000
00000000
00010000
00000000
,
01000000
00010000
00001000
00000100
00000010
00000100
00000001
00000100
,
00000010
00000001
00000010
00000001
00001000
00000100
00001000
00000100
,
00001000
00000010
00000100
00000001
00001000
00000000
00000000
00000000
,
00000001
00000000
00000000
00000000
00000102
00000000
00000000
00000000
00000100
00000000
00010000
00010000
00000003
00000000
00001000
00000000
,
00000010
00001000
00010000
00100000
01000000
00100000
10000000
00100000
,
01000000
10000000
01000000
10000000
00010000
00100000
00010000
00100000
,
00010000
01000000
00100000
10000000
00010000
00000000
00000000
00000000
,
00110000
00000000
00000000
00000000
00001010
00000000
00000000
00000000
00000100
00000000
00010000
00000010
00000000
00000000
00000000
00000000
,
00000100
00000010
00000100
00000001
00000100
00000010
00000100
00001000
,
00010000
01000000
00010000
01000000
00100000
01000000
10000000
01000000
,
00100000
01000000
00100000
10000000
01000000
00000000
00000000
00000000
,
00001100
00000000
00000000
00000000
01010000
00000000
00000000
00000000
00100000
00000000
00001000
01000000
00000000
00000000
00000000
00000000
,
00100000
01000000
00100000
10000000
00100000
01000000
00100000
00010000
,
00001000
00000010
00001000
00000010
00000100
00000010
00000001
00000010
,
00000100
00000010
00000100
00000001
00000010
00000000
00000000
00000000
,
00000001
00000100
00001000
00000100
00001000
00010000
00100000
00010000
,
00200000
20300000
32000000
03200000
,
00310000
01000000
00010000
00100000
00001000
00000100
00000010
00000100
,
00000002
00000023
00000230
00002300
,
00003001
00000100
00001000
00010000
01000000
10000000
01000000
10000000
,
00020000
00230000
00302000
00003200
,
00000310
00000001
00000010
00000100
00010000
00100000
01000000
00010000
,
00200000
00302000
00003200
00000320
,
00020030
00000000
00000000
00000000
,
00030000
00000000
00000000
00000000
;

//---------------dance-double - ----------------
#NOTES:
     dance-double:
     :
     Easy:
     4:
     0.289,0.347,0.121,0.017,0.000:
00000000
00000000
00000000
00000000
,
00000000
00000000
00000000
00000000
,
00000000
00000000
00000000
00000000
,
00000000
00000000
00000000
00000000
,
00001000
00001000
00100000
01000000
,
10000000
00000000
00010000
00000000
,
00001000
00000000
00000001
00000000
,
00000010
00000000
00100000
00000000
,
00010000
01010000
10000000
00000000
,
00100000
00110000
00001000
00000000
,
00000100
00000110
00000001
00000000
,
00000010
00000110
00001000
00000000
,
00010000
00000000
01000000
00000000
,
10000000
00000000
00010000
00000000
,
00000010
00000000
00000001
00000000
,
00000100
00000000
00010000
00000000
,
00100000
01000000
00100000
01000000
,
00010000
00001000
00010000
00001000
,
00000010
00000100
00000010
00000100
,
00001000
00000001
00000100
00000000
,
00000010
00000100
00000010
00000100
,
00001000
00010000
00001000
00010000
,
00100000
01000000
00100000
01000000
,
00010000
10000000
01000000
00000000
,
00010000
00100000
00010000
10000000
,
00001000
00010000
00000100
00001000
,
00010000
00100000
00001000
00010000
,
00000010
00000100
00001000
00000100
,
00000001
00000001
00001000
00001000
,
00000100
00000100
00100000
00100000
,
01000000
01000000
00010000
00010000
,
00000010
00000010
00000001
00000001
,
00000100
00000000
00000000
00000000
,
01000000
00000000
00000000
00000000
,
00100000
00000000
00000000
00000000
,
00000010
00000000
00000000
00000000
,
00000101
00000000
00001000
00000000
,
00100000
00000000
10000000
00000000
,
01010000
00000000
00001000
00000000
,
00000010
00000000
00000001
00000000
,
00000100
00000100
00000100
00000100
,
00010000
00001000
00100000
00010000
,
10000000
10000000
00010000
00000000
,
01000000
00001000
00000010
00000000
,
00000001
00000100
00001000
00000000
,
00100000
00001000
00010000
00001000
,
01001000
00000000
00011000
00000000
,
00010100
00000000
00012000
00013000
,
00010000
00000010
00001000
00000001
,
00000100
00000010
00010000
00001000
,
00100000
01000000
00010000
00001000
,
00100000
01000000
10000000
00000000
,
10000000
00100000
10000000
01000000
,
00010000
00001000
00000010
00001000
,
00000100
00000001
00000010
00001000
,
00010000
01000000
10000000
00000000
,
00010000
00000000
01010000
00000000
00100000
00010000
00100000
00000000
,
00001000
00010000
00000010
00000000
,
00000100
00000000
00000101
00000000
00001000
00000010
00001000
00000000
,
00010000
00100000
01000000
00000000
,
00010000
00000000
01010000
00000000
00100000
00001000
00010000
00000000
,
00000010
00000100
00000001
00000000
,
00000010
00000000
00000110
00000000
00001000
00010000
00000010
00000000
,
00001000
00000100
00100000
00000000
,
00010000
00000000
01000000
00000000
,
00001000
00000000
00000010
00000000
,
00010000
00000000
00100000
00000000
,
00000100
00000000
00001000
00000000
,
00010000
00100000
00000100
00001000
,
00010000
00100000
00000100
00001000
,
00010000
00100000
00000010
00001000
,
00010000
00000000
01000000
00000000
00000010
00000000
00001000
00010000
,
02000000
00000000
00000000
00000000
,
03000000
00000000
00000000
00000000
;
