#VERSION:0.81;
#TITLE:PLUTO THE 1st;
#SUBTITLE:;
#ARTIST:White Wall;
#TITLETRANSLIT:;
#SUBTITLETRANSLIT:;
#ARTISTTRANSLIT:;
#GENRE:;
#ORIGIN:;
#CREDIT:;
#BANNER:Pluto The 1st-bn.png;
#BACKGROUND:Pluto The 1st-bg.png;
#PREVIEWVID:;
#JACKET:;
#CDIMAGE:;
#DISCIMAGE:;
#LYRICSPATH:;
#CDTITLE:SilveR.png;
#MUSIC:Pluto The 1st.mp3;
#OFFSET:-0.065000;
#SAMPLESTART:12.330005;
#SAMPLELENGTH:12.600000;
#SELECTABLE:YES;
#DISPLAYBPM:*;
#BPMS:0.000=115.000,
24.000=230.000,
30.000=115.000,
33.000=230.000,
39.000=115.000,
53.000=50.000,
61.000=200.000,
103.500=440.000,
218.500=110.000,
234.500=230.000,
266.500=440.000,
360.500=230.000;
#STOPS:41.000=0.522,
101.625=0.150,
102.125=0.150,
102.625=0.150,
123.500=0.280,
188.500=0.409,
278.500=0.273,
293.500=0.273,
306.500=0.273,
319.500=0.136,
321.500=0.273,
335.500=0.273;
#DELAYS:;
#WARPS:;
#TIMESIGNATURES:0.000=4=4;
#TICKCOUNTS:0.000=4;
#COMBOS:0.000=1;
#SPEEDS:0.000=1.000=0.000=0;
#SCROLLS:0.000=1.000;
#FAKES:;
#LABELS:0.000=Song Start;
#BGCHANGES:11.000=Comets.avi=0.800=1=0=1===CrossFade==,
23.000=Pluto The 1st-bg.png=1.000=1=0=1===CrossFade==,
40.500=Spikes3.avi=1.000=0=0=1=====,
41.063=Ring3.avi=1.000=0=0=1=====,
52.250=Rain1.avi=0.700=1=0=1===CrossFade==,
61.000=Thunder1.avi=1.000=0=0=1=====,
101.500=Spikes2.avi=1.000=0=0=1=====,
103.500=Spikes1.avi=1.400=0=0=1=====,
122.500=Spikes3.avi=2.000=0=0=1=====,
123.563=Spikes1.avi=1.400=0=0=1=====,
188.500=Spikes3.avi=2.000=0=0=1=====,
188.563=Spikes1.avi=1.400=0=0=1=====,
209.500=Spikes3.avi=1.600=0=0=1=====,
217.000=Pluto The 1st-bg.png=1.000=1=0=1===CrossFade==,
266.500=Spikes2.avi=1.400=0=0=1=====,
278.500=Spikes3.avi=2.000=0=0=1=====,
278.563=Spikes2.avi=1.400=0=0=1=====,
293.500=Spikes3.avi=2.000=0=0=1=====,
293.563=Spikes2.avi=1.400=0=0=1=====,
306.500=Spikes3.avi=1.400=0=0=1=====,
306.563=Spikes2.avi=1.400=0=0=1=====,
319.500=Spikes3.avi=2.000=0=0=1=====,
319.563=Spikes1.avi=1.400=0=0=1=====,
321.500=Spikes3.avi=2.000=0=0=1=====,
321.563=Spikes2.avi=1.400=0=0=1=====,
335.500=Pluto The 1st-bg.png=1.000=1=0=1===CrossFade==,
99999=-nosongbg-=1.000=0=0=0 // don't automatically add -songbackground-
;
#KEYSOUNDS:;
#ATTACKS:
;

//---------------dance-single - ----------------
#NOTEDATA:;
#CHARTNAME:;
#STEPSTYPE:dance-single;
#DESCRIPTION:;
#CHARTSTYLE:;
#DIFFICULTY:Challenge;
#METER:16;
#RADARVALUES:0.794867,1.000000,0.228933,0.039814,0.373261,532.000000,23.000000,4.000000,2.000000,0.000000,0.000000,0.000000,0.000000,0.794867,1.000000,0.228933,0.039814,0.373261,532.000000,23.000000,4.000000,2.000000,0.000000,0.000000,0.000000,0.000000;
#CREDIT:;
#DISPLAYBPM:*;
#NOTES:
0000
0000
0000
0000
,
0000
0000
0000
0000
0000
1000
1000
0100
,
0001
0001
0000
0000
0000
0000
0000
0000
,
0001
0001
0100
0001
0001
1000
0100
0100
,
0010
0100
0100
1000
0101
0010
0010
0001
,
0010
0010
1000
0100
0100
1000
0010
0010
,
0100
1000
0001
0100
0001
0000
0100
1000
,
0001
0000
0100
0000
0001
0000
0000
0000
0010
0100
1000
0010
1000
0000
0010
0100
,
1000
0010
1000
0000
0001
0000
0010
0000
0100
0000
0010
0000
0100
0000
0000
0000
,
0001
0000
0010
0000
0100
0000
0010
0000
0100
0000
0000
0000
1000
0001
0100
0000
,
0100
0000
0000
0000
0000
0000
0000
0000
2000
0000
0000
0000
0001
0000
0000
0000
3000
0010
0000
0000
0100
0000
0000
0000
0001
0000
0000
0000
0010
0000
0000
0000
0000
0000
0000
0000
0010
0000
0000
0000
0100
0000
0000
0000
0000
0000
0000
0000
1000
0000
0000
0000
0100
0000
0000
0000
0000
0000
0000
0000
1000
0000
0000
0000
,
0010
0100
0001
0100
0000
0001
0010
0000
0001
0100
0000
0001
1000
0100
0010
0100
,
0000
1000
0100
0000
1000
0010
0000
1000
0010
0100
0010
1000
0000
0001
1000
0000
,
0001
0000
0100
0000
0000
0000
0001
0000
0010
0000
0000
0010
0100
0000
1000
0000
0001
0100
0001
0000
1100
0000
0101
0000
1001
0000
0000
0000
0110
0000
0000
0000
,
1000
0010
1000
0000
1010
0000
0011
0000
1001
0000
0100
0000
0110
0000
1000
0000
1010
0000
0000
0000
1001
0000
0000
0000
0101
0000
0011
0000
1001
0000
0110
0000
,
0001
0100
0010
1000
0001
0000
0100
0000
0001
0000
1000
0000
0010
0000
1000
0000
,
0010
0100
0001
1000
0001
0010
0100
1000
,
0100
0000
1000
0010
1000
0000
0010
0100
,
0010
0000
0100
0001
0100
0000
0001
1000
,
0100
0000
0001
0100
0010
1000
0010
0100
,
0001
0100
0001
0100
1000
0100
0010
1000
,
0001
0010
0100
1000
0100
0000
0001
0010
,
0100
0000
1000
0100
1000
0000
0100
0010
,
1000
0000
0001
1000
0001
0000
0010
0100
,
1000
0000
0001
0100
0001
0000
0010
0001
,
1000
0000
0000
0000
0000
0000
0000
0000
0100
0000
0000
0000
0000
0000
0000
0000
0010
0000
0000
0000
0000
0000
0000
0000
0001
0000
0000
0010
0000
0000
0000
0000
0000
0000
0000
1000
0000
0000
0000
0000
0000
0000
0000
0010
0000
0000
0000
0000
0000
0000
0000
0000
0000
0000
0000
0000
0001
0000
0000
0000
0000
0000
0000
0000
,
0000
0001
0000
0010
0000
0100
0000
1000
,
0000
0100
0000
0010
0000
0001
0000
0100
,
0001
0100
0000
0010
0000
0100
0000
0010
,
0000
1000
0000
0001
0000
0010
0000
0100
,
1000
0000
0000
0000
0000
0000
0000
0000
0100
0000
0000
0000
0000
0000
0000
0000
0000
0000
0000
0000
0000
0000
0000
0000
1000
0000
0000
0000
0000
0000
0000
0000
0000
0000
0000
0000
0000
0000
0000
0000
0010
0000
0000
0000
0000
0000
0000
0000
0000
0000
0000
0000
0000
0000
0000
0000
0000
1000
0000
0000
0000
0000
0000
0000
,
0000
0010
0000
0100
0000
0001
0000
0100
,
0000
0001
0000
0100
0000
0001
0000
0010
,
0000
0100
0000
0010
0000
0001
0000
1000
,
0000
0001
0000
0100
0000
1000
0000
0100
,
0001
1000
0000
0001
0000
0010
0000
0100
,
0000
0000
0000
0000
0000
0000
0000
1000
,
0000
0100
0000
0010
0000
0001
0000
0110
,
0000
0010
0000
0100
0000
0001
0000
1000
,
0000
0010
0000
0100
0000
1000
0000
0100
,
0001
1000
0001
0100
0000
0001
0000
1000
,
0000
0010
0000
0100
0000
0001
0000
1000
,
0000
0100
0000
0010
0000
1000
0000
0010
,
0000
0100
0000
1000
0001
1000
0001
1000
,
0000
0010
0000
0100
0000
0001
0000
1000
,
0000
0010
0000
0100
0000
0001
0000
0100
,
0000
0010
0000
1000
0000
0100
0000
0010
,
0000
0000
0000
0000
0000
0000
0000
0000
0011
0001
0000
0000
0000
0000
0000
0000
0000
0000
0000
0000
0000
0000
0000
0000
1000
0000
0000
0000
0000
0000
0000
0000
0000
0000
0000
0000
0000
0000
0000
0000
0010
0000
0000
0000
0000
0000
0000
0000
0000
0000
0000
0000
0000
0000
0000
0000
0100
0000
0000
0000
0000
0000
0000
0000
,
0000
1000
0000
0100
0000
1000
0000
0100
,
0000
0010
0100
0010
0100
0010
0000
0100
,
0000
0001
0000
1000
0000
0010
1000
0010
,
1000
0010
0000
1000
0000
0001
0000
1000
,
0001
1000
0000
2002
0000
0000
0000
0000
,
0000
0000
0000
0000
,
0000
0000
0000
0000
3003
0000
0000
0000
0000
0000
M10M
0100
0100
0100
0100
0000
,
0001
1000
0001
1000
0001
1000
0000
0010
0100
0010
0100
1000
0100
1000
0100
0000
,
0010
0001
0010
0001
1000
0001
0000
0000
0000
0000
0100
0010
0100
0010
1000
0000
,
0001
1000
0001
1000
0001
0100
0000
0001
0010
1000
0010
0001
0100
1000
0100
0000
,
0001
1000
0100
0010
0001
1000
0000
0000
0000
0000
0010
0000
0100
0000
0001
0000
,
1000
0100
0000
0010
0001
1000
0010
0100
,
0001
0000
0001
0100
0010
1000
0100
0010
,
0001
1000
0000
0010
0001
1000
0001
0100
,
0010
1000
0000
1000
0001
0000
0000
0100
,
0010
0100
0000
0001
1010
0001
0100
0010
,
1000
0000
0001
0010
0100
1001
0100
0001
,
0001
1000
0000
0001
0110
0100
1000
0001
,
0100
0000
1000
0001
0100
0010
0000
1000
,
0000
0001
0000
0000
0000
1001
0000
0000
,
0000
0100
0000
0010
0000
0100
0001
1000
,
0000
0000
0000
0000
0000
0000
0000
0000
0100
0000
0000
0000
0000
0000
0000
0000
0000
0000
0000
0000
0000
0000
0000
0000
0001
0000
0000
0000
0000
0000
0000
0000
0000
0000
0000
0000
0000
0000
0000
0000
0100
1000
0000
0000
0000
0000
0000
0000
0000
0000
0000
0000
0000
0000
0000
0000
0100
0000
0000
0000
0000
0000
0000
0000
,
0000
0001
0000
0100
0000
1000
0000
0010
,
0000
0000
0000
0120
0000
0000
0000
0000
,
0000
1030
0000
0001
0000
0100
0000
0010
,
1000
0000
0000
0000
0000
0000
0000
0000
0010
0000
0000
0000
0000
0000
0000
0000
0000
0000
0000
0000
0000
0000
0000
0000
1000
0100
0000
0000
0000
0000
0000
0000
0000
0000
0000
0000
0000
0000
0000
0000
0100
0000
0000
0000
0000
0000
0000
0000
0000
0000
0000
0000
0000
0000
0000
0000
0010
0000
0000
0000
0000
0000
0000
0000
,
0000
0001
0000
1000
0000
0001
0000
0100
,
0000
0010
0000
0000
0000
0001
0000
0010
,
0000
0100
0000
1000
0001
0100
0000
1000
,
0000
0001
0000
0100
0000
0001
0000
0010
,
0000
0100
0000
0000
0000
0001
0000
0010
,
0000
0000
0000
0000
0000
0000
0000
0000
0100
0000
0000
0000
0000
0000
0000
0000
0000
0000
0000
0000
0000
0000
0000
0000
1000
0000
0000
0000
0000
0000
0000
0000
0000
0000
0000
0000
0000
0000
0000
0000
1000
0000
0000
0000
0000
0000
0000
0000
0000
0000
0000
0000
0000
0000
0000
0000
0000
0001
0000
0000
0000
0000
0000
0000
,
0000
0000
0000
0000
0000
0000
0000
0000
0010
0000
0000
0000
0000
0000
0000
0000
0000
0000
0000
0000
0000
0000
0000
0000
0000
0100
0000
0000
0000
0000
0000
0000
0000
0000
0000
0000
0000
0000
0000
0000
0001
0000
0000
0000
0000
0000
0000
0000
0000
0000
0000
0000
0000
0000
0000
0000
1000
0000
0000
0000
0000
0000
0000
0000
,
0000
0000
0000
0001
0000
0010
0000
0000
,
0000
0000
0000
0100
0000
0100
0000
1000
,
0000
0000
0000
0000
0000
0000
0000
0000
1000
0000
0000
0000
0000
0000
0000
0000
0000
0000
0000
0000
0000
0000
0000
0000
1000
0000
0000
0000
0000
0000
0000
0000
0000
0000
0000
0000
0000
0000
0000
0000
0010
0000
0000
0000
0000
0000
0000
0000
0000
0000
0000
0000
0000
0000
0000
0000
0000
0010
0000
0000
0000
0000
0000
0000
,
0100
0010
0100
0000
0000
0000
0000
0001
,
1000
0001
1000
0000
0000
0000
0000
0010
,
0100
0010
0100
0000
0000
0000
0000
0001
,
0010
0001
0010
0000
0000
0000
0000
0100
,
1000
0100
1000
0000
0000
0000
0000
0010
,
0100
0010
0100
0000
0000
0000
0000
0001
,
1000
0001
1000
0100
0010
0001
1000
0001
,
0010
0100
1000
0010
0100
0001
1000
0100
,
0010
0001
0000
0000
0000
0000
0000
0000
;

//---------------dance-double - ----------------
#NOTEDATA:;
#CHARTNAME:;
#STEPSTYPE:dance-double;
#DESCRIPTION:;
#CHARTSTYLE:;
#DIFFICULTY:Challenge;
#METER:17;
#RADARVALUES:0.154992,0.178045,0.019907,0.000000,0.119443,107.000000,2.000000,0.000000,0.000000,0.000000,0.000000,0.000000,0.000000,0.154992,0.178045,0.019907,0.000000,0.119443,107.000000,2.000000,0.000000,0.000000,0.000000,0.000000,0.000000,0.000000;
#CREDIT:;
#DISPLAYBPM:*;
#NOTES:
// measure 0
00000000
00000000
00000000
00000000
,  // measure 1
00000000
00000000
00000000
00000000
00000000
00100000
00001000
00010000
,  // measure 2
00000010
00001000
00000000
00000000
00000000
00000000
00000000
00000000
,  // measure 3
00000001
00000001
00000100
00001000
00001000
00000100
00000010
00000010
,  // measure 4
00001000
00000100
00000100
00010000
00011000
00001000
00100000
00010000
,  // measure 5
00010000
01000000
00100000
00100000
01000000
00010000
10000000
10000000
,  // measure 6
01000000
00010000
00001000
00000100
00000001
00000000
00000001
00000100
,  // measure 7
00001000
00000000
00010000
00000000
01000000
00000000
00000000
00000000
10000000
00100000
00010000
00001000
00000010
00000000
00000001
00000010
,  // measure 8
00001000
00010000
00100000
00000000
00010000
00000000
00100000
00000000
01000000
00000000
00010000
00000000
00001000
00000000
00000000
00000000
,  // measure 9
00001000
00000000
00000010
00000000
00000100
00000000
00001000
00000000
00010000
00000000
00000000
00000000
00010000
00100000
10000000
01000000
,  // measure 10
00010000
00000000
00000000
00000000
00000000
00000000
00000000
00000000
00000000
00000000
00000000
00000000
00000000
00000000
00000000
00000000
00000000
00000000
00000000
00000000
00000000
00000000
00000000
00000000
00001000
00000000
00000000
00000000
00000000
00000000
00000000
00000000
00000000
00000000
00000000
00000000
00000100
00000000
00000000
00000000
00000000
00000000
00000000
00000000
00000000
00000000
00000000
00000000
00000000
00000001
00000000
00000000
00000000
00000000
00000000
00000000
00000000
00000000
00000000
00000000
00000100
00000000
00000000
00000000
00000000
00000000
00000000
00000000
00000000
00000000
00000000
00000000
00001000
00000000
00000000
00000000
00000000
00000000
00000000
00000000
00000000
00000000
00000000
00000000
00010000
00000000
00000000
00000000
00000000
00000000
00000000
00000000
00000000
00000000
00000000
00000000
00001000
00000000
00000000
00000000
00000000
00000000
00000000
00000000
00000000
00000000
00000000
00000000
00000000
00000000
00000000
00000000
00000000
00000000
00000000
00000000
00000000
00000000
00000000
00000000
00010000
00000000
00000000
00000000
00000000
00000000
00000000
00000000
00000000
00000000
00000000
00000000
00001000
00000000
00000000
00000000
00000000
00000000
00000000
00000000
00000000
00000000
00000000
00000000
00010000
00000000
00000000
00000000
00000000
00000000
00000000
00000000
00000000
00000000
00000000
00000000
01000000
00000000
00000000
00000000
00000000
00000000
00000000
00000000
00000000
00000000
00000000
00000000
10000000
00000000
00000000
00000000
00000000
00000000
00000000
00000000
00000000
00000000
00000000
00000000
00000000
00000000
00000000
00000000
00000000
00000000
00000000
00000000
00000000
00000000
00000000
00000000
,  // measure 11
10000000
01000000
00010000
00001000
00010000
00000000
00001000
00010000
00001000
00000100
00000001
00000000
00000001
00000010
00001000
00010000
,  // measure 12
00001000
00000000
00010000
00001000
00010000
00100000
10000000
00000000
10000000
00100000
00010000
00001000
00010000
00000000
00001000
00010000
,  // measure 13
00001000
00000010
00000001
00000000
00000110
00000000
00000000
00000000
00000000
00000000
00000000
00000000
00000000
00000000
00000000
00000000
;
