#TITLE:Here Comes The Noise;
#SUBTITLE:;
#ARTIST:DOUBLE DUTCH;
#TITLETRANSLIT:;
#SUBTITLETRANSLIT:;
#ARTISTTRANSLIT:;
#GENRE:;
#CREDIT:;
#MENUCOLOR:;
#METERTYPE:DDR;
#BANNER:Here Comes The Noise-bn.png;
#BACKGROUND:Here Comes The Noise-bg.png;
#LYRICSPATH:;
#CDTITLE:SilveR.png;
#MUSIC:Here Comes The Noise.mp3;
#OFFSET:-0.200;
#SAMPLESTART:77.980;
#SAMPLELENGTH:10.980;
#SELECTABLE:YES;
#LISTSORT:;
#BPMS:0.000=178.460,160.000=89.230,163.500=178.460,292.000=177.000;
#STOPS:163.500=0.168
;
#BGCHANGES:0.000=Bubble1R.avi=0.700=1=0=1,
63.000=Blackhole1.avi=0.700=1=0=1,
127.000=Here Comes The Noise-bg.png=1.000=1=0=1,
163.500=Sun1.avi=0.900=1=0=1,
227.000=Star1.avi=0.900=1=0=1,
292.000=Here Comes The Noise-bg.png=1.000=0=0=1,
99999=-nosongbg-=1.000=0=0=0 // don't automatically add -songbackground-
;
#ATTACKS:;

//---------------dance-single - ----------------
#NOTES:
     dance-single:
     :
     Challenge:
     9:
     0.798,1.000,0.341,1.000,0.341: // measure 1
2000
3200
0000
0320
0000
0032
0203
0000
,  // measure 2
0320
0000
0000
0000
0000
0000
0230
0302
,  // measure 3
2003
0000
3020
2030
0000
3002
0203
0000
,  // measure 4
0302
0000
0000
0000
,  // measure 5
2003
3200
0000
0320
0000
0032
2003
3020
,  // measure 6
0000
0000
0000
0000
0000
0230
0302
2003
,  // measure 7
3020
0000
0000
0230
0000
0000
0320
0000
,  // measure 8
2030
0000
0000
3002
0000
0000
2003
3200
,  // measure 9
0320
0000
0032
0023
0000
0230
2300
0000
,  // measure 10
3002
0000
0000
0000
0000
0000
0203
0320
,  // measure 11
0032
0000
2003
3002
0000
0023
2030
0000
,  // measure 12
3200
0000
0000
0000
0000
0000
0000
2300
,  // measure 13
3020
0230
0302
2003
0000
0000
3200
2300
,  // measure 14
0000
0000
0000
0000
0000
3020
0230
0302
,  // measure 15
2003
0000
0000
3200
0000
0000
0320
0000
,  // measure 16
2030
0000
0000
3200
0000
0000
0302
0000
,  // measure 17
0103
0000
0000
0100
0000
0000
0001
0000
0100
0000
0010
1000
0000
0100
0010
0000
,  // measure 18
0001
0000
0000
0001
0000
0000
1000
0000
0000
1000
0000
0000
0010
0000
0100
0000
,  // measure 19
0001
0000
0000
0001
0000
0000
1000
0000
0000
1000
0000
0000
0100
0000
0010
0000
,  // measure 20
0001
0000
0000
0100
0000
0000
0001
0000
0000
0010
0000
0000
0001
0000
1000
0000
,  // measure 21
0100
0000
0000
0010
0000
0000
0001
0000
0100
0000
0010
0100
0000
0001
1000
0000
,  // measure 22
0001
0000
0000
0001
0000
0000
0010
0000
0000
0001
0000
0000
1000
0000
0010
0000
,  // measure 23
0100
0000
0000
0100
0000
0000
0001
0000
0000
0001
0000
0000
1000
0000
0100
0000
,  // measure 24
0010
0000
0000
0010
0000
0000
0100
0000
0000
1000
0000
0000
0001
0000
0100
0000
,  // measure 25
0110
0000
1000
0001
0000
1000
0010
0000
,  // measure 26
2020
0000
0000
0000
3030
0000
0001
0100
,  // measure 27
0110
0000
1000
0100
0000
0010
0001
0000
,  // measure 28
0022
0000
0033
0000
,  // measure 29
0001
1000
0010
0000
0100
0000
0001
2000
,  // measure 30
0000
0000
0000
0000
0000
3001
0100
0020
,  // measure 31
0000
0000
0000
2030
0000
0000
0000
0000
,  // measure 32
0004
0000
3003
0000
,  // measure 33
1002
0000
0000
0100
0000
0000
0010
0000
0000
0100
0000
0000
1000
0000
1003
0000
,  // measure 34
2010
0000
0000
0010
0000
0000
0100
0000
0000
0100
0000
0000
0001
0000
3001
0000
,  // measure 35
0012
0000
0000
0100
0000
0000
0010
0000
0000
1000
0000
0000
0010
0000
0013
0000
,  // measure 36
0120
0000
0000
0100
0000
0000
0001
0000
0000
0001
0000
0000
1000
0000
0130
0000
,  // measure 37
0020
0000
0000
0032
0000
0000
0023
0000
2030
0000
0000
3020
0000
0000
0032
0000
,  // measure 38
0203
0000
0000
0320
0000
0000
0230
0000
0302
0000
0000
0023
0000
0000
2030
0000
,  // measure 39
3020
0230
0302
0203
2300
3020
0230
0302
,  // measure 40
0023
2030
3002
0203
2300
3200
0320
0032
,  // measure 41
0203
0000
0000
0000
0000
0000
0000
0000
0000
0000
0000
0000
0000
0000
0000
0000
0310
0000
0100
0010
0100
0010
0000
1000
0000
0001
0000
1000
0001
0000
0000
0000
,  // measure 42
2001
0000
0000
0100
0000
0000
0010
0000
3010
0000
1000
0010
0000
0010
1000
0000
,  // measure 43
1002
0000
0000
0100
0000
0000
0010
0000
0000
0100
0000
0000
1003
0000
0010
0000
,  // measure 44
0201
0000
0000
0001
0000
0000
0010
0000
0000
0001
0000
0000
1300
0000
0010
0000
,  // measure 45
2010
0000
0000
0100
0000
0000
0001
0000
0000
0100
0000
0000
3001
0000
0010
0000
,  // measure 46
0012
0000
0000
0100
0000
0000
0010
0000
1003
0000
0001
0100
0000
0001
0100
0000
,  // measure 47
0012
0000
0000
1000
0000
0000
0010
0000
0000
0103
0000
0000
0001
0000
1000
0000
,  // measure 48
2100
0000
0000
0010
0000
0000
3001
0000
0000
1000
0000
0000
0010
0000
0100
0000
,  // measure 49
1002
0000
0000
0100
0000
0000
1000
0000
0000
0103
0000
0000
0001
0000
1000
0000
,  // measure 50
1002
0000
0000
0010
0000
0000
0100
0000
0103
0000
0001
0100
0000
0100
0001
0000
,  // measure 51
2001
0000
0000
0010
0000
0000
0100
0000
0000
0010
0000
0000
3001
0000
0100
0000
,  // measure 52
1020
0000
0000
1000
0000
0000
0100
0000
0000
1000
0000
0000
0031
0000
0100
0000
,  // measure 53
0102
0000
0000
0010
0000
0000
1000
0000
0000
0010
0000
0000
1003
0000
0100
0000
,  // measure 54
2100
0000
0000
0010
0000
0000
0100
0000
3001
0000
1000
0010
0000
1000
0010
0000
,  // measure 55
2100
0000
0000
0001
0000
0000
0100
0000
0000
3010
0000
0000
1000
0000
0001
0000
,  // measure 56
0012
0000
0000
0100
0000
0000
1003
0000
0000
0001
0000
0000
0100
0000
0010
0000
,  // measure 57
2010
0000
0000
0010
0000
0000
0100
0000
0000
0100
0000
0000
3001
0000
1000
0000
,  // measure 58
1000
0100
1000
0100
0010
0001
0010
0001
,  // measure 59
1000
0010
0100
0001
1000
0010
0001
0100
,  // measure 60
0010
0100
0001
0100
0010
1000
0001
1000
,  // measure 61
0001
0100
0001
1000
0100
0001
1000
0010
,  // measure 62
0100
1000
0100
0010
1000
0100
0010
0001
,  // measure 63
0010
0100
0001
0100
1000
0001
0010
0100
,  // measure 64
0001
0100
1000
0010
0100
0001
1000
0001
,  // measure 65
0010
0001
0100
0010
0100
0010
1000
0010
,  // measure 66
0100
0001
1000
0010
0001
0100
1000
0001
,  // measure 67
0010
0100
1000
0100
1000
0001
1000
0100
,  // measure 68
1010
0100
0010
1100
0010
0100
1010
1000
,  // measure 69
1001
0001
0010
0001
0010
0001
0010
0001
,  // measure 70
0101
1000
1100
0000
1001
0000
0101
0001
,  // measure 71
0010
0100
0010
0100
0010
0100
0010
0100
,  // measure 72
1000
0010
0100
1000
0010
0100
1000
0001
,  // measure 73
1000
0100
0010
0001
0100
0010
0001
0100
,  // measure 74
1000
1100
1000
1010
,  // measure 75
1000
1001
1001
0000
;

//---------------dance-double - ----------------
#NOTES:
     dance-double:
     :
     Challenge:
     10:
     0.794,1.000,0.284,1.000,0.337:
M0020000
02030000
00000000
03200000
00000000
00302000
00003020
00000000
,
00000032
00000000
00000000
00000000
00000003
00000000
00000200
00000302
,
00020003
00000000
00230000
20300000
00000000
30020000
02030000
00000000
,
03002000
00003000
00000000
00000000
,
00000200
00002300
00000000
00023000
00000000
00230000
20300000
30200000
,
00000000
00000000
00000000
00000000
00000000
02300000
03020000
00032000
,
00003020
00000000
00000000
00000230
00000000
00000000
00000320
00000000
,
00020030
00000000
00000000
00032000
00000000
00000000
00023000
02030000
,
03200000
00000000
00320000
00230000
00000000
02300000
23000000
00000000
,
30020000
00000000
00000000
00000000
00000000
00000000
00230000
02300000
,
03020000
00000000
00000000
00000000
00000000
00000000
00000000
00000000
00230000
00000000
00000000
00000000
00302000
00000000
00000000
00000000
00000000
00000000
00000000
00003000
00002000
00000000
00000000
00000000
00203000
00000000
00000000
00000000
00000000
00000000
00000000
00000000
,
00320000
00000000
00000000
00000000
00000000
00000000
00000000
20030000
,
32000000
03002000
00023000
00030020
00000000
00000000
00000230
00000302
,
00000000
00000000
00000000
00000000
00000000
00000023
00000230
00020300
,
00230000
00000000
00000000
02300000
00000000
00000000
03200000
00000000
,
20300000
00000000
00000000
30200000
00000000
00000000
01300000
00000000
,
00010000
00000000
00000000
01000000
00000000
00000000
00010000
00000000
01000000
00000000
00100000
10000000
00000000
01000000
00100000
00000000
,
00010000
00000000
00000000
00010000
00000000
00000000
00001000
00000000
00000000
00001000
00000000
00000000
00000010
00000000
00000100
00000000
,
00000001
00000000
00000000
00000001
00000000
00000000
00001000
00000000
00000000
00001000
00000000
00000000
01000000
00000000
00100000
00000000
,
00010000
00000000
00000000
01000000
00000000
00000000
00010000
00000000
00000000
00100000
00000000
00000000
00010000
00000000
00000010
00000000
,
00000100
00000000
00000000
00000010
00000000
00000000
00010000
00000000
00000100
00000000
00001000
00000010
00000000
00010000
00001000
00000000
,
00000100
00000000
00000000
00000100
00000000
00000000
00001000
00000000
00000000
00010000
00000000
00000000
01000000
00000000
00010000
00000000
,
00100000
00000000
00000000
00100000
00000000
00000000
00010000
00000000
00000000
00010000
00000000
00000000
00001000
00000000
00000010
00000000
,
00000100
00000000
00000000
00000001
00000000
00000000
00001000
00000000
00000000
00000100
00000000
00000000
00010000
00000000
00001000
00000000
,
00110000
00000000
00100000
00010000
00000000
00001000
00000010
00000000
,
00002020
00000000
00000000
00003030
00000000
00000000
00001000
01000000
,
01100000
00000000
10000000
01000000
00000000
00100000
00010000
00000000
,
00220000
00000000
00330000
00000000
,
00100000
00001000
00010000
00000010
00000100
00000000
00000001
00002000
,
00000000
00000000
00000000
00000000
00000000
00013000
01000000
00200000
,
00000000
00000000
00000000
00302000
00000000
00000000
00000000
00000000
,
00000004
00000000
00000000
00003003
,
00002001
00000000
00000000
00000010
00000000
00000000
00000100
00000000
00000000
00000010
00000000
00000000
00003001
00000000
00000001
00000000
,
00201000
00000000
00000000
00010000
00000000
00000000
00000100
00000000
00000000
00001000
00000000
00000000
00310000
00000000
00010000
00000000
,
01020000
00000000
00000000
01000000
00000000
00000000
00100000
00000000
00000000
10000000
00000000
00000000
00130000
00000000
00100000
00000000
,
01200000
00000000
00000000
01000000
00000000
00000000
00010000
00000000
00000000
00010000
00000000
00000000
10300000
00000000
01000000
00000000
,
00200000
00000000
00000000
00300000
00020000
00000000
00032000
00000000
00003200
00000000
00000000
00002300
00000000
00000000
00023000
00000000
,
02030000
00000000
00000000
03200000
00000000
00000000
00320000
00000000
00032000
00000000
00000000
00003020
00000000
00000000
00002030
00000000
,
00203000
02300000
03020000
02030000
23000000
30200000
00320000
00032000
,
00003200
00000302
00002003
00003200
00020300
00032000
00203000
00320000
,
02030000
00000000
00000000
00000000
00000000
00000000
00000000
00000000
00000000
00000000
00000000
00000000
00000000
00000000
00000000
00000000
03100000
00000000
01000000
00100000
01000000
00100000
00000000
10000000
00000000
00010000
00000000
10000000
00010000
00000000
00000000
00000000
,
20010000
00000000
00000000
01000000
00000000
00000000
00100000
00000000
30100000
00000000
10000000
00100000
00000000
00100000
10000000
00000000
,
10020000
00000000
00000000
01000000
00000000
00000000
00100000
00000000
00000000
01000000
00000000
00000000
10030000
00000000
00100000
00000000
,
02010000
00000000
00000000
00010000
00000000
00000000
00100000
00000000
00000000
00010000
00000000
00000000
13000000
00000000
00100000
00000000
,
20100000
00000000
00000000
01000000
00000000
00000000
00010000
00000000
00000000
01000000
00000000
00000000
30010000
00000000
00100000
00000000
,
00120000
00000000
00000000
01000000
00000000
00000000
00100000
00000000
10030000
00000000
00010000
01000000
00000000
00010000
01000000
00000000
,
00120000
00000000
00000000
10000000
00000000
00000000
00100000
00000000
00000000
01030000
00000000
00000000
00010000
00000000
10000000
00000000
,
21000000
00000000
00000000
00100000
00000000
00000000
30010000
00000000
00000000
10000000
00000000
00000000
00100000
00000000
01000000
00000000
,
10020000
00000000
00000000
01000000
00000000
00000000
10000000
00000000
00000000
01030000
00000000
00000000
00001000
00000000
00010000
00000000
,
00002001
00000000
00000000
00000100
00000000
00000000
00000010
00000000
00003010
00000000
00001000
00000010
00000000
00000010
00001000
00000000
,
00001002
00000000
00000000
00000100
00000000
00000000
00000010
00000000
00000000
00000100
00000000
00000000
00001003
00000000
00000010
00000000
,
00000201
00000000
00000000
00000001
00000000
00000000
00000010
00000000
00000000
00000001
00000000
00000000
00001300
00000000
00000010
00000000
,
00002010
00000000
00000000
00000100
00000000
00000000
00000001
00000000
00000000
00000100
00000000
00000000
00003001
00000000
00000010
00000000
,
00000012
00000000
00000000
00000100
00000000
00000000
00000010
00000000
00001003
00000000
00000001
00000100
00000000
00000001
00000100
00000000
,
00000012
00000000
00000000
00001000
00000000
00000000
00000010
00000000
00000000
00000103
00000000
00000000
00000001
00000000
00001000
00000000
,
00002100
00000000
00000000
00000010
00000000
00000000
00003001
00000000
00000000
00001000
00000000
00000000
00000010
00000000
00000100
00000000
,
00000102
00000000
00000000
00000100
00000000
00000000
00000010
00000000
00000000
00000010
00000000
00000000
00001003
00000000
00000100
00000000
,
00010000
00100000
00010000
00100000
01000000
10000000
01000000
10000000
,
01000000
00001000
01000000
00100000
01000000
00001000
01000000
00100000
,
00010000
00001000
00100000
01000000
00001000
00010000
01000000
00100000
,
00001000
00000010
00001000
00000100
00010000
01000000
00010000
00100000
,
00010000
00100000
00010000
00001000
00100000
01000000
00010000
00100000
,
01000000
00001000
00010000
00001000
00000100
00001000
00000001
00000010
,
00000100
00000001
00010000
00000100
00000010
00001000
00010000
00000100
,
00001000
00000010
00000100
00000001
00001000
00000001
00001000
00000001
,
00000101
00001000
00000010
00001010
00000100
00000010
00000110
00001000
,
00001001
00000001
00000010
00000001
00000010
00000001
00000010
00000100
,
00001000
00010000
00100000
10000000
01000000
00100000
00010000
00000100
,
00001000
00000010
00000100
00000001
00000010
00000001
00001000
00000010
,
00000100
00001000
00010000
01000000
10000000
00100000
01000000
00010000
,
10000000
00100000
00010000
00000100
00000010
00001000
00000100
00000010
,
00000100
00001000
00000010
00000100
00001000
00010000
00100000
00010000
,
00001000
00000100
00000010
00001000
01000000
00100000
00010000
00001000
,
00021000
00001000
00000100
00000100
,
00000010
00030010
00001001
00000000
;
