#TITLE:Heaven;
#SUBTITLE:(Gammer Remix);
#ARTIST:Nukleuz Kollective;
#TITLETRANSLIT:;
#SUBTITLETRANSLIT:;
#ARTISTTRANSLIT:;
#CREDIT:;
#BANNER:Heaven (Gammer Remix)-bn.png;
#BACKGROUND:Heaven (Gammer Remix)-bg.png;
#LYRICSPATH:;
#CDTITLE:SilveR.png;
#MUSIC:Heaven (Gammer Remix).mp3;
#OFFSET:0.000;
#SAMPLESTART:46.540;
#SAMPLELENGTH:11.720;
#SELECTABLE:YES;
#BPMS:0.000=170.000;
#STOPS:;
#BGCHANGES:;

//---------------dance-single - ----------------
#NOTES:
     dance-single:
     :
     Easy:
     3:
     0.200,0.348,0.067,0.025,0.000:
0000
0000
0000
0000
,
1000
0000
1000
0000
,
0001
0000
0001
0000
,
1000
0000
1000
0000
,
0001
0000
0001
0000
,
0010
0000
0010
0000
,
0100
0000
0100
0000
,
0010
0000
0100
0000
,
0010
0000
1001
0000
,
0001
0000
0100
0000
,
1000
0000
0100
0000
,
0001
0000
0100
0000
,
1000
0000
0100
0000
,
0001
0001
0001
0001
,
0010
0010
0010
0010
,
1000
1000
1000
1000
,
1001
0000
0000
0000
,
0001
0000
1000
0000
,
0001
0000
0001
0000
,
0010
0000
0100
0000
,
0010
0000
0010
0000
,
0100
0000
1000
0000
,
0100
0000
0100
0000
,
1000
0000
0010
0000
,
1000
0000
1000
0000
,
0001
0000
0010
0000
,
0001
0000
0001
0000
,
0100
0000
0010
0000
,
0100
0000
0100
0000
,
1000
0000
0010
0000
,
1000
0000
1000
0000
,
0001
0000
0100
0000
,
0001
0000
0000
0000
,
1001
0000
1000
0000
,
0010
0000
0100
0000
,
0001
0000
1000
0000
,
0010
0000
0100
0000
,
1000
0000
0100
0000
,
0010
0000
0001
0000
,
1000
0000
0100
0000
,
0010
0000
1000
0000
,
0001
0000
0010
0000
,
1000
0000
0100
0000
,
1000
0000
0001
0000
,
0010
0000
1000
0000
,
0001
0000
0100
0000
,
1000
0000
0001
0000
,
0010
0000
0100
0000
,
0001
0000
1000
0000
,
0100
0000
0000
0000
,
0000
0000
0000
0000
,
0110
0000
1000
0000
,
0001
0000
0010
0000
,
0100
0000
0001
0000
,
1000
0000
0010
0000
,
1000
0000
0100
0000
,
0001
0000
1000
0000
,
0010
0000
0000
0000
,
0100
0000
0000
0000
,
0110
0000
0000
0000
,
1001
0000
0000
0000
,
0001
0000
1000
0000
,
0001
0000
0010
0000
,
0100
0000
0001
0000
,
1000
0000
0000
0000
,
0220
0000
0000
0000
,
0330
0000
0000
0000
,
1000
0000
0001
0000
,
0010
0000
0100
0000
,
0001
0000
1000
0000
,
0010
0000
0100
0000
,
1000
0000
0001
0000
,
0100
0000
0001
0000
,
0010
0000
1000
0000
,
0001
0000
1001
0000
,
0100
0000
0000
0010
,
0000
0100
0000
1000
,
0000
0001
0000
0010
,
0000
1000
0000
0001
,
0000
0100
0000
0001
,
0000
0010
0000
0001
,
0000
1000
0000
0001
,
0000
0000
2000
0000
,
3000
0000
0000
0000
;

//---------------dance-single - ----------------
#NOTES:
     dance-single:
     :
     Medium:
     6:
     0.515,0.488,0.277,0.109,0.000:
0000
0000
0000
0000
,
0001
0000
0001
0000
,
1000
0000
1000
0000
,
0010
0100
0010
0100
,
0001
1000
0010
0100
,
0001
0010
0100
1000
,
0001
0010
0100
1000
,
0001
0100
0010
1000
,
0001
0100
0010
1000
,
0001
0010
1000
0000
1000
0010
0001
0000
,
0001
0100
0010
0000
0010
0100
0001
0000
,
0001
1000
0100
0000
0100
0010
0001
0000
,
0001
0010
0100
0000
1000
0010
0100
0000
,
0001
0100
0001
0100
0010
0000
0010
0000
,
1000
0100
1000
0100
0010
0000
0010
0000
,
0001
1000
0001
1000
0100
0000
0100
0000
,
1002
2000
0000
3003
,
0110
0000
0110
0000
0001
0000
0100
0010
,
1000
0001
0011
0100
,
0010
0000
1000
0000
0001
0000
0100
0010
,
1000
0000
0100
0000
0110
0000
1000
0001
,
0010
0001
0100
0010
,
0100
0000
0001
0000
1001
0000
0010
0100
,
1000
0001
0100
0010
,
0100
0000
0001
1000
0010
0000
0110
0000
,
1000
0001
0010
0100
,
1000
0000
0001
0010
0100
0000
1100
0000
,
0010
0001
0100
0010
,
1000
0000
0100
0010
0001
0000
0101
0000
,
0010
0001
1000
0010
,
0100
0000
1000
0100
0010
0000
1010
0000
,
1000
0000
0100
0010
1000
0000
1010
0000
,
0010
0100
2000
3001
,
0220
0000
0330
0000
0000
1000
0010
1000
,
0000
1000
0001
1000
0000
1000
0100
1000
,
0000
0010
0100
0010
0000
0010
0001
0010
,
0000
0010
1000
0010
0000
0100
0010
0100
,
0000
0100
0001
0100
0000
0100
1000
0100
,
0000
0001
0010
0001
0000
0001
1000
0001
,
0000
0001
0100
0001
0000
0010
0100
0010
,
0000
0010
1000
0010
0000
0010
0001
0010
,
0000
0100
1000
0100
0000
0100
0010
0100
,
0000
0100
0001
0100
0000
0010
1000
0010
,
0000
0010
0100
0010
0000
0010
0001
0010
,
0000
1000
0010
1000
0000
1000
0100
1000
,
0000
0001
0100
0001
0000
0001
0010
0001
,
0000
0100
1000
0100
0000
0100
1000
0010
,
0000
0010
0100
0001
0000
0001
0100
0010
,
0000
0010
1000
0001
0000
0001
1000
0100
,
0000
0000
0110
0000
,
2002
0000
3003
0000
,
1000
0010
0100
0000
0001
0010
0100
0000
,
1000
0001
0100
0000
0010
1000
0001
0000
,
0100
0010
0001
0000
0100
0010
1000
0000
,
0001
0010
0100
0000
0100
1000
0010
0000
,
0010
0001
0100
0000
0010
0100
0001
0000
,
1000
0001
0100
0000
0001
0010
0100
0000
,
1000
0010
0100
0000
0001
1000
0100
0000
,
1000
0010
0100
0000
0001
1000
0100
0000
,
0110
0000
1001
0000
0001
0000
0100
0010
,
0100
0000
0001
0000
0011
0000
1000
0100
,
1000
0000
0010
0000
0100
0000
0001
1000
,
0010
0000
0110
0000
1000
0100
0010
0001
,
0001
1001
0101
0000
,
1010
0000
1001
0000
,
0200
0302
2003
3200
,
2000
0000
0000
3300
,
0110
0110
1001
1001
,
0100
0010
0001
1000
,
0010
0100
0001
0010
,
0100
0000
1000
0000
0010
0000
0100
0001
,
1000
0010
0100
0001
,
1000
0100
0010
0001
,
1000
0010
0100
0010
,
0100
1000
0100
1000
,
0010
0000
0011
0000
0000
1000
0010
0000
,
0100
0000
0011
0000
0000
1000
0010
0000
,
0100
0000
1010
0000
0000
0001
0010
0000
,
0100
0000
0011
0000
0000
1000
0010
0100
,
0010
0000
1010
0000
0000
0100
0010
0000
,
0001
0000
0110
0000
0000
1000
0001
0000
,
0100
0000
1100
0000
0000
0010
1000
0000
,
0000
0002
1000
0000
,
0003
0000
0000
0000
;

//---------------dance-single - ----------------
#NOTES:
     dance-single:
     :
     Hard:
     9:
     0.645,0.836,0.537,0.067,0.222: // measure 1
0000
0000
0000
0000
,  // measure 2
0010
0000
0000
0100
0000
0000
0010
0000
0100
0000
0000
0010
0000
0000
0100
0000
,  // measure 3
0010
0000
0000
0100
0000
0000
0010
0000
0100
0000
0000
0010
0000
0000
0100
0000
,  // measure 4
0010
0000
0000
0100
0000
0000
0010
0000
0100
0000
0000
0010
0000
0000
0100
0000
,  // measure 5
0010
0000
0000
0100
0000
0000
0010
0000
0100
0000
0010
0000
0100
0010
0000
0100
,  // measure 6
0010
0000
0000
0100
0000
0000
0010
0000
0100
0000
0000
0010
0000
0000
0100
0000
,  // measure 7
0010
0000
0000
0100
0000
0000
0010
0000
0100
0000
0000
0010
0000
0100
0000
0000
,  // measure 8
0010
0000
0000
0100
0000
0000
0010
0000
0100
0000
0000
0010
0000
0000
0100
0000
,  // measure 9
0010
0000
0000
0100
0000
0000
0010
0000
0100
0000
0010
0000
0100
0010
0000
0010
,  // measure 10
0100
0000
1001
0000
0100
0010
0001
0000
,  // measure 11
1000
0010
0100
0000
0001
0010
0100
0000
,  // measure 12
1000
0010
0100
0000
0010
1000
0010
0000
,  // measure 13
0010
0001
0100
0000
0001
0010
0001
0000
,  // measure 14
0010
0100
1000
0001
0100
0010
0100
0001
,  // measure 15
1000
0100
0010
0100
0010
0100
0010
0000
0001
0000
1000
0000
0010
0000
0100
0000
,  // measure 16
0001
0010
0100
0010
0100
0000
1000
0000
0001
0000
0100
0000
0010
0100
0001
1000
,  // measure 17
0001
0000
0000
0000
1001
0000
0020
0000
0230
0000
0000
0020
0330
0000
0000
0000
,  // measure 18
1001
0000
0000
0000
0101
0000
0000
0000
0001
0000
0000
0010
0000
0000
0100
0000
,  // measure 19
1000
0000
0110
0000
1001
0000
1000
0100
,  // measure 20
0010
0000
0000
0000
0001
0000
0000
0000
0001
0000
0000
0010
0000
0000
0100
0000
,  // measure 21
1000
0000
0110
0000
1001
0000
0010
0100
,  // measure 22
0001
0000
0000
0000
1000
0000
0000
0000
0010
0000
0000
1000
0000
0000
1000
0000
,  // measure 23
0100
0000
0110
0000
1100
0000
0001
0010
,  // measure 24
0100
0000
0000
0000
0110
0000
0000
0000
0001
0000
0000
1000
0000
0000
0010
0000
,  // measure 25
0100
0000
0000
0000
0110
0000
0000
0000
1001
0000
0000
0000
0001
0000
0100
0010
,  // measure 26
0100
0000
0000
0000
1001
0000
0000
0000
0010
0000
0000
0001
0000
0000
0100
0000
,  // measure 27
0010
0000
0110
0000
1001
0000
0001
0010
,  // measure 28
0100
0000
0000
0000
1000
0000
0000
0000
0010
0000
0000
0100
0000
0000
0001
0000
,  // measure 29
0010
0000
1100
0000
0011
0000
0100
0001
,  // measure 30
0011
0000
0000
0000
1000
0000
0000
0000
0010
0000
0000
0100
0000
0000
0001
0000
,  // measure 31
1000
0000
1010
0000
0101
0000
0010
1000
,  // measure 32
0100
0000
0000
0000
0011
0000
0000
0000
0001
0000
0000
0100
0000
0000
0010
0000
,  // measure 33
0100
0000
0000
0000
,  // measure 34
0100
1000
0001
0010
0000
1000
0001
0010
,  // measure 35
0000
0100
0001
0010
0000
1000
0001
0010
,  // measure 36
0000
0100
0001
0010
0000
0100
0001
0010
,  // measure 37
0000
0100
0001
1000
0000
0100
0001
0010
,  // measure 38
0000
0100
0001
1000
0000
0100
0001
0010
,  // measure 39
0000
0010
0001
0100
0000
0100
1000
0100
,  // measure 40
0000
0100
0001
0010
0000
1000
0010
0001
,  // measure 41
0000
0100
0010
0001
0000
0001
0010
1000
,  // measure 42
0000
0100
0001
0010
0000
1000
0010
0001
,  // measure 43
0000
0100
0010
0001
0000
0001
0010
1000
,  // measure 44
0000
0100
0001
0010
0000
1000
0010
0001
,  // measure 45
0000
0100
0001
0010
0000
0001
0010
1000
,  // measure 46
0000
0010
0100
1000
0000
0010
0100
0001
,  // measure 47
0000
1000
0100
0010
0000
0001
1000
0010
,  // measure 48
0000
0100
0001
0010
0000
0001
1000
0100
,  // measure 49
0000
0001
0100
0001
0000
1000
0100
1000
,  // measure 50
0002
0100
0003
0000
0010
0000
2000
0002
,  // measure 51
0000
0000
3003
0000
,  // measure 52
0110
0000
0000
0000
1001
0000
0000
0000
0100
0000
0000
0010
0000
0000
0100
0000
,  // measure 53
0001
0000
0011
0000
1100
0000
0001
0010
,  // measure 54
1100
0000
0101
1000
0000
0010
0101
0000
,  // measure 55
0010
0000
0001
0000
1000
0000
0010
0100
,  // measure 56
0001
0000
0000
0000
0011
0000
0000
0000
1000
0000
0000
0100
0000
0000
1000
0000
,  // measure 57
0010
0000
0110
0000
1001
0000
0001
0010
,  // measure 58
1000
0000
0000
0000
1010
0000
0000
0000
0001
0000
0000
0100
0000
0000
1000
0000
,  // measure 59
0010
0000
0011
0000
0101
0000
0001
0010
,  // measure 60
0110
0000
0000
0000
1100
0000
0000
0000
0001
0000
0000
0100
0000
0000
0010
0000
,  // measure 61
1000
0000
0011
0000
0101
0000
1000
0010
,  // measure 62
0110
0000
0000
0000
1001
0000
0000
0000
0010
0000
0000
0100
0000
0000
0001
0000
,  // measure 63
0011
0000
0011
0000
0101
0000
0011
0001
,  // measure 64
0011
0000
0000
0000
0001
0000
0100
0000
0110
0000
0000
1000
0000
0000
0001
0000
,  // measure 65
0010
0000
0110
0000
1001
0000
0001
0010
,  // measure 66
0100
0000
0010
1000
0010
0000
0100
0000
0001
0000
0100
0000
0010
0000
0001
0000
,  // measure 67
0000
0000
0000
0010
,  // measure 68
0101
0100
0010
0100
0001
1000
0010
0100
,  // measure 69
0001
1000
0100
0010
0001
1000
0100
0010
,  // measure 70
0001
0000
0100
0000
0010
0000
0100
0000
0001
0000
0000
1000
0000
0000
0010
0000
,  // measure 71
0100
0000
0000
0010
0000
0000
1000
0000
0001
0000
0100
0000
0001
0010
0000
0100
,  // measure 72
0001
0100
0010
0100
0001
1000
0010
1000
,  // measure 73
0001
0010
0100
1000
0001
0100
0010
0100
,  // measure 74
0001
0000
0000
1000
0000
0000
0100
0000
0010
0000
0000
0001
0000
0000
0100
0000
,  // measure 75
0010
0000
0000
0100
0000
0000
0001
0000
1000
0000
0010
0000
0100
0001
0000
0001
,  // measure 76
0100
0000
0110
0000
0000
1000
1001
0000
,  // measure 77
0100
0000
0011
0000
0000
1000
1010
0000
,  // measure 78
0100
0000
0011
0000
0000
1000
1001
0000
,  // measure 79
0100
0000
0000
0000
0011
0000
0000
0000
0000
0000
0100
0000
0110
0000
0100
0001
,  // measure 80
1000
0000
0011
0000
0000
0001
0101
0000
,  // measure 81
1000
0000
0011
0000
0000
0001
0101
0000
,  // measure 82
1000
0000
0011
0000
0000
0100
0110
0000
,  // measure 83
0000
0000
1000
0010
0200
0002
0000
0000
,  // measure 84
0303
0000
0000
0000
;
