#TITLE:Forbidden Fruit;
#SUBTITLE:;
#ARTIST:Euphoria;
#TITLETRANSLIT:;
#SUBTITLETRANSLIT:;
#ARTISTTRANSLIT:;
#CREDIT:;
#BANNER:Forbidden Fruit-bn.png;
#BACKGROUND:Forbidden Fruit-bg.png;
#LYRICSPATH:;
#CDTITLE:SilveR.png;
#MUSIC:Forbidden Fruit.mp3;
#OFFSET:-2.820;
#SAMPLESTART:66.100;
#SAMPLELENGTH:10.200;
#SELECTABLE:YES;
#BPMS:0.000=183.670,60.000=367.340,76.000=183.670;
#STOPS:;
#BGCHANGES:0.000=Blackhole2.avi=1.000=1=0=1,
14.000=Comets.avi=1.000=1=0=1,
30.000=Light1.avi=1.000=1=0=1,
46.000=Light6.avi=1.000=1=0=1,
72.000=Bubble1R.avi=1.000=1=0=1,
90.000=Disco3.avi=1.000=1=0=1,
106.000=Geometry1.avi=1.000=1=0=1,
122.000=Blackhole1.avi=1.000=1=0=1,
138.000=Bubble1R.avi=1.000=1=0=1,
154.000=Disco3.avi=1.000=1=0=1,
170.000=Geometry1.avi=1.000=1=0=1,
186.000=Blackhole1.avi=1.000=1=0=1,
202.000=Blackhole2.avi=1.000=1=0=1,
218.000=Comets.avi=1.000=1=0=1,
234.000=Light1.avi=1.000=1=0=1,
250.000=Light6.avi=1.000=1=0=1,
266.000=Rain1.avi=1.000=1=0=1,
298.000=Blackhole2.avi=1.000=1=0=1,
330.000=Light6.avi=1.000=1=0=1,
362.000=Bubble1R.avi=1.000=1=0=1,
394.000=Fireworks1.avi=1.000=1=0=1,
426.000=Fireworks2.avi=1.000=1=0=1,
99999=-nosongbg-=1.000=0=0=0 // don't automatically add -songbackground-
;

//---------------dance-single - ----------------
#NOTES:
     dance-single:
     :
     Hard:
     8:
     0.571,0.644,0.207,0.162,0.010: // measure 1
2000
0000
0000
0000
,  // measure 2
0002
0000
3003
0000
,  // measure 3
0100
0000
0010
0001
0000
1000
0000
0010
,  // measure 4
0000
0000
0100
0001
,  // measure 5
2000
0000
0001
0001
,  // measure 6
0010
0000
0100
0100
0000
0010
0000
0000
,  // measure 7
0002
0000
0000
0000
,  // measure 8
3003
0000
0001
0010
,  // measure 9
0200
0000
0000
0000
0001
0000
1000
0020
,  // measure 10
0300
0000
0000
0000
0000
0030
0000
0100
,  // measure 11
0001
0000
0010
0001
0000
1000
0000
0010
,  // measure 12
0000
0000
0100
0001
,  // measure 13
2000
0000
0010
0010
,  // measure 14
0100
0000
0001
0100
0000
0010
0000
0000
,  // measure 15
0002
0000
0000
0000
,  // measure 16
0000
0000
0000
0000
,  // measure 17
0000
0000
0000
0000
0000
0000
0000
3003
,  // measure 18
MMMM
0000
0000
0000
,  // measure 19
0000
0000
0000
0000
,  // measure 20
1000
0000
1000
0000
0001
0010
0100
1000
,  // measure 21
0000
0100
0000
0011
0000
0010
0001
0010
,  // measure 22
1000
0000
1000
0000
0100
1000
0001
0010
,  // measure 23
0000
0010
0000
1100
0000
0100
1000
0010
,  // measure 24
0001
0000
0001
0000
0100
0001
0010
0100
,  // measure 25
0000
0100
0000
1010
0000
0010
0001
0010
,  // measure 26
1000
0000
1000
0000
0100
0001
0010
0100
,  // measure 27
0000
0000
0100
0000
0000
0000
1000
0000
0010
0000
0000
0100
0000
0000
0001
0000
,  // measure 28
0011
0000
1000
0000
0001
0100
0001
0010
,  // measure 29
0000
0100
0000
1000
0000
0010
0100
0001
,  // measure 30
1000
0000
0100
0000
0010
0001
0010
0100
,  // measure 31
0000
1000
0000
0001
0000
0100
0010
0001
,  // measure 32
0010
0000
0100
0000
0001
0010
0100
1000
,  // measure 33
0000
0001
0000
0011
0000
0001
0010
1000
,  // measure 34
0010
0000
0100
0000
0001
0100
1000
0100
,  // measure 35
0000
0000
2000
0000
0000
0000
3002
0000
0023
0000
0000
2030
0000
0000
3200
0000
,  // measure 36
0301
0000
1001
0000
1000
1000
1000
0100
,  // measure 37
0000
1000
0000
0001
0000
0100
0001
0001
,  // measure 38
0010
0000
0100
0000
0010
0010
0010
0001
,  // measure 39
0000
1000
0000
0010
0000
0100
0100
0001
,  // measure 40
1000
0000
1000
0000
0100
0010
0001
0010
,  // measure 41
0000
0100
0000
1000
0000
0010
0001
0100
,  // measure 42
1000
0000
0100
0000
0001
1000
0010
0100
,  // measure 43
0000
0000
0001
0000
0000
0000
0100
0000
1000
0000
0000
0100
0000
0000
0001
0000
,  // measure 44
1000
0000
1001
0000
1000
1000
1000
0010
,  // measure 45
0000
0200
0000
0001
0000
0010
0010
0010
,  // measure 46
1300
0000
0110
0000
1000
1000
1000
0200
,  // measure 47
0000
1000
0000
0010
0000
0001
0001
0001
,  // measure 48
1300
0000
1001
0000
0100
0001
1000
0100
,  // measure 49
0000
0010
0000
0001
0000
1000
0010
0100
,  // measure 50
0001
0000
0100
0000
0100
0001
1000
0010
,  // measure 51
0000
0000
0000
0000
,  // measure 52
1000
0100
1000
0010
0100
0001
0010
0000
,  // measure 53
0010
0001
1000
0010
0100
0001
0010
0000
,  // measure 54
0100
0000
1000
0001
0000
0100
0000
1000
,  // measure 55
0000
0000
0001
0001
,  // measure 56
0020
0000
0100
0100
,  // measure 57
2030
0000
0010
0010
0000
0001
0000
0000
,  // measure 58
0020
0000
3030
0000
,  // measure 59
0000
0000
0001
0100
,  // measure 60
0010
0000
1000
0001
0100
0010
1000
0100
,  // measure 61
0010
0000
0001
0100
0000
0001
0000
0100
,  // measure 62
0001
0000
1000
0001
0000
0100
0000
0010
,  // measure 63
0000
0000
1000
1000
,  // measure 64
0002
0000
0010
0010
,  // measure 65
1000
0000
0100
0010
0000
0100
0000
0000
,  // measure 66
2000
0000
3003
0000
,  // measure 67
0000
1000
1000
1000
,  // measure 68
0001
0100
0001
0010
0100
1000
0010
0000
,  // measure 69
1000
0001
0100
0010
1000
0100
0010
0000
,  // measure 70
1000
0010
1000
0001
0100
0001
1000
0000
,  // measure 71
0010
1000
0100
0010
0001
0100
0001
0000
,  // measure 72
0010
0000
0100
1000
0000
0010
0100
0000
,  // measure 73
0001
0000
0100
0010
0000
0010
0001
0000
,  // measure 74
0022
0000
0033
0000
,  // measure 75
0000
0001
2100
3001
,  // measure 76
1000
0010
1000
0100
0010
0001
0100
0000
,  // measure 77
0001
1000
0010
0100
0001
0010
0100
0000
,  // measure 78
0001
0100
0001
1000
0010
1000
0001
0000
,  // measure 79
0100
0001
0010
0100
1000
0010
1000
0000
,  // measure 80
0100
0000
0010
0001
0000
0100
0010
0000
,  // measure 81
1000
0010
0100
1000
,  // measure 82
2200
0000
3300
0000
,  // measure 83
0000
0000
0000
0001
0000
0000
1000
0000
,  // measure 84
1000
0100
1000
0010
0100
0001
0010
0001
,  // measure 85
0100
0010
1000
0100
0010
0001
0100
0000
,  // measure 86
0001
0010
0001
0100
0010
1000
0010
0100
,  // measure 87
0001
0010
0100
1000
0001
0010
0100
0000
,  // measure 88
1000
0001
0100
0001
0010
0001
0100
0001
,  // measure 89
1000
0010
0100
0001
1000
0010
0100
0000
,  // measure 90
0001
0010
0001
0100
0001
1000
0001
0100
,  // measure 91
0010
1000
0100
0010
0001
1000
0001
0000
,  // measure 92
0100
0010
1000
0010
0100
0010
0001
0010
,  // measure 93
0100
0010
1000
0100
0010
0001
0100
0000
,  // measure 94
1000
0010
0001
0010
0100
0010
1000
0010
,  // measure 95
0100
0010
0001
0010
1000
0100
0010
0000
,  // measure 96
0001
0100
0001
0010
1000
0010
0100
0010
,  // measure 97
0100
0001
0100
1000
0010
0100
0001
0000
,  // measure 98
0010
0100
1000
0000
1001
0000
0110
0000
,  // measure 99
0010
1000
0100
0010
0000
0000
0000
0000
,  // measure 100
1001
0000
0100
0001
0000
1000
0001
0000
,  // measure 101
0011
0000
1000
0100
0000
1000
0001
0000
,  // measure 102
0101
0000
0100
0001
0000
0100
0010
0000
,  // measure 103
0110
0000
0010
1000
0000
0010
0100
0000
,  // measure 104
1100
0000
1000
0100
0000
1000
0001
0000
,  // measure 105
1001
0000
0100
0001
0000
0100
0010
0000
,  // measure 106
0110
0000
0010
0100
0000
0010
1000
0000
,  // measure 107
1010
0000
1000
0100
0000
1000
0001
0000
,  // measure 108
1010
0000
0100
0101
0000
0001
0000
0010
,  // measure 109
0110
0000
1000
1100
0000
1000
0000
0001
,  // measure 110
0101
0000
1000
1010
0000
0100
0000
0001
,  // measure 111
0011
0000
0010
0110
0000
1000
0000
0001
,  // measure 112
0101
0000
1000
0010
1000
0000
0001
0000
,  // measure 113
0101
0000
0010
0001
0010
0000
0100
0000
,  // measure 114
1000
0100
1000
0000
0001
0100
0001
0000
,  // measure 115
1000
0010
0001
0100
1000
0001
0100
0010
,  // measure 116
0001
0001
0001
0001
,  // measure 117
0001
0001
0001
0001
,  // measure 118
0001
0000
0000
0000
;

//---------------dance-single - ----------------
#NOTES:
     dance-single:
     :
     Medium:
     7:
     0.495,0.529,0.149,0.071,0.000:
0200
0000
0000
0000
,
0002
0000
0303
0000
,
0001
0000
1000
1000
0000
0100
0000
0010
,
0000
0000
0001
0001
,
2000
0000
0100
0100
,
3002
0000
0100
0100
0000
0010
0000
0000
,
2000
0000
0000
0000
,
3003
0000
0001
0001
,
0010
0000
0000
0000
0100
1000
0001
0000
,
0100
0000
0000
0000
0010
1000
0001
0000
,
0010
0000
0000
0000
0100
1000
0001
0000
,
0100
0000
0000
0000
0010
1000
0100
0000
,
0010
0000
0000
0000
0001
0100
0001
0000
,
1000
0000
0000
0000
1000
0100
0010
0000
,
0100
0000
0010
0000
,
0001
0000
1000
0000
,
0010
0000
0100
0000
,
1001
0000
0000
0000
,
0000
0000
0000
0000
,
1000
1000
1000
0001
,
0100
0000
0100
0000
0100
0000
0010
1000
,
0001
0001
0010
0010
,
0100
0000
0100
0000
0100
0000
0100
1000
,
0001
0001
0010
0010
,
1000
0000
1000
0000
1000
0000
0100
0010
,
1000
1000
0001
0001
,
0010
0010
0100
0100
,
1001
0001
0100
0100
,
0010
0000
1000
0000
0001
0000
0100
0001
,
1000
0100
0010
0001
,
1000
0000
0001
0000
0100
0000
0100
0010
,
1000
0001
0010
1000
,
0010
0000
0001
0000
0001
0000
1000
0001
,
0100
0010
1000
0100
,
0010
0000
0001
0000
1000
0100
0010
0001
,
0010
0001
1000
0010
,
0100
0000
0001
0000
0100
0000
1000
0010
,
1000
0001
0100
0010
,
1000
0000
0100
0000
1000
0000
0001
0010
,
0001
1000
0001
0100
,
1000
0000
0100
0000
0001
0000
0100
0001
,
1000
0010
1000
0001
,
0100
0001
1000
0100
,
1000
1001
0010
0100
,
0001
0000
0100
0000
0010
0000
1000
0100
,
0010
0001
1000
0010
,
0100
0000
0001
0000
0100
0000
0001
1000
,
0001
0101
0010
1000
,
1000
0100
0010
0000
,
0101
0000
1100
0000
,
1001
0000
0000
0000
,
1000
0010
0000
0001
0100
0000
1000
0010
,
0000
0001
0100
0000
0101
0000
0101
0000
,
1000
0100
0000
0100
0010
0000
0010
0100
,
0000
0100
1000
0000
1001
0000
1001
0000
,
1000
0001
0000
0001
0010
0000
0010
0001
,
0000
0001
1000
0000
1010
0000
1010
0000
,
0001
0100
0000
0100
0010
0000
0010
0100
,
0000
0100
0001
0000
0000
0001
1000
0001
,
1000
0000
0100
0010
0100
0000
0010
0001
,
0010
0001
1001
1001
,
0100
0000
0010
1000
0010
0000
0100
0001
,
0100
0000
0001
0010
0011
0000
0011
0000
,
0010
0000
0100
1000
0010
0000
1000
0010
,
0001
0000
0001
0010
0100
0000
0100
0001
,
0010
0000
0000
0000
,
1000
1000
0001
0001
,
0200
1000
0010
0001
,
0010
1000
0010
0301
,
0020
0001
0100
1000
,
0100
0001
0100
1030
,
1000
0200
0001
1000
,
0010
1000
0001
0310
,
0002
0100
0010
1000
,
0010
0100
0010
1003
,
1000
0001
0100
0100
,
0010
0000
1000
0001
0010
0000
0001
0100
,
0010
1000
0001
0010
,
0200
0000
1000
0000
0001
0000
0001
0300
,
1001
0000
0001
0100
0000
0010
0100
0000
,
0101
0000
1000
0100
0010
0000
0001
0010
,
0100
0000
0000
0000
,
1000
0000
1000
0000
,
0001
0100
0001
0010
0000
0001
1000
0010
,
0000
1000
0001
0100
0000
0010
1000
0010
,
0000
0100
0001
0100
0000
0010
0100
0010
,
0000
1000
0001
1000
0000
0010
0100
0010
,
0000
1000
0001
1000
0000
0100
0010
0100
,
0000
0001
1000
0001
0000
0100
0001
0100
,
0000
1000
0001
0010
0000
0001
1000
0010
,
0000
0100
0010
0100
0000
0001
1000
0000
,
0001
0000
0001
0100
0000
0100
0000
0010
,
0000
0100
0001
0000
1000
0001
0000
0100
,
0001
0000
0010
0100
0000
0100
0000
1000
,
0000
1000
0001
0000
0010
0001
0000
1000
,
0001
0000
0100
0010
0000
0010
0000
1000
,
0000
0001
0100
0000
0001
0010
0000
0001
,
0100
0100
0101
0000
,
1000
0000
0001
0100
0000
0000
0000
0000
,
1001
0000
0100
0001
0000
0001
0000
0001
,
1000
0000
0001
0010
0000
0010
0000
0010
,
0001
0000
0001
0100
0000
0100
0000
0100
,
0010
0000
0010
0001
0000
0001
0000
1000
,
0010
0000
0001
0010
0000
0010
0000
1000
,
0001
0000
0010
0001
0000
0001
0000
0100
,
1000
0000
0100
0010
0000
0010
0000
1000
,
0100
0000
0010
0001
0000
0001
0000
1000
,
0010
0000
0100
0001
0000
0001
0000
1000
,
0001
0000
0010
0100
0000
0100
0000
1000
,
0100
0000
0001
0100
0000
0100
0000
1000
,
0001
0000
0100
0010
0000
0010
0000
1000
,
0010
0000
0001
0100
0001
0000
1010
0000
,
0001
0000
0100
0001
0100
0000
1100
0000
,
0001
0010
0100
1000
,
0001
0010
0001
0010
0100
1000
0100
1000
,
0002
1000
1000
1000
,
1000
1000
1000
0003
;

//---------------dance-single - ----------------
#NOTES:
     dance-single:
     :
     Easy:
     5:
     0.406,0.413,0.123,0.188,0.000:
2000
0000
0000
0000
,
0002
0000
3003
0000
,
0100
0000
0001
0010
0000
1000
0000
0001
,
0000
0000
0100
0100
,
2000
0000
0100
0100
,
0001
0000
0000
0010
0000
0001
0000
0000
,
0002
0000
0000
0000
,
3003
0000
0000
0000
,
0200
0000
0001
1000
,
0320
0000
0001
0100
,
2030
0000
0100
0001
,
3020
0000
0001
0100
,
2030
0000
0010
0100
,
3002
0000
0100
0010
,
2000
0000
0000
0000
,
0000
0000
0000
0000
,
0000
0000
0000
0000
,
3003
0000
0000
0000
,
0000
0000
0000
0000
,
1000
1000
0001
0001
,
1000
0000
1000
0000
0010
0000
0010
0010
,
0100
0100
0001
0001
,
0100
0000
0100
0000
0001
0000
0001
0001
,
1000
1000
0100
0100
,
1000
0000
1000
0000
0100
0000
0100
0100
,
0010
0010
0001
0001
,
0010
0000
0010
0000
0001
0000
0001
0001
,
1000
0101
0001
1000
,
0010
0000
0100
0000
0001
0000
1000
1000
,
0100
0010
0001
1000
,
0010
0000
0100
0000
0001
0000
1000
1000
,
0010
0100
0001
1000
,
0100
0000
1000
0000
0100
0000
0001
1000
,
0001
0100
0010
1000
,
0001
0100
0010
0010
,
0100
1001
0001
0100
,
0010
0000
1000
0000
0001
0000
1000
1000
,
0100
0010
0001
1000
,
0100
0000
1000
0000
0001
0000
0010
0010
,
0001
0100
0010
1000
,
0001
0000
0100
0000
1000
0000
0100
0100
,
0001
1000
0001
0100
,
0010
1000
0001
1000
,
0001
0101
1000
0010
,
1000
0000
0001
0000
0100
0000
0010
0010
,
0001
0100
0010
1000
,
0001
0000
0100
0000
0010
0000
0001
0001
,
1000
0001
0100
0010
,
1000
0000
0100
0000
0001
0000
0010
0010
,
1000
0001
0100
0001
,
1000
0000
0000
0000
,
1000
0000
0100
0000
1000
0001
0000
0100
,
0000
0000
0010
0000
1000
0001
0000
0010
,
0000
0000
0001
0000
0100
0010
0000
1000
,
0000
0001
0001
1000
,
1000
0100
0010
0001
,
0001
0010
0100
1000
,
2002
0000
0000
0000
,
3003
0000
0000
0000
,
1000
0001
0100
0100
,
0010
0000
1000
0000
0001
0000
0100
0100
,
0001
0000
1000
0010
0000
0100
0000
0001
,
0000
0000
1000
1000
,
0002
0000
0010
0010
,
0100
1000
0100
0010
,
2000
0000
0000
0000
,
3003
0000
0000
0000
,
0002
0100
1000
0103
,
2000
0100
0001
3100
,
0002
0100
1000
0103
,
2000
0100
0001
3100
,
0010
0000
0100
0001
0000
0001
0000
0000
,
1000
0000
0001
0010
0000
0010
0000
0000
,
0220
0000
0000
0000
,
0330
0000
0000
0000
,
2000
0001
0010
3001
,
0002
0010
1000
0013
,
2000
0010
0001
3010
,
0002
1000
0010
1003
,
0001
0100
0001
1000
,
0010
1000
0100
0001
,
2000
0000
0000
0000
,
0002
0000
0000
0000
0003
3000
0000
0000
,
0001
0100
0010
0100
,
0000
0001
1000
0000
0001
0100
0000
0000
,
0010
1000
0100
0010
,
0000
0010
0001
0000
1000
0001
0000
0000
,
0100
0010
1000
0001
,
0000
0100
0010
0000
0100
0001
0000
1000
,
0001
0010
0100
1000
,
0000
0001
0100
0000
0001
0010
0000
0000
,
0100
1000
0010
1000
,
0000
0001
0100
0000
0100
0001
0000
1000
,
0010
0100
0001
1000
,
0000
0100
1000
0000
0001
0100
0000
0000
,
0010
1000
0001
0010
,
0000
0100
1000
0000
0001
0100
0000
0001
,
1000
1000
0001
0000
,
0100
0000
0001
1000
0000
0000
0000
0000
,
1010
0000
0000
0001
0000
0001
0000
0000
,
1100
0000
0000
0010
0000
0010
0000
0000
,
1001
0000
0000
0010
0000
0010
0000
0000
,
0101
0000
0000
1000
0000
1000
0000
0000
,
0011
0000
0000
0100
0000
0100
0000
0000
,
1001
0000
0000
0010
0000
0010
0000
0000
,
1100
0000
0000
0001
0000
0001
0000
0000
,
0110
0000
0000
1000
0000
1000
0000
0000
,
0011
0000
0000
0100
0000
0100
0000
0000
,
1010
0000
0000
0001
0000
0001
0000
0000
,
0110
0000
0000
0001
0000
0001
0000
0000
,
0110
0000
0000
1000
0000
1000
0000
0000
,
0101
0001
1000
0000
,
0101
0000
1000
0010
1000
0000
0000
0000
,
0001
0000
1000
0100
0000
1000
0000
0000
,
0001
0000
0100
0010
0000
1000
0000
0002
,
2000
0000
0000
0000
,
3003
0000
0000
0000
;

//---------------dance-double - ----------------
#NOTES:
     dance-double:
     :
     Easy:
     6:
     0.407,0.418,0.130,0.104,0.000:
00002000
00000000
00000000
00000000
,
00000200
00000000
00003300
00000000
,
00001000
00000000
00000000
00010000
00000000
00000100
00000000
00100000
,
00000000
00000000
00010000
01000000
,
00200000
00000000
00000000
00000000
,
00020000
00000000
00000000
00000000
00000000
00300000
00000000
00000000
,
00002000
00000000
00000000
00000000
,
00033000
00000000
00001000
00001000
,
00000100
00000000
00000001
00000001
,
00000010
00000000
00001000
00001000
,
00010000
00000000
00100000
00100000
,
01000000
00000000
10000000
10000000
,
00020000
00000000
01000000
01000000
,
00230000
00000000
00000000
00001000
00000000
00000100
00000000
00000000
,
00302000
00000000
00000000
00000000
,
00020000
00000000
00000000
00000000
,
00000000
00000000
00000000
00000000
,
00033000
00000000
00000000
00000000
,
00000000
00000000
00000000
00000000
,
00001000
00001000
00010000
00010000
,
00001000
00000000
00001000
00000000
00010000
00000000
00010000
01000000
,
00100000
00100000
00010000
00010000
,
00100000
00000000
00100000
00000000
00010000
00000000
00010000
10000000
,
01000000
01000000
10000000
10000000
,
01000000
00000000
01000000
00000000
10000000
00000000
10000000
00100000
,
01000000
01000000
00100000
00100000
,
01000000
00000000
01000000
00000000
00010000
00000000
00100000
00001000
,
00010000
00000100
00001000
00000010
,
00001000
00000000
00000100
00000000
00001000
00000000
00000010
00000100
,
00000001
00001000
00000001
00000100
,
00000001
00000000
00001000
00000000
00000001
00000000
00000100
00000010
,
00001000
00000100
00010000
00000100
,
00001000
00000000
00000100
00000000
00010000
00000000
00000100
00001000
,
00000010
00010000
00000010
00001000
,
00000010
00010000
00000010
00010000
,
00001000
00011000
00001000
00100000
,
00010000
00000000
00100000
00000000
00010000
00000000
01000000
00100000
,
01000000
00010000
01000000
00100000
,
01000000
00000000
00010000
00000000
01000000
00000000
00100000
10000000
,
00010000
10000000
01000000
10000000
,
00010000
00000000
10000000
00000000
00100000
00000000
10000000
01000000
,
10000000
10000000
01000000
01000000
,
10000000
10000000
00100000
00100000
,
01000000
00001000
00010000
00000100
,
00001000
00000000
00000010
00000000
00001000
00000000
00000001
00000100
,
00000001
00001000
00000010
00001000
,
00000100
00000000
00010000
00000000
00001000
00000000
00100000
00010000
,
00100000
00010000
01000000
00100000
,
10000000
00000000
00010000
00000000
10000000
00000000
01000000
00100000
,
01000000
00000000
00100000
00000000
00010000
01000000
00010000
00100000
,
00000000
00000000
00000000
00000000
,
00001000
00001000
00010000
00010000
,
01000000
01000000
00100000
00100000
,
00010000
00010000
00001000
00001000
,
00000010
00000010
00000100
00000100
,
00000102
00000000
00001000
00000100
,
00001000
00000000
00000100
00001000
00000000
00000100
00000000
00000000
,
00002000
00000000
00000000
00003003
,
00000000
00000000
00000010
00000010
,
00001000
00000100
00010000
00001000
,
00100000
00000000
00010000
00000000
00100000
00000000
00001000
00010000
,
00001000
00000000
01000000
00010000
00000000
01000000
00000000
00100000
,
00000000
00000000
10000000
10000000
,
00020000
01000000
00100000
01000000
,
10000000
00000000
01000000
00100000
00000000
10000000
00000000
00000000
,
20000000
00000000
00000000
30030000
,
00000000
00001000
00001000
00001000
,
00010000
00000100
00001000
00000010
,
00000001
00000010
00000100
00000100
,
00001000
00010000
00100000
10000000
,
00100000
01000000
00100000
00100000
,
00010000
00001000
00000100
00000010
,
00001000
00000100
00100000
00010000
,
02020000
00000000
00000000
03030000
,
00000000
00001000
00001000
00001000
,
00010000
00000100
00001000
00000100
,
00000010
00000001
00000001
00000100
,
00000010
00001000
00000100
00010000
,
00001000
00100000
01000000
01000000
,
00010000
10000000
01000000
00000000
,
10000000
00010000
01000000
00001000
,
00010000
00000000
00000000
00000000
,
00000000
00000000
00000000
00000000
,
00001000
00010000
00000100
00001000
,
00000000
00001000
00000001
00000000
00001000
00000001
00000000
00001000
,
00000001
00000100
00000010
00010000
,
00000000
00100000
00001000
00000000
00100000
00001000
00000000
00100000
,
00001000
00100000
00010000
01000000
,
00000000
10000000
01000000
00000000
10000000
01000000
00000000
10000000
,
01000000
10000000
00100000
00010000
,
00000000
00100000
00010000
00000000
00100000
00010000
00000000
00100000
,
00001000
01000000
00010000
01000000
,
00000000
00001000
00010000
00000000
00001000
00010000
00000000
00001000
,
00010000
00000100
00001000
00000010
,
00000000
00000100
00000001
00000000
00000100
00000010
00000000
00000100
,
00000010
00001000
00000010
00010000
,
00000000
00000100
00010000
00000000
00000100
00001000
00000000
00000100
,
00010000
00001000
00011000
00000000
,
00100000
00000000
00010000
01000000
00000000
00000000
00000000
00000000
,
10010000
00000000
00000000
01000000
00000000
01000000
00000000
00000000
,
00011000
00000000
00000000
00000010
00000000
00000010
00000000
00000000
,
00000101
00000000
00000000
00001000
00000000
00001000
00000000
00000000
,
00101000
00000000
00000000
00010000
00000000
00010000
00000000
00000000
,
01100000
00000000
00000000
10000000
00000000
10000000
00000000
00000000
,
00110000
00000000
00000000
00001000
00000000
00001000
00000000
00000000
,
00010100
00000000
00000000
00001000
00000000
00001000
00000000
00000000
,
00001010
00000000
00000000
00000001
00000000
00000001
00000000
00000000
,
00000110
00000000
00000000
00001000
00000000
00001000
00000000
00000000
,
00010100
00000000
00000000
00100000
00000000
00100000
00000000
00000000
,
01010000
00000000
00000000
00100000
00000000
00100000
00000000
00000000
,
10010000
00000000
00000000
01000000
00000000
01000000
00000000
00000000
,
00011000
00000000
00011000
00000000
,
00001100
00000000
00001100
00000000
,
00000001
00000100
00001000
00010000
,
01000000
10000000
00100000
00020000
,
00001000
00001000
00001000
00001000
,
00001000
00001000
00001000
00001000
,
00001000
00030000
00000000
00000000
;

//---------------dance-double - ----------------
#NOTES:
     dance-double:
     :
     Hard:
     9:
     0.600,0.647,0.188,0.343,0.010:
20000000
00000000
00000000
00000000
,
00020000
00000000
30030000
00000000
,
00001000
00000000
00010000
00100000
00000000
00010000
00000000
01000000
,
00000000
00000000
10000000
10000000
,
02000000
00000000
00010000
03020000
,
00001000
00000000
00032000
00000100
00000000
00000200
00000000
00003000
,
00000020
00000000
00000000
00000000
,
00000330
00000000
00000001
00000001
,
00002000
00000000
00000000
00000000
00000000
00000000
00000000
00000000
00000200
00000000
00003000
00000000
00000002
00000300
00000200
00000000
,
00000003
00000300
00000000
00000000
00000000
00000000
00000000
00000010
,
00001000
00000000
00010000
00001000
00000000
00000100
00000000
00000010
,
00000000
00000000
00000001
00000002
,
00000020
00000000
00000000
00000003
00001000
00000000
00002000
00000030
,
00003200
00000000
00002300
00020000
00003000
00000200
00030000
00000000
,
00002000
00000000
00000000
00003000
,
00020000
00000000
00000000
00000000
,
00000000
00000000
00000000
00000000
,
00101000
00000000
00000000
00000000
,
00030300
00000000
00000000
00000000
,
00011000
00000000
00011000
00000000
00010000
00100000
00010000
00100000
,
00000000
01000000
00000000
00001000
00000000
00100000
00010000
00100000
,
01000000
00000000
01000000
00000000
10000000
00100000
00010000
00100000
,
00000000
01000000
00000000
00001000
00000000
00010000
00000100
00010000
,
00000010
00000000
00000010
00000000
00000100
00000001
00000100
00000010
,
00000000
00001000
00000000
00000100
00000000
00010000
00001000
00100000
,
01000000
00000000
01000000
00000000
00010000
01000000
00100000
00001000
,
00000000
00000000
00010000
00000000
00000000
00000000
00000010
00000000
00000100
00000000
00000000
00001000
00000000
00000000
00000100
00000000
,
00000001
00000000
00000101
00000000
00001000
00000100
00000010
00000100
,
00000000
00000010
00000000
00000100
00000000
00010000
00001000
00010000
,
00100000
00000000
00010000
00000000
00100000
01000000
00010000
01000000
,
00000000
00010000
00000000
00100000
00000000
00010000
00100000
01000000
,
00100000
00000000
00010000
00000000
00100000
00001000
00010000
00000010
,
00000000
00000100
00000000
00000010
00000000
00000001
00000010
00000001
,
00000010
00000000
00000100
00000000
00000010
00001000
00000100
00010000
,
00000000
00000000
00001000
00000000
00000000
00000000
00100000
00000000
00010000
00000000
00000000
00100000
00000000
00000000
01000000
00000000
,
10000000
00000000
10010000
00000000
20000000
01000000
32000000
00010000
,
03000000
00001000
00000000
00000100
00000000
00010000
00001000
00000100
,
00000010
00000000
00001000
00000000
00000002
00000100
00000203
00001000
,
00000300
00010000
00000000
01000000
00000000
10000000
01000000
00100000
,
00010000
00000000
00011000
00000000
00002000
00100000
00203000
01000000
,
00300000
10000000
00000000
00100000
00000000
00010000
01000000
00100000
,
00010000
00000000
00011000
00000000
00001000
00000100
00000010
00000001
,
00000000
00000000
00000010
00000000
00000000
00000000
00001000
00000000
00000100
00000000
00000000
00000001
00000000
00000000
00000100
00000000
,
00001000
00000000
00012000
00000000
01000000
01003000
00100000
00020000
,
00000000
00100000
00000000
00001000
00030000
00001000
00010000
00000100
,
00010000
00000000
00021000
00000000
00000010
00030010
00000100
00002000
,
00000000
00000100
00000000
00010000
00003000
00010000
00001000
00100000
,
00001000
00000000
00012000
00000000
01000000
01003000
00100000
00020000
,
00000000
00100000
00000000
00001000
00030000
00001000
00010000
00000100
,
00010000
00000000
00010000
00000000
00001000
00000100
00000010
00000001
,
00000000
00000000
00000000
00000000
,
00000001
00000100
00000001
00000100
00001000
00000100
00001000
00100000
,
00001000
00100000
00001000
00100000
00010000
00100000
00010000
00100000
,
01000000
00000000
10000000
00010000
00000000
01000000
00000000
10000000
,
00000000
00000000
01000000
01000000
,
00020000
00000000
10000000
10000000
,
00100000
00000000
00001000
00001000
00000000
01000000
00000000
00000000
,
00200000
00000000
00330000
00000000
,
00000000
00000000
00010000
00000010
,
00001000
00000001
00000100
00000010
00001000
00000000
00000100
00001000
,
00000000
00000010
00000100
00000001
00000100
00010000
00000000
00001000
,
00000100
00000000
00001000
00000010
00000000
00001000
00000000
01000000
,
00000000
00000000
00010000
00010000
,
00002000
00000000
00000100
00000100
,
00000001
00000000
00000010
00000010
00000000
00010000
00000000
00000000
,
00000200
00000000
00003300
00000000
,
00000000
00000001
00000001
00000001
,
00000001
00000100
00000001
00000010
00000001
00001000
00000010
00010000
,
00001000
00100000
00010000
00100000
01000000
00100000
01000000
00100000
,
00010000
10000000
00010000
01000000
00100000
01000000
00001000
00010000
,
00001000
00000100
00000010
00000100
00000001
00000100
00000001
00000100
,
00000001
00000000
00001000
00000100
00000000
00010000
00000000
00000000
,
00011000
00000000
00001000
00100000
00000000
00010000
00000000
00000000
,
02020000
00000000
00000000
03030000
,
00000000
10000000
10000000
10000000
,
10000000
01000000
10000000
00100000
01000000
00010000
01000000
00010000
,
00100000
00001000
00010000
00000010
00000100
00000010
00001000
00000001
,
00000010
00000100
00000010
00000100
00000010
00000001
00000010
00000001
,
00001000
00000010
00000100
00001000
00010000
00000100
00100000
00001000
,
00100000
00000000
00010000
00100000
00000000
00010000
01000000
00000000
,
01010000
00000000
00100000
00000000
10000000
00000000
02000000
00020000
,
00000000
00000000
00030000
03000000
00000000
00000000
M0000000
0M000000
,
00M00000
000M0000
0000M000
00000M00
000000M0
0000000M
00000000
00000000
,
00000001
00000100
00001000
00010000
01000000
10000000
00100000
01000000
,
00010000
10000000
00100000
01000000
00010000
10000000
00200000
00000000
,
10300000
00100000
00010000
00001000
00000010
00000001
00000100
00000010
,
00001000
00000001
00000100
00000010
00001000
00000001
00000200
00000000
,
00000301
00000100
00001000
00010000
00100000
10000000
01000000
00100000
,
00010000
10000000
01000000
00100000
00010000
10000000
02000000
00000000
,
13000000
01000000
00010000
00001000
00000010
00000001
00000010
00000100
,
00001000
00000001
00000010
00000100
00001000
00000001
00000020
00000000
,
00000031
00000100
00001000
00010000
00100000
00010000
00001000
00010000
,
00001000
00100000
01000000
00100000
00001000
00100000
02000000
00000000
,
13000000
01000000
00010000
00001000
00000010
00001000
00000100
00000010
,
00001000
00000010
00010000
00000010
00001000
00000010
00000200
00000000
,
00000301
00000010
00000100
00001000
00010000
00001000
01000000
00001000
,
01000000
00100000
01000000
00010000
01000000
10000000
12000000
00000000
,
23000000
30020000
02000000
03030000
,
00021000
00000000
00001000
00000200
00000000
00030300
00000000
00000000
,
00011000
00000000
00010000
00000100
00000000
00001000
00000000
00001000
,
00001010
00000000
00001000
00000001
00000000
00000100
00000000
00000010
,
00001010
00000000
00010000
00000100
00000000
00010000
00000000
00001000
,
00101000
00000000
00100000
01000000
00000000
00100000
00000000
00010000
,
00110000
00000000
10000000
00100000
00000000
01000000
00000000
00100000
,
10100000
00000000
10000000
01000000
00000000
10000000
00000000
00010000
,
10010000
00000000
00001000
01000000
00000000
00001000
00000000
00010000
,
00011000
00000000
00000010
00001000
00000000
00000010
00000000
00001000
,
00001100
00000000
00000001
00000100
00000000
00001000
00000000
00000100
,
00001001
00000000
00010000
00000100
00000000
00010000
00000000
00001000
,
00101000
00000000
00100000
01000000
00000000
00100000
00000000
00010000
,
10010000
00000000
10000000
00100000
00000000
01000000
00000000
00010000
,
00101000
00000000
00010000
00000100
00010000
00000000
00000000
00000000
,
00001010
00000000
00000001
00000100
00001000
00000000
00000000
00000000
,
00000001
00000100
00000001
00001000
00000100
00010000
00001000
00010000
,
00100000
10000000
01000000
00010000
00001000
00010000
00000010
00000100
,
00000002
00001000
00001000
00001000
,
00001000
00001000
00001000
00001000
,
00001000
00000000
00000003
00000000
;

//---------------dance-double - ----------------
#NOTES:
     dance-double:
     :
     Medium:
     7:
     0.491,0.568,0.188,0.084,0.006:
00000000
00000000
00000000
00000000
,
00000000
00000000
00000000
00000000
,
00100000
00000000
01000000
10000000
00000000
00010000
00000000
01000000
,
00000000
00000000
00001000
00001000
,
00020000
00000000
00000000
00000000
,
00030200
00000000
00000000
00000000
,
00002000
00000000
00000000
00000000
,
00003300
00000000
00000001
00000001
,
00000100
00000000
00000000
00000000
00000000
00000010
00001000
00000000
,
00000100
00000000
00000000
00000000
00000000
00010000
00001000
00000000
,
00100000
00000000
00001000
00010000
00000000
01000000
00000000
00100000
,
00000000
00000000
00010000
00010000
,
02000000
00000000
10000000
10000000
,
00020000
03000000
00000000
00000000
00100000
00000000
00100000
00000000
,
20000000
00000000
00000000
00000000
,
30030000
00000000
00000000
00000000
,
00000000
00000000
00000000
00000000
,
00011000
00000000
00000000
00000000
,
00000000
00000000
00000000
00000000
,
00000100
00000000
00000100
00000000
00001000
00000010
00001000
00000010
,
00000000
00000100
00000000
00000001
00000000
00000001
00000000
00001000
,
00000100
00000000
00000100
00000000
00010000
00001000
00010000
00100000
,
00000000
00100000
00000000
01000000
00000000
01000000
00000000
00010000
,
00100000
00000000
00100000
00000000
00001000
00010000
00000100
00010000
,
00000000
00000010
00000000
00001000
00000000
00000010
00000000
00001000
,
00000100
00000000
00000100
00000000
00000010
00001000
00000100
00010000
,
00000000
00001000
00000000
00001000
00010000
00000000
00000100
00010000
,
00001000
00000000
00011000
00000000
00100000
00010000
00100000
00010000
,
00000000
01000000
00000000
00100000
00000000
01000000
00000000
00010000
,
01000000
00000000
01010000
00000000
00100000
00001000
00100000
00001000
,
00000000
00010000
00000000
00000100
00000000
00001000
00000000
00000010
,
00001000
00000000
00001010
00000000
00000100
00001000
00000100
00000010
,
00000000
00000100
00000000
00000010
00000000
00001000
00000000
00000100
,
00010000
00000000
00010100
00000000
00010000
00001000
00100000
00001000
,
00000000
00000000
00100000
00000000
00000000
00000000
00010000
00000000
01000000
00000000
00000000
00100000
00000000
00000000
01000000
00000000
,
00010000
00000000
01010000
00000000
01000000
01000000
00010000
00010000
,
00000000
00100000
00000000
00001000
00000000
00010000
00000100
00000100
,
00001000
00000000
00000010
00000000
00000100
00000100
00000010
00001000
,
00000000
00000100
00000000
00010000
00000000
00001000
00001000
00100000
,
01000000
00000000
01000000
00000000
00100000
01000000
00010000
01000000
,
00000000
00001000
00000000
00000100
00000000
00000010
00000100
00000010
,
00000100
00000000
00001000
00000000
00000100
00010000
00000100
00100000
,
00000000
00000000
01000000
00000000
00000000
00000000
00010000
00000000
01000000
00000000
00000000
00010000
00000000
00000000
01000000
00000000
,
10000000
00000000
11000000
00000000
10000000
10000000
01000000
01000000
,
00000000
00010000
00000000
00010000
00000000
00001000
00001000
00000100
,
00000100
00000000
00000100
00000000
00000001
00000001
00000100
00000100
,
00000000
00001000
00000000
00001000
00000000
00010000
00010000
01000000
,
01000000
00000000
01000000
00000000
10000000
10000000
00100000
00100000
,
00000000
00010000
00000000
00010000
00000000
00001000
00001000
00000010
,
00000010
00000000
00000001
00000000
00000001
00000100
00001000
00010000
,
00000000
00000000
00000000
00000000
,
00001000
00010000
00000100
00001000
00000010
00000000
00000100
00000000
,
00000001
00001000
00000100
00000100
,
00010000
00001000
00010000
00001000
,
00101000
00101000
00011000
00011000
,
01000000
00100000
01000000
00010000
00100000
00000000
00010000
00000000
,
10000000
10000000
01000000
01000000
,
00010000
00010000
00001000
00001000
,
00100000
00100000
00110000
00110000
,
01000000
00010000
01000000
00010000
00100000
00000000
00001000
00000000
,
00010000
00000000
00000100
00000000
00001000
00000000
00000010
00000100
,
00000010
00000000
00001000
00000100
00000000
00010000
00000000
00001000
,
00000000
00000000
00010000
00010000
,
00200000
00000000
01000000
01000000
,
00010000
00000000
20300000
00010000
00000000
01000000
00000000
00000000
,
00200000
00000000
00000000
00000000
,
30300000
00010000
00010000
00010000
,
00010000
01000000
00010000
00000000
00100000
00010000
00100000
00000000
,
00001000
00010000
00001000
00000000
00000100
00001000
00000100
00000000
,
00000010
00001000
00000010
00000000
00001000
00000100
00001000
00000000
,
00000100
00010000
00000100
00000000
00100000
00000100
00100000
00000000
,
00001000
00000000
00010000
00001000
00000000
00010000
00000100
00000000
,
00001000
00000000
00000010
00000100
00000000
00000010
00001000
00000000
,
00002020
00000000
00003030
00000000
,
00000000
00010000
00010000
00010000
,
00001000
00000100
00001000
00000000
00000100
00000010
00001000
00000000
,
00000010
00001000
00000010
00000000
00010000
00001000
00010000
00000000
,
00000100
00010000
00000100
00000000
00100000
00001000
00100000
00000000
,
00001000
00100000
00010000
00000000
00100000
01000000
00100000
00000000
,
01000000
00000000
10000000
01000000
00000000
10000000
00000000
00000000
,
00010000
01000000
00100000
01000000
,
00020000
00000000
00000000
00000000
,
10000000
00000000
10000000
00000000
00100000
00000000
00100000
00030000
,
01000000
01000000
01000000
01000000
,
01000000
00010000
00100000
00000000
00100000
00001000
00010000
00000000
,
00010000
00010000
00010000
00010000
,
00010000
00000100
00001000
00000000
00001000
00000010
00000100
00000000
,
00000100
00000100
00000100
00000100
,
00000100
00000010
00001000
00000000
00010000
00001000
00100000
00000000
,
00010000
00010000
00010000
00010000
,
01000000
00100000
01000000
00000000
00010000
01000000
00010000
00000000
,
00100000
00010000
01000000
00010000
,
00100000
00001000
00010000
00000000
00000100
00010000
00000010
00000000
,
00001000
00000010
00000100
00000010
,
00001000
00000010
00010000
00000000
00001000
00100000
00001000
00000000
,
00100000
00010000
00100000
00001000
,
00100000
00000010
00010000
00000010
,
00001000
00000010
00000110
00000010
,
00001000
00001000
00010000
00000000
,
00011000
00000000
00010000
00000100
00000000
00010000
00000000
00000000
,
00101000
00000000
00100000
00010000
00000000
00100000
00000000
00000000
,
00011000
00000000
01000000
00100000
00000000
01000000
00000000
00000000
,
01010000
00000000
00100000
00010000
00000000
00100000
00000000
00000000
,
00101000
00000000
00010000
00000100
00000000
00010000
00000000
00000000
,
00001010
00000000
00000010
00001000
00000000
00000010
00000000
00000000
,
00000110
00000000
00000010
00001000
00000000
00000010
00000000
00000000
,
00010010
00000000
00010000
00001000
00000000
00010000
00000000
00000000
,
00101000
00000000
00001000
01000000
00000000
00001000
00000000
00000000
,
00110000
00000000
00100000
00001000
00000000
00010000
00000000
00000000
,
00010100
00000000
00001000
00000010
00000000
00001000
00000000
00000000
,
00010100
00000000
00010000
00001000
00000000
00100000
00000000
00000000
,
01001000
00000000
00010000
01000000
00100000
00000000
00000000
00000000
,
01001000
00000000
00010000
00000100
00001000
00000000
00000000
00000000
,
00000010
00000010
00001000
00001000
,
00000001
00000100
00000001
00001000
00000010
00010000
00001000
00100000
,
00020000
01000000
01000000
01000000
,
01000000
01000000
01000000
01000000
,
00030000
00000000
00000000
00000000
;
