#TITLE:A new feeling (Let It Shine);
#SUBTITLE:;
#ARTIST:Gammer Ft. Cat Knight;
#TITLETRANSLIT:;
#SUBTITLETRANSLIT:;
#ARTISTTRANSLIT:;
#CREDIT:;
#BANNER:A new feeling (Let It Shine)-bn.png;
#BACKGROUND:A new feeling (Let It Shine)-bg.png;
#LYRICSPATH:;
#CDTITLE:SilveR.png;
#MUSIC:A new feeling (Let It Shine).mp3;
#OFFSET:-0.200;
#SAMPLESTART:55.884;
#SAMPLELENGTH:11.320;
#SELECTABLE:YES;
#DISPLAYBPM:172.000;
#BPMS:0.000=172.000;
#STOPS:92.000=0.040
;
#BGCHANGES:;

//---------------dance-single - ----------------
#NOTES:
     dance-single:
     :
     Easy:
     4:
     0.348,0.447,0.203,0.000,0.000:
1000
0000
1000
0000
,
0001
0000
0001
0000
,
0100
0000
0100
0000
,
0010
0000
0010
0000
,
1001
0000
0001
0000
,
1000
0000
1000
0000
,
0010
0000
0010
0000
,
0100
0000
0100
0000
,
0110
0000
1001
0000
,
1000
0000
0001
0000
,
1001
0000
0110
0000
,
0010
0000
0100
0000
,
0110
0000
1001
0000
,
0100
0000
0010
0000
,
1001
0000
0110
0000
,
1000
0000
1000
0000
,
0001
0000
0000
0100
,
0001
0000
0000
1000
0000
0000
0100
0000
,
0010
0000
0000
0000
,
0001
0000
0000
0000
,
0000
0000
0000
0010
,
0100
0000
0000
0001
0000
0000
1000
0000
,
0100
0000
0000
0000
,
0000
0000
0000
0000
,
0001
1000
0001
1000
,
0010
0100
0010
0100
,
0001
0010
0001
0010
,
0100
1000
0100
1000
,
0010
0100
0010
0100
,
0001
1000
0001
1000
,
0001
0010
0001
0010
,
0100
0001
0100
0001
,
0100
1000
0010
1000
,
0010
0100
0010
0100
,
0001
1000
0001
1000
,
0010
0100
0001
1000
,
0100
0010
0001
1000
,
0001
0100
0010
1000
,
0100
0000
0010
0000
,
0100
0000
1000
0000
,
0001
0001
0001
0001
,
1000
0000
0000
0001
0000
0000
1000
0000
,
0010
0010
0010
0010
,
1000
0000
0000
0100
0000
0000
1000
0000
,
0001
0001
0001
0001
,
0010
0000
0000
0001
0000
0000
0010
0000
,
0100
0100
0100
0100
,
1000
0000
0000
0010
0000
0000
1000
0000
,
0001
0100
0010
1000
,
0001
0100
0010
1000
,
0001
0010
0100
1000
,
0001
0010
0100
1000
,
0001
0001
0100
0100
,
0001
1000
0001
1000
,
0010
0010
1000
1000
,
0100
0000
0000
0000
,
0110
1001
0110
1001
,
0001
0100
0010
1000
,
0001
0010
0001
0010
,
0100
1000
0100
1000
,
0011
1100
0011
1100
,
0010
0100
0010
1000
,
0001
0100
0001
0100
,
0010
1000
0010
1000
,
0110
0101
1001
1100
,
0001
0010
0100
1000
,
0001
0100
0010
0100
,
0001
1000
0001
1000
,
1100
0101
1100
1001
,
0010
0001
0100
0010
,
1000
0100
0010
0100
,
1000
0001
1000
0010
,
0100
0001
0001
1000
,
0010
0100
0100
0001
,
1000
0100
0100
0010
,
0001
1000
1000
0100
,
0010
0001
0001
1000
,
0001
0100
0100
0010
,
0100
0001
0001
1000
,
0100
0010
0010
0100
,
1000
0001
1000
0000
,
0010
0100
0001
0100
,
0010
1000
0100
0010
,
0001
1000
0001
0100
,
0010
0010
0100
0100
,
0001
1000
0001
1000
,
0100
0100
0010
0010
,
0001
0000
0000
0000
,
1001
0000
0000
0000
;

//---------------dance-single - ----------------
#NOTES:
     dance-single:
     :
     Medium:
     5:
     0.414,0.516,0.328,0.109,0.000: // measure 1
1100
0000
1001
0000
,  // measure 2
0011
0000
1001
0000
,  // measure 3
0110
0000
0101
0000
,  // measure 4
0110
0000
1010
0000
,  // measure 5
0011
0000
0001
0000
,  // measure 6
1000
0000
1000
0000
,  // measure 7
0010
0000
0010
0000
,  // measure 8
0100
0000
0100
0000
,  // measure 9
0101
0000
0001
0000
,  // measure 10
0010
0000
0010
0000
,  // measure 11
0001
0000
0001
0000
,  // measure 12
0100
0000
0100
0000
,  // measure 13
0110
0000
0010
0000
,  // measure 14
1000
0000
1000
0000
,  // measure 15
0100
0000
0100
0000
,  // measure 16
0001
0000
0000
0000
,  // measure 17
1001
0000
0000
1000
,  // measure 18
0001
0000
0000
0010
0000
0000
0100
0000
,  // measure 19
2000
0000
0000
0000
,  // measure 20
0001
0000
0000
0000
,  // measure 21
0010
0000
0000
3001
,  // measure 22
0100
0000
0000
0010
0000
0000
0100
0000
,  // measure 23
0002
0000
0000
0000
,  // measure 24
0003
0000
0000
0000
,  // measure 25
0110
0100
0001
1000
,  // measure 26
0100
0000
0010
0001
0000
1000
0000
0010
,  // measure 27
0000
0100
0100
0001
,  // measure 28
1000
0000
0100
0010
0000
0100
0000
1000
,  // measure 29
0000
0000
0001
0000
0010
0000
0100
0010
,  // measure 30
0001
0000
1000
0001
0000
0000
0000
0100
,  // measure 31
0010
0000
0100
0000
0001
0000
1000
0100
,  // measure 32
0010
0000
1000
0010
0000
0000
0100
0000
,  // measure 33
1000
0000
0001
0010
0001
0000
0000
0010
,  // measure 34
0100
0000
0001
0100
0000
1000
0000
0000
,  // measure 35
0000
0000
0010
0000
0100
0001
1000
0010
,  // measure 36
0000
0100
0000
0001
0000
1000
0000
0000
,  // measure 37
0000
0100
0010
0000
,  // measure 38
0000
0000
0001
0000
1000
0010
0000
0100
,  // measure 39
0000
1001
0000
0000
,  // measure 40
0000
0000
0000
0000
,  // measure 41
0101
0001
0001
0001
,  // measure 42
2000
0100
0000
0001
0000
0100
0000
3001
,  // measure 43
0010
0000
0010
0000
0010
0000
0010
0100
,  // measure 44
0001
0100
0000
1000
0000
1000
0000
1000
,  // measure 45
0020
0000
0001
0000
1000
0000
0001
0030
,  // measure 46
0100
0001
0000
0001
0000
0001
0000
0001
,  // measure 47
0010
0100
0010
0100
,  // measure 48
2000
0010
0000
0010
0000
0010
0000
3010
,  // measure 49
0100
0001
1000
0100
,  // measure 50
0010
0000
0000
0001
0000
1000
0000
0010
,  // measure 51
0100
0000
0001
0000
1000
0000
0010
0100
,  // measure 52
0010
0100
0000
0001
0000
0001
0000
0000
,  // measure 53
1000
0100
0010
0011
,  // measure 54
0100
1000
0010
0110
,  // measure 55
1000
0100
0010
0001
1000
0010
0100
0001
,  // measure 56
0000
0000
0000
0000
,  // measure 57
1001
0101
1001
1100
,  // measure 58
1000
0002
0000
0010
0000
0010
0000
0013
,  // measure 59
0100
0000
1100
0000
0101
0000
1000
0010
,  // measure 60
0200
0001
0000
0001
0000
0010
0000
0310
,  // measure 61
1000
1010
1100
1010
,  // measure 62
0200
0001
0000
0010
0000
0001
0000
0310
,  // measure 63
1000
1100
0110
1100
,  // measure 64
0020
0001
0000
0100
0000
0100
0000
0031
,  // measure 65
1000
1010
1100
0001
,  // measure 66
0100
0020
0000
0001
0000
1000
0000
0130
,  // measure 67
0001
0000
1001
0000
0101
0000
0010
0100
,  // measure 68
1000
0002
0000
0010
0000
0100
0000
0013
,  // measure 69
0100
1100
0101
1100
,  // measure 70
0001
0020
0000
0100
0000
0001
0000
0130
,  // measure 71
1000
1010
0011
1010
,  // measure 72
0200
0001
0000
0010
0000
0001
0300
1000
,  // measure 73
0001
0000
1000
0100
0010
0000
0001
0000
,  // measure 74
0010
0100
1000
0010
,  // measure 75
0100
0001
1000
0100
,  // measure 76
0010
0001
1000
0010
,  // measure 77
0100
0000
0001
0000
1000
0000
0100
1000
,  // measure 78
0001
0000
0010
0000
0100
0000
1000
0100
,  // measure 79
0010
0000
0001
0010
0100
0000
1000
0010
,  // measure 80
0100
0000
0001
1000
0000
0000
0001
0000
,  // measure 81
1001
0000
0100
0010
1000
0000
0000
0001
,  // measure 82
0010
0000
1000
0001
0000
0100
0000
0000
,  // measure 83
0010
0000
1000
0000
0100
0010
1000
0100
,  // measure 84
0000
0010
0000
1000
0000
0001
0000
0000
,  // measure 85
0110
1000
0001
0000
,  // measure 86
0100
0000
0001
0000
1000
0100
0000
1000
,  // measure 87
0000
0001
0000
0010
,  // measure 88
2000
0000
0000
0000
0000
0000
0001
3001
,  // measure 89
0110
0000
0000
0000
;

//---------------dance-single - ----------------
#NOTES:
     dance-single:
     :
     Hard:
     7:
     0.597,0.695,0.570,0.594,0.000:
1100
0000
0011
0000
,
1001
0000
0101
0000
,
1010
0000
1001
0000
,
1100
0000
0011
0000
,
1001
0000
0110
0000
,
0101
0000
1010
0000
,
1100
0000
0110
0000
,
1001
0000
0110
0000
,
0101
0001
0011
0100
,
1100
0010
1010
0010
,
0110
1000
1001
0010
,
0110
0100
1001
0100
,
1010
0001
0110
1000
,
0101
0100
0110
1000
,
1001
0010
1100
0100
,
0011
0000
1001
0000
,
0110
0000
0100
0001
1000
0000
0100
0010
,
0001
0000
1000
0010
0100
0000
0001
1000
,
0001
0000
0010
0100
1000
0000
0001
0010
,
0100
0000
0001
0100
1000
0000
0010
0100
,
0010
0000
1000
0001
0010
0000
0100
1000
,
0001
0000
0010
0100
1000
0000
0020
0000
,
0200
0000
0000
0000
,
0330
0000
0000
0000
,
1001
1000
0100
0010
,
0001
0000
1000
0100
0000
0010
0000
0001
,
0000
1000
0010
0100
,
0001
0000
0100
0010
0000
1000
0000
0001
,
0000
0000
0100
0000
0010
0100
0001
1000
,
0100
0000
0010
0001
0000
0000
0000
1000
,
0001
0001
0100
0010
1000
1000
0001
0010
,
0100
0000
1000
0001
0000
0000
0100
0000
,
0010
0000
0100
0001
0011
0000
0000
1000
,
0001
0000
0010
0001
0000
0100
0000
0000
,
0000
0000
0010
0000
1000
0100
0010
1000
,
0000
0100
0000
0001
0000
0010
0000
0000
,
0000
1000
1001
0000
,
0000
0000
0100
0000
0001
1000
0000
0100
,
0000
0010
0000
0000
,
0100
0000
0000
0000
,
1002
0000
0100
0000
1000
0000
0100
0003
,
1000
0001
0000
0001
0000
0100
0000
0010
,
2001
0000
0100
0000
0010
3000
0100
0010
,
0001
0100
0000
0010
0000
0010
0000
1000
,
1002
0100
0010
0103
,
1000
0010
0000
0010
0000
0100
0000
0010
,
2010
0100
0001
3100
,
0010
0001
0000
0001
0000
1000
0000
0010
,
0120
0230
0001
0310
,
0010
2000
0000
0001
0000
3001
0000
0001
,
0012
0000
0100
0000
0013
0000
1000
0100
,
0010
0001
0000
0001
0000
0010
0000
0100
,
0201
1000
0010
0301
,
0100
0010
0000
0001
0000
0001
0000
0100
,
0021
0100
1000
0031
,
0220
0000
0000
0000
0330
0000
1000
1000
,
0101
0011
0101
0011
,
1000
0100
0000
0010
0000
0001
0000
1000
,
0010
0000
0110
0000
1001
0000
0100
0010
,
0001
1000
0000
0010
0000
0100
0000
0001
,
0011
0101
0011
0101
,
1000
0010
0000
0010
0000
0001
0000
0100
,
1100
0110
1100
0110
,
1000
0100
0000
0100
0000
0010
0000
0001
,
0110
1000
0110
0001
,
1000
0001
0000
0001
0000
0010
0000
0100
,
0110
0000
1001
0000
0110
0000
1000
0100
,
0010
0001
0000
0010
0000
0010
0000
0010
,
1010
1100
0101
0011
,
0010
0001
0000
0001
0000
0100
0000
0010
,
0110
1001
1100
1100
,
0010
1000
0000
1000
0000
0001
0000
0100
,
0010
0000
0100
0002
2000
0003
3100
0020
,
0002
0030
1003
0020
0200
0030
0301
2000
,
0200
3000
0310
0002
2000
0003
3010
0200
,
0002
0300
1003
0200
0020
0300
0031
0200
,
0020
0300
0130
0002
2000
0003
3100
0002
,
0020
0003
0130
0002
2000
0003
3010
2000
,
0200
3000
0310
0200
2000
0300
3010
0200
,
2000
0300
3100
0020
2000
0030
3001
0020
,
0200
0030
0301
2000
0020
3000
0031
0200
,
0020
0300
0031
0020
2000
0030
3100
0020
,
0002
0030
1003
0200
0002
0300
0103
2000
,
0020
3000
0130
0020
0002
0030
0013
2000
,
0002
3000
0013
2000
0002
3000
0103
0020
,
0002
0030
0103
2000
0200
3000
0301
0200
,
2000
0300
3010
0002
0200
0003
0310
2000
,
0200
3000
0310
0000
0000
0000
0001
0001
,
2002
0000
0000
0000
,
3003
0000
0000
0000
;
