#TITLE:10% GOLD;
#SUBTITLE:;
#ARTIST:Euphoria Feat. Kristy;
#TITLETRANSLIT:;
#SUBTITLETRANSLIT:;
#ARTISTTRANSLIT:;
#GENRE:;
#CREDIT:;
#MENUCOLOR:;
#METERTYPE:DDR;
#BANNER:10% Gold-bn.png;
#BACKGROUND:10% Gold-bg.png;
#LYRICSPATH:;
#CDTITLE:SilveR.png;
#MUSIC:10% Gold.mp3;
#OFFSET:-0.240;
#SAMPLESTART:82.620;
#SAMPLELENGTH:11.420;
#SELECTABLE:YES;
#LISTSORT:;
#BPMS:0.000=168.900;
#STOPS:;
#BGCHANGES:31.000=Fire3.avi=0.800=1=0=1,
63.000=Cube7.avi=0.900=1=0=1,
95.000=Light7.avi=0.900=1=0=1,
119.000=10% Gold-bg.png=1.000=1=0=1,
135.000=Snow4.avi=0.700=1=0=1,
167.000=Snow5.avi=0.700=1=0=1,
199.000=Ribbon2.avi=0.900=1=0=1,
232.000=Light7.avi=0.900=0=0=1,
296.000=Fireworks1.avi=0.900=0=0=1,
328.000=10% Gold-bg.png=1.000=0=0=1,
99999=-nosongbg-=1.000=0=0=0 // don't automatically add -songbackground-
;
#ATTACKS:;

//---------------dance-single - ----------------
#NOTES:
     dance-single:
     :
     Hard:
     8:
     0.591,0.587,0.235,0.059,0.130: // measure 1
0000
0000
0000
0000
,  // measure 2
0000
0000
0000
0000
,  // measure 3
0000
0000
0000
0000
,  // measure 4
0000
0000
0000
0000
,  // measure 5
0101
0000
1000
0010
0000
0100
0000
0000
,  // measure 6
0001
0001
0101
0000
,  // measure 7
1010
0101
1100
0011
,  // measure 8
1010
0000
0000
0000
0102
0000
0000
0000
0000
L000
0000
0000
0003
0000
0000
0000
,  // measure 9
0001
0010
0100
1000
0010
0001
0010
1000
,  // measure 10
0010
0100
0010
0100
0001
0100
0001
0010
,  // measure 11
0001
0010
1000
0010
0001
0100
0001
1000
,  // measure 12
0100
0010
0001
0100
0001
0010
0001
1000
,  // measure 13
0010
0001
0010
0001
0010
1000
0010
1000
,  // measure 14
0010
0001
0010
0001
0010
0100
0010
0100
,  // measure 15
0010
0001
0010
1000
0100
0010
0001
0100
,  // measure 16
0010
1000
0001
0010
0002
0000
0000
0000
,  // measure 17
1003
0010
0000
0010
0000
0010
1000
0001
,  // measure 18
0100
1000
0000
1000
0000
1000
0100
0010
,  // measure 19
0100
0010
0000
0010
0000
1000
0001
0010
,  // measure 20
0001
0010
0000
0010
0000
0010
0100
1000
,  // measure 21
0101
1000
0000
1000
0000
1000
0001
0100
,  // measure 22
0001
0010
0000
0010
0000
0010
1000
0010
,  // measure 23
0100
1000
0000
1000
0000
0010
0001
0010
,  // measure 24
0100
1000
0000
0100
0000
0001
0000
1000
,  // measure 25
0011
1000
0000
0010
0000
0001
0010
0100
,  // measure 26
1001
0100
0000
0001
0000
0010
0100
1000
,  // measure 27
0101
0010
0000
0001
0000
1000
0010
0100
,  // measure 28
0101
1000
0000
0100
0000
0010
0001
1000
,  // measure 29
0110
0001
1010
0001
,  // measure 30
0110
1100
2002
3003
,  // measure 31
0440
0000
0000
0000
,  // measure 32
0000
0000
0000
0000
,  // measure 33
0000
0000
0000
0000
,  // measure 34
0000
0000
0000
0330
,  // measure 35
0000
0000
0000
0001
1000
0100
0010
0001
,  // measure 36
0000
0000
0000
0100
0001
1000
0010
0001
,  // measure 37
0000
0000
0000
0100
1000
0010
0001
1000
,  // measure 38
0000
0010
0000
0100
0000
0001
0000
0010
,  // measure 39
0000
0000
0000
1000
0010
1000
0010
0100
,  // measure 40
0000
0000
0000
0100
1000
0001
0100
0010
,  // measure 41
0000
0000
0000
0010
0001
0010
1000
0010
,  // measure 42
0000
0100
0000
0001
0000
0010
0000
0010
,  // measure 43
0000
0000
0000
0010
0100
1000
0001
0100
,  // measure 44
0000
0000
0000
0010
1000
0001
0010
0100
,  // measure 45
1000
0000
0001
1000
0000
0001
0100
0000
,  // measure 46
0001
0010
0000
0100
1000
0000
0101
0000
,  // measure 47
1001
0000
0010
0001
0000
0010
0100
0000
,  // measure 48
1100
0000
0010
1000
0000
0010
0100
0000
,  // measure 49
0101
0000
1000
0100
0000
0100
0001
0000
,  // measure 50
0001
0010
0000
0010
1000
0000
1000
0000
,  // measure 51
0001
0100
0001
1000
0100
0010
0001
1000
,  // measure 52
0010
0001
0010
1000
0100
0010
0001
0100
,  // measure 53
0001
1000
0100
0010
0001
1000
0010
0100
,  // measure 54
0001
1000
0100
0010
0001
1000
0010
0100
,  // measure 55
0001
0010
0100
1000
0001
0100
0001
1000
,  // measure 56
0100
0010
0001
1000
0010
1000
0001
0100
,  // measure 57
0010
1000
0001
0010
0100
1000
0001
0100
,  // measure 58
1000
0100
0001
0100
0001
0010
0001
0010
,  // measure 59
0100
0010
0001
1000
0010
0100
0001
1000
,  // measure 60
0010
0100
0001
1000
0100
0010
0001
1000
,  // measure 61
0010
0001
0010
0100
0010
1000
0001
0010
,  // measure 62
1000
0010
0001
0100
0001
0010
0001
1000
,  // measure 63
0010
0100
0010
1000
0100
0010
0100
1000
,  // measure 64
0010
0100
0001
0010
0001
0100
0010
0100
,  // measure 65
0001
1000
0100
0010
0001
1000
0010
0100
,  // measure 66
0010
0001
0010
1000
0100
0010
0001
0100
,  // measure 67
0001
0000
0000
1000
0000
0000
0010
0000
0100
0000
0000
0001
0000
0000
1000
0000
,  // measure 68
0100
0000
0000
0010
0000
0000
0001
0000
1000
0000
0000
0010
0000
0000
0100
0000
,  // measure 69
0001
0000
0000
0001
0000
0000
1000
0000
0001
0000
0000
0010
0000
0000
0001
0000
,  // measure 70
1000
0000
0000
0001
0000
0000
0100
0000
1000
0000
0000
1000
0000
0000
0101
0000
,  // measure 71
1000
0000
0000
0010
0000
0000
1000
0000
0001
0000
0000
0010
0000
0000
0100
0000
,  // measure 72
0010
0000
0000
0001
0000
0000
1000
0000
0001
0000
0000
0100
0000
0000
0010
0000
,  // measure 73
1000
0000
0000
0100
0000
0000
0010
0000
0100
0000
0000
1000
0000
0000
0010
0000
,  // measure 74
0100
0000
0000
1000
0000
0000
0100
0000
0001
0000
0000
0001
0000
0000
1000
0000
,  // measure 75
0001
0000
0000
0100
0000
0000
0010
0000
1000
0000
0000
0001
0000
0000
0010
0000
,  // measure 76
0110
0000
0000
0001
0000
0000
1000
0000
0010
0000
0000
0100
0000
0000
0001
0000
,  // measure 77
0010
0000
0000
0001
0000
0000
1000
0000
0001
0000
0000
0010
0000
0000
0001
0000
,  // measure 78
0100
0000
0000
0001
0000
0000
1000
0000
0010
0000
0000
0100
0000
0000
0010
0000
,  // measure 79
1010
0000
0000
1000
0000
0000
0001
0000
0010
0000
0000
0001
0000
0000
0100
0000
,  // measure 80
0101
0000
0000
1000
0000
0000
0100
0000
0010
0000
0000
0001
0000
0000
0100
0000
,  // measure 81
0100
0000
0000
0001
0000
0000
0010
0000
0010
0000
0000
1000
0000
0000
0010
0000
,  // measure 82
1000
1000
0100
0100
0010
0010
0010
0010
,  // measure 83
0012
0000
0003
0000
;

//---------------dance-single - ----------------
#NOTES:
     dance-single:
     :
     Medium:
     6:
     0.455,0.518,0.101,0.025,0.000:
0000
0000
0000
0000
,
0000
0000
0000
0000
,
0000
0000
0000
0000
,
0000
0000
0000
0000
,
1000
0100
0001
0000
,
1000
1000
1100
0000
,
0001
0010
0100
1000
,
0001
0010
0100
0000
,
1000
0001
0100
0010
,
1000
0001
0010
1000
,
0100
0010
1000
0100
,
0010
1000
0010
0100
,
1000
0001
0100
0010
,
0001
0010
0100
0001
,
0010
0100
0001
0100
,
0010
1000
0010
0000
,
0001
0100
0000
0010
0000
1000
0000
0001
,
0100
0010
0000
0100
0000
0001
0000
1000
,
0100
0010
0000
0001
0000
1000
0000
0001
,
0010
0100
0000
1000
0000
0001
0000
0100
,
1000
0100
0000
0001
0000
0010
0000
1000
,
0010
0001
0000
0100
0000
0010
0000
1000
,
0100
1000
0000
0010
0000
0100
0000
0001
,
0010
1000
0000
0010
0000
0100
0000
1000
,
0001
0100
0000
0010
0000
0100
0001
0100
,
0001
1000
0000
0100
0000
0010
0001
0010
,
0001
1000
0000
0010
0000
0100
0001
0100
,
0001
1000
0000
0010
0000
0100
0001
0010
,
0100
1000
0101
1000
,
0011
1000
2002
0000
,
3003
0000
0000
0000
,
0000
0000
0000
0000
,
0000
0000
0000
0000
,
0000
0000
0000
0000
,
0100
0000
0000
0001
0100
0010
1000
0001
,
0000
0000
0000
1000
0100
0010
0001
1000
,
0000
0000
0000
1000
0010
0100
0001
1000
,
0000
0100
0000
0010
0000
0001
0000
0001
,
0000
0000
0000
0001
0100
0001
1000
1000
,
0000
0000
0000
0010
1000
0100
0010
0010
,
0000
0000
0000
0001
0100
0001
1000
0010
,
0000
0100
0000
0001
0000
1000
0000
0010
,
0000
0000
0100
0001
0000
0010
0001
0000
,
1000
0000
0100
0010
0000
0001
0100
0000
,
0010
0000
0100
0001
0000
0001
0100
0000
,
0100
0001
0000
0001
0100
0000
0101
0000
,
1001
0000
1000
0100
0000
0100
1000
0000
,
1100
0000
1000
0010
0000
0010
1000
0000
,
1010
0000
1000
0001
0000
0001
0010
0000
,
0010
0001
0000
0001
1000
0000
1000
0000
,
0001
0100
0010
1000
,
0001
0010
0100
1000
,
0001
0100
0010
1000
,
0100
0010
0001
1000
,
0010
0000
0100
0001
0100
0000
0010
1000
,
0001
0000
0010
0100
1000
0000
0001
0100
,
0001
0000
0010
0100
1000
0000
0001
0010
,
0100
0000
1000
0001
0010
0000
0001
0010
,
1000
0000
0010
0100
1000
0000
0010
0100
,
0001
0000
1000
0100
0010
0000
0001
0100
,
0010
0000
1000
0001
1000
0000
0010
0100
,
0010
0000
1000
0100
1000
0000
0010
0100
,
0001
0000
0100
0010
1000
0000
0001
0010
,
0100
0000
1000
0001
0100
0000
0001
0001
,
1000
0000
0001
0100
1000
0000
0001
0001
,
0100
0000
0010
1000
0001
0000
0010
0000
,
0100
0000
1100
0000
0001
0000
0010
0001
,
1000
0000
0010
0000
0100
0000
0001
1000
,
0010
0000
0101
0000
0010
0000
0001
1000
,
0010
0000
1000
0000
0100
0000
0010
0100
,
1000
0000
1100
0000
0010
0000
1000
0001
,
0010
0000
0001
0000
0100
0000
0001
0010
,
1000
0000
1010
0000
0100
0000
0001
1000
,
0010
0000
0100
0001
1000
0000
0100
0010
,
0001
0100
0010
0100
,
0001
1000
0100
0010
,
0001
0100
0010
0100
,
0001
0010
1000
0100
,
0001
0000
1000
0010
0100
0000
0001
0010
,
0100
0000
1000
0100
1000
0000
0001
0100
,
0001
0000
1000
0010
0100
0000
0001
1000
,
0001
0100
0010
1000
0100
0010
0001
0100
,
0002
0000
0000
1000
0003
0000
0000
0000
;

//---------------dance-single - ----------------
#NOTES:
     dance-single:
     :
     Easy:
     3:
     0.186,0.277,0.101,0.017,0.000:
0000
0000
0000
0000
,
0000
0000
0000
0000
,
0000
0000
0000
0000
,
0000
0000
0000
0000
,
1000
0000
0000
0000
,
0001
0000
0000
0000
,
0110
0000
0000
0000
,
1001
0000
0000
0000
,
1000
0000
0001
0000
,
1000
0000
0001
0000
,
0100
0000
0001
0000
,
0100
0000
1000
0000
,
0010
0000
1000
0000
,
0010
0000
1000
0000
,
0001
0100
0001
0100
,
0001
0100
0001
0000
,
1000
0000
0000
0000
,
0001
0000
0000
0000
,
0010
0000
0000
0000
,
0100
0000
0000
0000
,
1001
0000
0000
0000
,
1000
0000
0000
0000
,
0001
0000
0000
0000
,
0010
0000
0000
0000
,
0110
0000
0000
0000
,
1001
0000
0000
0000
,
0011
0000
0000
0000
,
0101
0000
0000
0000
,
1000
0001
1000
0001
,
1000
0001
1000
0000
,
0100
0000
0000
0000
,
0000
0000
0000
0000
,
0000
0000
0000
0000
,
0000
0000
0000
0000
,
1000
0000
0010
0000
,
0000
0000
0100
0000
,
0000
0000
0000
0000
0001
0000
0000
1000
,
0000
0100
0000
1000
0000
0001
0000
0010
,
0000
0000
0100
0000
,
0000
0000
0001
0000
,
0000
0000
0000
0000
1000
0000
0000
0010
,
0000
0100
0000
0010
0000
0100
0000
0001
,
0000
0000
1000
0000
,
0000
0000
0001
0000
,
0000
0000
0000
0100
0000
0010
0000
1000
,
0000
0001
0000
0010
0000
0100
0000
1000
,
0000
0000
0001
0000
,
0000
0000
0000
0100
0000
0000
0000
0000
,
0000
0000
0000
0010
0000
0000
0000
1000
,
0000
0001
0000
0100
0000
0010
0000
0000
,
1000
0000
0001
0000
,
0010
0000
0100
0000
,
1000
0000
0001
0000
,
1000
0000
0100
0000
,
0001
0000
1000
0000
,
0010
0000
0001
0000
,
0100
0000
0010
0000
,
0100
0000
1000
0000
,
0010
0000
0110
0000
,
1000
0000
0001
0000
,
0010
0000
0010
0000
,
0100
0000
0001
0000
,
1000
0000
0001
0000
,
0010
0000
0110
0000
,
1000
0000
1000
0000
,
0001
0000
0100
0000
,
0001
0000
0001
0000
,
1000
0000
1000
0000
,
0010
0000
0100
0000
,
0001
0000
1000
0000
,
0100
0000
0010
0000
,
1000
0000
0100
0000
,
0001
0000
0001
0000
,
0010
0000
1000
0000
,
0001
0000
0010
0000
,
0001
0000
1001
0000
,
0010
0000
0010
0000
,
1000
0000
0100
0000
,
0010
0000
1000
0000
,
0001
0000
0101
0000
,
0010
0000
0010
0000
,
1000
0000
0001
0000
,
2002
0000
0000
3003
;

//---------------dance-double - ----------------
#NOTES:
     dance-double:
     :
     Easy:
     3:
     0.202,0.277,0.126,0.017,0.000:
00000000
00000000
00000000
00000000
,
00000000
00000000
00000000
00000000
,
00000000
00000000
00000000
00000000
,
00000000
00000000
00000000
00000000
,
01000000
00000000
00000000
00000000
,
00010000
00000000
00000000
00000000
,
00001000
00000000
00000000
00000000
,
00000010
00000000
00000000
00000000
,
00000100
00000000
00000001
00000000
,
00001000
00000000
00000010
00000000
,
00010000
00000000
00001000
00000000
,
00100000
00000000
00010000
00000000
,
10000000
00000000
01000000
00000000
,
00100000
00000000
00001000
00000000
,
00001000
00000000
00000011
00000000
,
00000001
00000000
00001000
00000000
,
00000101
00000000
00000000
00000000
,
00011000
00000000
00000000
00000000
,
01010000
00000000
00000000
00000000
,
10100000
00000000
00000000
00000000
,
01100000
00000000
00000000
00000000
,
00010100
00000000
00000000
00000000
,
00001010
00000000
00000000
00000000
,
00001001
00000000
00000000
00000000
,
00000001
00000000
00001000
00000000
,
00000100
00000000
00010000
00000000
,
00001000
00000000
00000010
00000000
,
00010000
00000000
00100000
00000000
,
01000000
00010000
01000000
00010000
,
10000000
01000000
10000000
00000000
,
00001000
00000000
00000000
00000000
,
00000000
00000000
00000000
00000000
,
00000000
00000000
00000000
00000000
,
00000000
00000000
00000000
00000000
,
00001000
00000000
00010000
00000000
,
00000010
00000000
00001000
00000000
,
00000001
00000000
00000100
00000000
,
00001000
00000000
00001000
00000000
,
00010000
00000000
00100000
00000000
,
01000000
00000000
00010000
00000000
,
10000000
00000000
01000000
00000000
,
00100000
00000000
00100000
00000000
,
00010000
00000000
00000100
00000000
,
00001000
00000000
00000010
00000000
,
00000001
00000000
00000000
00000100
00000000
00000000
00001000
00000000
,
00000000
00010000
00000000
00000000
00100000
00000000
10000000
00000000
,
00010000
00000000
00000000
00100000
00000000
00000000
01000000
00000000
,
00010000
00000000
00000000
00001000
00000000
00000000
00000100
00000000
,
00000010
00000000
00000000
00001000
00000000
00000000
00000001
00000000
,
00000000
00000010
00000000
00000000
00000100
00000000
00001000
00000000
,
00000001
00000000
00000100
00000000
,
00010000
00000000
01000000
00000000
,
10000000
00000000
00100000
00000000
,
00001000
00000000
00000010
00000000
,
00000100
00000000
00001000
00000000
,
00010000
00000000
01000000
00000000
,
00100000
00000000
00001000
00000000
,
00010000
00000000
00000010
00000000
,
00000110
00000000
00001001
00000000
,
00000100
00000000
00000100
00000000
,
00010000
00001000
00010000
00000000
,
00010000
00100000
00010000
00000000
,
01000000
00000000
10000000
00000000
,
01100000
00000000
01001000
00000000
,
00010000
00000010
00010000
00000000
,
00001000
00000100
00001000
00000100
,
00001000
00000000
00000001
00000000
,
00000100
00000000
00010000
00000000
,
00100000
00000000
01000000
00000000
,
00010000
00000000
00100000
00000000
,
10000000
00000000
01000000
00000000
,
00001000
00000000
00000100
00000000
,
00000001
00000000
00001000
00000000
,
00000010
00000000
00000001
00000000
,
00001000
00000000
00000100
00000000
,
00010000
00000000
01000000
00000000
,
00100000
00000000
01000000
00000000
,
00100000
00000000
01000000
00000000
,
00010000
00000000
00000010
00000000
,
00000001
00000000
00000101
00000000
,
00001000
00000000
00010000
00000000
,
00000100
00000000
00100000
00000000
,
00022000
00000000
00000000
00033000
;

//---------------dance-double - ----------------
#NOTES:
     dance-double:
     :
     Medium:
     7:
     0.466,0.515,0.084,0.008,0.260:
00000000
00000000
00000000
00000000
,
00000000
00000000
00000000
00000000
,
00000000
00000000
00000000
00000000
,
00000000
00000000
00000000
00000000
,
00001000
00010000
00000010
00000000
,
00001000
00001000
00001001
00000000
,
00000100
00001000
00010000
01000000
,
00010000
00001000
00000100
00000000
,
00000001
00001000
00000010
00000100
,
00001000
00010000
00100000
01000000
,
00010000
00100000
00001000
00010000
,
00000010
00001000
00001000
00100000
,
00010000
01000000
00100000
00010000
,
00001000
00000100
00000010
00001000
,
00000100
00000010
00001000
00010000
,
00100000
01000000
00010000
00000000
,
00100000
00010000
00000000
01000000
00000000
00001000
00010000
00000100
,
00001000
00000010
00000000
00000100
00000000
00000010
00001000
00000100
,
00010000
00001000
00000000
00100000
00000000
00010000
01000000
00100000
,
01000000
00001000
00000000
00010000
00000000
00000010
00000100
00000000
,
00000010
00001000
00000000
00000100
00000000
00010000
00000000
00001000
,
00100000
00001000
00000000
01000000
00000000
00010000
00000000
00100000
,
00001000
00010000
00000000
00000010
00000000
00001000
00000000
00000100
,
00001000
00000010
00000000
00010000
00000000
00001000
00000000
00000000
,
00010010
00000000
00001000
00000000
00100000
00000000
00001000
00100000
,
00000010
00010000
00000000
00001000
00000000
00010000
00000010
00100000
,
00001000
00100000
00000000
00001000
00000000
00100000
00000010
00010000
,
00000010
00001000
00000000
00000010
00000000
00001000
00000000
00000000
,
00001100
00000000
00011000
00000000
,
00110000
01100000
11000000
00000000
,
00020000
00000000
00000000
00000000
,
00000000
00030000
00000000
00000000
00000000
00000000
00000000
00000000
00000000
00000000
00000000
00000000
00000000
00000000
00000000
00000000
,
00000000
00000000
00000000
00000000
,
00010000
00010000
00000000
00000000
,
00001000
00000000
00000000
00000100
00000010
00000000
00000000
00001000
,
00000000
00000000
00000000
00001000
00010000
00000000
00000000
00100000
,
00000000
00000000
00000000
01000000
00010000
00000000
00100000
00010000
,
00000000
00001000
00000000
00010000
00000000
00000100
00000000
00001000
,
00000000
00000000
00000000
00000010
00000100
00000000
00001000
00000100
,
00000000
00000000
00000000
00010000
00001000
00000000
00100000
01000000
,
00000000
00000000
00000000
00010000
00001000
00000000
00100000
00010000
,
00000000
01000000
00000000
10000000
00000000
00100000
00000000
00010000
,
00000000
00000000
00000000
01000000
00100000
00000000
01000000
00001000
,
00000000
00000000
00000000
00010000
00000100
00000000
00001000
00000000
,
00000010
00000000
00000100
00000001
00000000
00000100
00000010
00000000
,
00001000
00000100
00000000
00010000
00001000
00000000
00001000
00000000
,
00101000
00000000
00100000
00010000
00000000
00100000
01000000
00000000
,
11000000
00000000
10000000
00100000
00000000
01000000
00100000
00000000
,
01010000
00000000
00001000
00010000
00000000
00000100
00001000
00000000
,
00000010
00000100
00000000
00000001
00001000
00000000
00000100
00000000
,
00001000
00000000
00000000
00000010
00000000
00000000
00000100
00000000
00001000
00000000
00000000
00010000
00000000
00000000
00100000
00000000
,
01000000
00000000
00000000
00001000
00000000
00000000
00010000
00000000
00000100
00000000
00000000
00001000
00000000
00000000
00000001
00000000
,
00000100
00000000
00000000
00001000
00000000
00000000
00010000
00000000
00100000
00000000
00000000
10000000
00000000
00000000
00010000
00000000
,
00100000
00000000
00000000
01000000
00000000
00000000
00010000
00000000
00001000
00000000
00000000
00000100
00000000
00000000
00000010
00000000
,
00001000
00000000
00000000
00000100
00000000
00000000
00010000
00000000
00001000
00000000
00000000
00100000
00000000
00000000
01000000
00000000
,
00100000
00000000
00000000
00010000
00000000
00000000
00001000
00000000
00000010
00000000
00000000
00000100
00000000
00000000
00001000
00000000
,
00010000
00000000
00000000
01000000
00000000
00000000
00100000
00000000
00010000
00000000
00000000
00001000
00000000
00000000
00000010
00000000
,
00000100
00000000
00000000
00001000
00000000
00000000
00010000
00000000
00000100
00000000
00000000
00001000
00000000
00000000
00000001
00000000
,
00000100
00000000
00000000
00001000
00000000
00000000
00010000
00000000
00001000
00000000
00000000
00100000
00000000
00000000
00010000
00000000
,
01000000
00000000
00000000
00100000
00000000
00000000
01000000
00000000
00010000
00000000
00000000
10000000
00000000
00000000
01000000
00000000
,
00100000
00000000
00000000
00001000
00000000
00000000
00010000
00000000
00000010
00000000
00000000
00001000
00000000
00000000
00000001
00000000
,
00000100
00000000
00000000
00000010
00000000
00000000
00001000
00000000
00000100
00000000
00000000
00010000
00000000
00000000
00001000
00000000
,
00100000
00000000
00000000
00001000
00000000
00000000
10000000
00000000
00001000
00000000
00000000
01000000
00000000
00000000
00001000
00000000
,
00010000
00000000
00000000
00000010
00000000
00000000
00010000
00000000
00000001
00000000
00000000
00010000
00000000
00000000
00000100
00000000
,
00010000
00000000
00000000
00001000
00000000
00000000
00001000
00000000
00010000
00000000
00000000
00001000
00000000
00000000
00001000
00000000
,
00100000
00000000
00000000
00010000
00000000
00000000
01000000
00000000
00100000
00000000
00000000
01000000
00000000
00000000
00010000
00000000
,
10000000
00000000
00000000
01000000
00000000
00000000
00100000
00000000
00001000
00000000
00000000
00010000
00000000
00000000
00000010
00000000
,
00001000
00000000
00000000
00000100
00000000
00000000
00001000
00000000
00000010
00000000
00000000
00000100
00000000
00000000
00000001
00000000
,
00001000
00000000
00000000
00000100
00000000
00000000
00010000
00000000
00001000
00000000
00000000
00100000
00000000
00000000
00001000
00000000
,
00010000
00000000
00000000
00000010
00000000
00000000
00001000
00000000
00000100
00000000
00000000
00010000
00000000
00000000
00001000
00000000
,
00100000
00000000
00000000
01000000
00000000
00000000
00010000
00000000
00001000
00000000
00000000
00010000
00000000
00000000
00100000
00000000
,
01000000
00000000
00000000
00001000
00000000
00000000
01000000
00000000
00000100
00000000
00000000
01000000
00000000
00000000
00000010
00000000
,
01000000
00000000
00000000
00001000
00000000
00000000
01000000
00000000
00100000
00000000
00000000
01000000
00000000
00000000
00001000
00000000
,
00010000
00000000
00000000
00000100
00000000
00000000
00001000
00000000
00000100
00000000
00000000
00000100
00000000
00000000
00000100
00000000
,
00001000
00000000
00000000
00000100
00000000
00000000
00000010
00000000
00000100
00000000
00000000
00001000
00000000
00000000
00000100
00000000
,
00010000
00000000
00000000
00000100
00000000
00000000
00100000
00000000
00000100
00000000
00000000
00010000
00000000
00000000
00000100
00000000
,
00001000
00000000
00000000
00000010
00000000
00000000
00000100
00000000
00000001
00000000
00000000
00001000
00000000
00000000
00000010
00000000
,
00001000
00000000
00000000
00000001
00000000
00000000
00001000
00000000
00000100
00000000
00000000
00001000
00000000
00000000
00000001
00000000
,
00000100
00000000
00000000
00001000
00000000
00000000
00010000
00000000
00100000
00000000
00000000
00010000
00000000
00000000
00001000
00000000
,
00100000
00000000
00000000
00010000
00000000
00000000
10000000
00000000
01000000
00000000
00000000
00010000
00000000
00000000
00001000
00000000
,
00000100
00000000
00000000
00000001
00000000
00000000
00001000
00000000
00000100
00000000
00000000
00000010
00000000
00000000
00000001
00000000
,
00000100
00001000
00010000
01000000
10000000
00001000
00010000
00000100
,
00001000
00000000
00000000
00000000
;

//---------------dance-double - ----------------
#NOTES:
     dance-double:
     :
     Hard:
     9:
     0.607,0.588,0.000,0.017,0.042:
00000000
00000000
00000000
00000000
,
00000000
00000000
00000000
00000000
,
00000010
00001000
00000100
00000000
00010000
00000000
00001000
00100000
00010000
00000000
01000000
00000000
00000000
00000000
00000000
00000000
,
00000000
00000000
00000000
00000000
,
01000000
00000000
01000000
00001000
00000000
00010000
00000000
00000000
,
00000010
00000010
00000010
00000000
,
00001000
00000100
00000010
00001000
,
00010000
00010000
00001000
00000000
,
00001000
00010000
00000100
00010000
00000001
00010000
00001000
00010000
,
00000010
00100000
00001000
10000000
00001000
01000000
00001000
00010000
,
00000100
00010000
00000001
00010000
00001000
00010000
00000010
00010000
,
00001000
00010000
00000100
00010000
00000001
00010000
00001000
00010000
,
00000100
10000000
00001000
01000000
00001000
00010000
00001000
00100000
,
00001000
00010000
00001000
01000000
00001000
00100000
00001000
00010000
,
00001000
00100000
00001000
01000000
00001000
00010000
00001000
00100000
,
00001000
00010000
00000100
00010000
00000010
00000000
00000000
00000000
,
00001000
00000001
00000000
00000001
00000000
00000001
00001000
00000100
,
00010000
00000010
00000000
00000010
00000000
00000010
00010000
00001000
,
00100000
00001000
00000000
00001000
00000000
00001000
01000000
00001000
,
10000000
00001000
00000000
00001000
00000000
00001000
00100000
00001000
,
00001000
00010000
00001000
00000000
00000000
00000000
00000100
00000000
00000000
00000000
00010000
00000000
00001000
00000000
00010000
00000000
,
00000010
00010000
00001000
00000000
00000000
00000000
00010000
00000000
00000000
00000000
00000001
00000000
00010000
00000000
00000100
00000000
,
00010000
00001000
01000000
00000000
00000000
00000000
00001000
00000000
00000000
00000000
00100000
00000000
00001000
00000000
00010000
00000000
,
00001000
00010000
00000100
00000000
00000000
00000000
00010000
00000000
00000000
00000000
00000001
00000000
00000000
00000000
00001000
00000000
,
00000010
00000100
00001000
00000000
00000000
00000000
00000001
00000000
00000000
00000000
00000100
00000000
00000010
00000000
00001000
00000000
,
00000100
00010000
00001000
00000000
00000000
00000000
00100000
00000000
00000000
00000000
00001000
00000000
00100000
00000000
00010000
00000000
,
01000000
00100000
10000000
00000000
00000000
00000000
00010000
00000000
00000000
00000000
10000000
00000000
01000000
00000000
00100000
00000000
,
00001000
00010000
00000100
00000000
00000000
00000000
00001000
00000000
00000000
00000000
00000010
00000000
00000100
00000000
00000000
00000000
,
00000001
00000100
00001000
00010000
,
00010000
01000000
00010000
00000000
,
00004000
00000000
00000000
00000000
,
00000000
00000000
00000000
00000000
,
00000000
00000000
00000000
00000000
,
00000000
00000000
00003000
00000000
,
00000001
00000000
00000000
00000100
00000001
00001000
00000100
00010000
,
00000000
00000000
00000000
00100000
00010000
10000000
00100000
00010000
,
00000000
00000000
00000000
00001000
00000100
00000001
00001000
00000010
,
00000000
00010000
00000000
00100000
00000000
10000000
00000000
01000000
,
00000000
00000000
00000000
10000000
01000000
00001000
00000010
00000100
,
00000000
00000000
00000000
00000001
00000100
00010000
00100000
01000000
,
10000000
00000000
00010000
01000000
00000000
00001000
00010000
00000000
,
00000100
00001000
00000000
00000010
00000100
00000000
00000001
00000000
,
00000001
00000000
00001000
00000100
00000000
00100000
00010000
00000000
,
00100000
00000000
10000000
01000000
00000000
00001000
00000100
00000000
,
00000010
00000000
00000001
00000010
00000000
00010000
00100000
00000000
,
10000000
01000000
00000000
00001000
00000100
00000000
00000010
00000000
,
00000001
00000000
00000100
00001000
00000000
00100000
01000000
00000000
,
00010000
00000000
00100000
00010000
00000000
00000001
00000100
00000000
,
00000001
00000000
00001000
00000100
00000000
00000010
00001000
00000000
,
00100000
00010000
00000000
01000000
00010000
00000000
00001000
00000000
,
00000100
00001000
00010000
01000000
00100000
00001000
00000010
00000100
,
00001000
00000100
00010000
00000010
00000100
00001000
00100000
01000000
,
00100000
00001000
00010000
00000100
00010000
00000010
00001000
00000100
,
00000001
00000100
00001000
00000010
00000100
00001000
00000100
00000010
,
00000100
00001000
00010000
00001000
00100000
01000000
00100000
00010000
,
00100000
00001000
00010000
00000100
00010000
01000000
10000000
00100000
,
00010000
00100000
00010000
00100000
00010000
00100000
00001000
00100000
,
00010000
00100000
01000000
00100000
10000000
01000000
00100000
00001000
,
00010000
00000100
00001000
00000100
00000001
00000100
00001000
00000010
,
00000100
00000001
00001000
00000100
00010000
01000000
10000000
00010000
,
01000000
00001000
00010000
00000100
00000001
00000100
00001000
00000100
,
00001000
00000010
00000001
00000010
00010000
00001000
00100000
00001000
,
00100000
01000000
00100000
10000000
00100000
00010000
00100000
00001000
,
00010000
00000010
00000100
00000010
00001000
00000001
00010000
00000100
,
00010000
00001000
00100000
01000000
10000000
00010000
01000000
00001000
,
00010000
00000100
00001000
00000001
00000100
00001000
00010000
01000000
,
10000000
00000000
00001000
00010000
00000100
00001000
00000001
00000100
,
00000010
00010000
00001000
00100000
10000000
00100000
00001000
00010000
,
00000100
00001000
00000100
00000001
00000100
00001000
00000100
00010000
,
00001000
00100000
10000000
00100000
00001000
00010000
00000010
00000001
,
00000010
00010000
00001000
00100000
01000000
10000000
00010000
01000000
,
00001000
00000100
00000001
00000100
00000001
00001000
00000100
00100000
,
01000000
10000000
00100000
01000000
00010000
00001000
00000010
00000100
,
00000001
00001000
00000100
00000010
00000100
00100000
00010000
00001000
,
00000100
00010000
00000010
00000100
00000001
00000010
00000100
00001000
,
00000100
00001000
00000010
00000100
00010000
01000000
00100000
00010000
,
00100000
01000000
00010000
10000000
00100000
00010000
00000100
00000010
,
00001000
00000100
00000010
00001000
00010000
01000000
00100000
00010000
,
00001000
00000100
00000010
00001000
00010000
01000000
00010000
10000000
,
00100000
01000000
00001000
00010000
00000100
00000010
00000001
00010000
,
00000100
00010000
00100000
10000000
00010000
10000000
01000000
00010000
,
00001000
00000100
00000001
00001000
00000010
00001000
00010000
00100000
,
20000000
00000000
00000000
00000000
00000000
30000000
00000000
00000000
;
