#VERSION:0.83;
#TITLE:MAKE IT FUNKY NOW;
#SUBTITLE:;
#ARTIST:DOT96;
#TITLETRANSLIT:;
#SUBTITLETRANSLIT:;
#ARTISTTRANSLIT:;
#GENRE:;
#CREDIT:;
#MUSIC:MAKE IT FUNKY NOW.ogg;
#BANNER:MAKE IT FUNKY NOW-banner.png;
#BACKGROUND:MAKE IT FUNKY NOW-background.png;
#JACKET:MAKE IT FUNKY NOW-jacket.png;
#DISCIMAGE:;
#CDIMAGE:;
#SELECTABLE:YES;
#LYRICSPATH:;
#CDTITLE:scr-cdtitle.png;
#SAMPLESTART:26.301;
#SAMPLELENGTH:13.151;
#BPMS:0.000=146.000;
#STOPS:;
#WARPS:;
#DELAYS:;
#SPEEDS:;
#SCROLLS:;
#TICKCOUNTS:;
#TIMESIGNATURES:;
#LABELS:;
#COMBOS:;
#FAKES:;
#BGCHANGES:;
#FGCHANGES:;
#ATTACKS:;

//---------------dance-single - XO---------------
#NOTEDATA:;
#CHARTNAME:cup of coffee;
#CHARTSTYLE:;
#CREDIT:Scrypts;
#STEPSTYPE:dance-single;
#DESCRIPTION:XO;
#DIFFICULTY:Hard;
#METER:13;
#METERF:13;
#RADARVALUES:0,0,0,0,0;
#NOTES:
// measure 0
0000
0000
0000
0000
,  // measure 1
0000
0000
0000
0000
,  // measure 2
0000
0000
0000
0000
,  // measure 3
0000
0000
0000
0000
,  // measure 4
1001
0000
0000
0000
1000
0000
0010
0100
0000
0100
0001
0000
1000
0000
0100
0010
,  // measure 5
0001
0000
0010
0000
0100
0000
1000
0010
0000
0010
0100
0000
0001
0000
1000
0100
,  // measure 6
1000
0000
0001
0000
0100
0000
0001
0010
0001
0000
1000
0000
0010
0000
0100
0001
,  // measure 7
0100
0110
0101
1001
,  // measure 8
1000
0000
1000
0100
0000
0000
0010
0000
0001
0000
0001
0100
0000
0000
0010
0000
,  // measure 9
1000
0000
1000
0100
0000
0000
0010
0000
0001
0000
0000
0000
1000
0000
0001
0000
,  // measure 10
1000
0000
1000
0010
0000
0000
0100
0000
0001
0000
0001
0010
0000
0000
0100
0000
,  // measure 11
1000
0000
1000
0010
0000
0000
0100
0000
0001
0000
0000
0001
1000
0000
0010
0000
,  // measure 12
1000
0000
1000
0100
0000
0000
0010
0000
0001
0000
0001
0100
0000
0000
0010
0000
,  // measure 13
1000
0000
1000
0100
0000
0000
0010
0000
0001
0000
0000
0000
1000
0000
0001
0000
,  // measure 14
1000
0000
1000
0010
0000
0000
0100
0000
0001
0000
0001
0010
0000
0000
0100
1000
,  // measure 15
0002
0000
0000
0203
0000
0000
0320
0000
1030
0001
1000
0001
1000
0000
0000
0000
,  // measure 16
0001
0010
0100
1000
0001
0100
1000
0100
,  // measure 17
0001
0000
0010
0000
1000
0000
0010
0000
0001
1000
0001
1000
0001
0000
0100
0000
,  // measure 18
0010
1000
0010
0100
0001
1000
0100
0001
,  // measure 19
0100
1000
0010
0100
0010
1000
0002
0000
,  // measure 20
1003
0010
0100
0001
1000
0100
0001
0100
,  // measure 21
1000
0000
0010
0000
0001
0000
0010
0000
1000
0001
1000
0001
1000
0000
0100
0000
,  // measure 22
0010
0001
0010
0100
1000
0001
0100
1000
,  // measure 23
0100
0001
0010
0100
0010
0001
2000
0000
,  // measure 24
3002
0000
1003
0010
0100
0001
1000
0010
,  // measure 25
0100
0001
1000
0010
0100
0001
1000
0010
,  // measure 26
2000
0000
3001
0010
0100
1000
0001
0010
,  // measure 27
0100
1000
0001
0010
0100
1000
0001
0010
,  // measure 28
0002
0000
1003
0010
0100
0001
1000
0100
,  // measure 29
0010
0001
1000
0010
0100
0001
1000
0100
,  // measure 30
1000
0000
1000
0000
0001
0000
0001
0000
1000
0010
1000
0000
0001
0100
0001
0100
,  // measure 31
0002
0000
1003
0100
0010
0001
0100
0000
,  // measure 32
0001
0000
0000
0000
1000
0000
0001
0100
0001
0000
0010
0000
0100
0000
1000
0000
,  // measure 33
0010
0000
0000
0000
1000
0000
0001
0010
0001
0000
1000
0000
0010
0000
0100
0000
,  // measure 34
0001
0000
0000
0000
1000
0000
0001
0100
0001
0000
1000
0000
0100
0000
0010
0000
,  // measure 35
0001
0000
0000
0000
1000
0000
0000
0001
0100
0001
0000
1000
0200
0000
0000
0000
,  // measure 36
0310
0000
0000
0000
0001
0000
1000
0010
1000
0010
1000
0000
0001
0000
1000
0100
,  // measure 37
1000
0000
0010
0000
0100
0000
0001
0010
0001
0010
0001
0000
1000
0000
0001
0100
,  // measure 38
0001
0000
0010
0000
0100
0000
1000
0001
1000
0000
0010
0000
0100
0000
0001
1000
,  // measure 39
0001
0010
0100
1000
,  // measure 40
0001
0000
0001
1000
0000
0000
0010
0000
0100
0000
0010
0000
1000
0000
0100
0000
,  // measure 41
0000
0000
0010
0001
0010
0000
0001
0000
0000
1000
0000
1000
0010
0000
0100
0000
,  // measure 42
0001
0000
0001
1000
0000
0000
0100
0000
0010
0000
0100
0000
1000
0000
0010
0000
,  // measure 43
0000
0000
0100
0001
0100
0000
0001
0000
0000
0010
0000
0010
0100
0000
0100
0000
,  // measure 44
1000
0000
1000
0001
0000
0000
0100
0000
0010
0000
0100
0000
0001
0000
0010
0000
,  // measure 45
0000
0000
0100
1000
0100
0000
1000
0000
0000
0001
0000
0001
0100
0000
0010
0000
,  // measure 46
1000
0000
1000
0001
0000
0000
0010
0000
0100
0000
0010
0000
0001
0000
0100
0000
,  // measure 47
0000
0000
0010
1000
0010
0000
1000
0000
0000
0100
0000
0100
0020
0000
0030
0000
,  // measure 48
0002
0000
0003
0000
0002
0000
0003
0000
1000
0100
1000
0100
2000
0000
0000
0000
,  // measure 49
3002
0000
0103
1000
0100
0001
0010
0100
,  // measure 50
2000
0000
3020
0000
0100
0000
1030
1000
,  // measure 51
0001
0000
0010
0000
0100
0000
1000
0000
0001
0100
0001
0100
0001
0000
0000
0000
,  // measure 52
1001
0000
0000
0000
1000
0000
1000
0010
0000
0010
0100
0000
0100
0001
0000
0001
,  // measure 53
2000
0000
0000
0000
0100
0000
0000
0000
3001
0100
0001
0000
1000
0100
1000
0000
,  // measure 54
0011
0000
1100
0000
1010
0000
0101
0001
,  // measure 55
1000
0000
0010
0000
0100
0000
0001
0000
1000
0100
1000
0100
1000
0000
0010
0000
,  // measure 56
1000
0100
0010
0001
1000
0010
0001
0010
,  // measure 57
1000
0000
0100
0000
0001
0000
0100
0000
1000
0100
1000
0001
1000
0000
0010
0000
,  // measure 58
0100
0001
0100
0010
1000
0001
0010
1000
,  // measure 59
0010
0001
0100
0010
0100
0001
2000
0000
,  // measure 60
3001
0100
0010
1000
0001
0010
1000
0010
,  // measure 61
0001
0000
0100
0000
1000
0000
0100
0000
0001
0100
0001
1000
0001
0000
0010
0000
,  // measure 62
0100
1000
0100
0010
0001
1000
0010
0001
,  // measure 63
0010
1000
0100
0010
0100
1000
0020
0000
,  // measure 64
0230
0000
0301
0100
0010
1000
0001
0100
,  // measure 65
0010
1000
0001
0100
0010
1000
0001
0100
,  // measure 66
0002
0000
1003
0100
0010
0001
1000
0100
,  // measure 67
0010
0001
1000
0100
0010
0001
1000
0100
,  // measure 68
2000
0000
3001
0100
0010
1000
0001
0010
,  // measure 69
0100
1000
0001
0100
0010
1000
0001
0010
,  // measure 70
0001
0000
0001
0000
1000
0000
1000
0000
0001
0100
0001
0000
1000
0010
1000
0001
,  // measure 71
2000
0000
3001
0010
0100
1000
0020
0000
,  // measure 72
0030
0000
0000
0000
;

//---------------dance-single - DS, XO----------------
#NOTEDATA:;
#CHARTNAME:aw yea;
#CHARTSTYLE:;
#CREDIT:Scrypts;
#STEPSTYPE:dance-single;
#DESCRIPTION:DS, XO-;
#DIFFICULTY:Challenge;
#METER:16;
#METERF:16;
#RADARVALUES:0,0,0,0,0;
#NOTES:
// measure 0
0000
0000
0000
0000
,  // measure 1
0000
0000
0000
0000
,  // measure 2
0000
0000
0000
0000
,  // measure 3
0000
0000
0000
0000
,  // measure 4
1001
0000
0000
0000
1000
0000
0010
0100
0001
0100
0010
0000
1000
0000
0100
0010
,  // measure 5
0002
0000
0010
0000
2003
0000
3010
0100
0001
0100
0010
0000
1000
0100
0010
0001
,  // measure 6
2000
0000
0010
0000
3002
0000
0013
0100
2000
0000
3010
0100
0001
1000
0100
1000
,  // measure 7
0001
1100
0110
1001
,  // measure 8
0001
0000
2000
0010
0000
3001
0010
0100
1000
0000
0002
0010
0000
1003
0010
0100
,  // measure 9
0001
0000
2000
0010
0000
3001
0010
0100
1000
0000
0000
0100
0010
0000
0001
0000
,  // measure 10
1000
0000
0002
0010
0000
1003
0010
0100
0001
0000
2000
0010
0000
3001
0010
0100
,  // measure 11
1000
0000
0002
0010
0000
1003
0010
0100
0001
0000
0000
0100
0010
0000
0010
0000
,  // measure 12
1000
0000
0002
0010
0000
0103
0010
1000
0001
0000
2000
0010
0000
3100
0010
0001
,  // measure 13
1000
0000
0002
0010
0000
0103
0010
1000
0001
0000
0000
0010
0100
0000
1000
0000
,  // measure 14
0001
0000
2000
0100
0000
3010
0100
0001
1000
0000
0002
0100
0000
0013
0100
1000
,  // measure 15
0001
0000
0100
0010
0000
1000
0100
0000
0010
0001
1000
0001
0200
0000
0000
0000
,  // measure 16
0310
0000
1000
0001
0100
0001
1000
0001
0010
0100
0000
0100
1000
0000
1000
0000
,  // measure 17
0010
0000
0100
0000
0001
0000
0001
0000
1000
0100
1000
0001
0020
0000
0100
0000
,  // measure 18
0031
0000
1000
0010
0000
1000
0100
1000
0001
0000
0100
0000
0010
0000
1000
0001
,  // measure 19
0010
0000
0001
0000
0100
0000
0010
1000
0100
0000
0010
0001
2000
0000
0000
0000
,  // measure 20
3010
0000
1000
0001
0010
0001
1000
0001
0100
0010
0000
0010
1000
0000
1000
0000
,  // measure 21
0100
0000
0010
0000
0001
0000
0001
0000
1000
0010
1000
0001
0200
0000
0010
0000
,  // measure 22
0301
0000
1000
0100
0000
1000
0010
1000
0001
0000
0010
0000
0100
0000
1000
0000
,  // measure 23
0001
0000
0100
0000
0010
0000
1000
0100
0010
0000
0001
0100
0002
0000
0000
0000
,  // measure 24
2003
0000
0000
0000
3100
0000
0010
0001
0100
0000
0010
1000
0100
0000
0010
0001
,  // measure 25
0100
0000
0010
1000
0100
0000
0010
0001
0100
0000
0010
1000
0100
0000
0010
0001
,  // measure 26
2000
3000
0102
0013
2100
3010
0102
0013
,  // measure 27
2100
3010
0102
0013
2100
3010
0102
0010
,  // measure 28
2003
0000
0000
0000
3010
0000
1000
0001
0010
0000
0100
1000
0010
0000
0100
0001
,  // measure 29
0010
0000
0001
1000
0010
0000
0100
0001
0010
0000
0100
1000
0010
0000
1000
0001
,  // measure 30
0010
0000
0010
0000
0100
0000
0100
0000
1000
0001
1000
0001
0100
0010
0100
0010
,  // measure 31
2000
0000
3001
0010
0100
0010
0001
0000
,  // measure 32
2000
0000
0000
0000
3010
0000
0100
0001
1000
0100
0010
0001
0010
0100
1000
0001
,  // measure 33
2000
0000
0000
0000
3002
0000
1003
0010
0100
0001
0100
0010
1000
0001
1000
0100
,  // measure 34
0010
0000
0000
0000
0002
0000
1003
0001
1000
0100
0010
0001
0010
0100
1000
0001
,  // measure 35
0100
0000
0000
0000
0100
0000
0000
0010
0100
0001
0000
0000
0020
0000
0130
1000
,  // measure 36
0001
0000
0000
0000
1000
0000
0001
1000
0001
0100
0010
1000
0010
0100
0001
1000
,  // measure 37
0200
0000
0310
0000
0001
0000
1000
0001
1000
0100
0010
0001
0010
0100
1000
0001
,  // measure 38
0100
0000
0010
0000
0100
0000
0001
1000
0010
0100
0001
0100
0010
1000
0100
0010
,  // measure 39
0001
0101
1010
0110
,  // measure 40
1001
0000
1000
0001
1000
0000
0200
0000
0010
0000
2300
0000
0010
0000
3001
0000
,  // measure 41
1000
0000
0001
0100
0001
0000
1000
0000
0001
0100
0000
0010
2000
0000
0100
0000
,  // measure 42
3001
0000
0001
1000
0001
0000
0200
0000
0010
0000
0302
0000
0010
0000
1003
0000
,  // measure 43
0001
0000
1000
0100
1000
0000
0001
0000
1000
0010
0000
0100
0001
0000
0001
0000
,  // measure 44
1001
0000
1000
0100
1000
0000
0020
0000
0100
0000
2030
0000
0100
0000
3001
0000
,  // measure 45
1000
0000
0001
0100
0001
0000
1000
0000
0001
0010
0000
0100
1000
0000
1000
0000
,  // measure 46
1001
0000
0001
0100
0001
0000
0020
0000
0100
0000
0032
0000
0100
0000
1003
0000
,  // measure 47
0000
0000
0001
0100
0001
0000
0010
0000
0000
0100
0000
0100
1000
0000
0000
0000
,  // measure 48
0002
0000
0010
0000
2003
0000
0010
0000
3001
1000
0100
1000
0002
0000
0103
0010
,  // measure 49
2000
0000
3100
1000
0001
1000
0010
0000
0100
0001
0010
0000
0001
0100
0001
1000
,  // measure 50
0200
0000
0000
0000
0302
0000
0103
0010
0002
0000
0000
0000
0013
0000
0010
0000
,  // measure 51
0001
0000
0100
0000
0010
0000
1000
0000
0001
0010
0100
1000
0010
0000
0000
0000
,  // measure 52
1002
0000
0000
0000
1003
0000
0010
0100
0000
1000
0100
0000
0010
0100
0000
0001
,  // measure 53
2000
0000
0000
0000
3200
0000
0000
0310
0001
1000
0010
0000
0100
0001
1000
0000
,  // measure 54
2010
3100
1002
0003
0012
0103
2001
3200
,  // measure 55
0320
0000
0032
0000
0013
0000
0100
1000
0001
0100
0010
0100
0002
0000
0010
0000
,  // measure 56
1003
0000
0001
1000
0010
1000
0001
1000
0100
0010
0000
0010
0001
0000
0001
0000
,  // measure 57
0100
0000
0010
0000
1000
0000
1000
0000
0001
0100
0001
1000
0200
0000
0010
0000
,  // measure 58
1300
0000
0001
0100
0000
0001
0010
0001
1000
0000
0010
0000
0100
0000
0001
1000
,  // measure 59
0100
0000
1000
0000
0010
0000
0100
0001
0010
0000
0100
1000
0002
0000
0000
0000
,  // measure 60
0103
0000
0001
1000
0100
1000
0001
1000
0010
0100
0000
0100
0001
0000
0001
0000
,  // measure 61
0010
0000
0100
0000
1000
0000
1000
0000
0001
0010
0001
1000
0020
0000
0100
0000
,  // measure 62
1030
0000
0001
0010
0000
0001
0100
0001
1000
0000
0100
0000
0010
0000
0001
0000
,  // measure 63
1000
0000
0010
0000
0100
0000
0001
0010
0100
0000
1000
0010
2000
0000
0000
0000
,  // measure 64
3002
0000
0000
0000
0013
0000
0100
1000
0010
0000
0100
0001
0010
0000
0100
1000
,  // measure 65
0010
0000
0100
0001
0010
0000
0100
1000
0010
0000
0100
0001
0010
0000
0100
1000
,  // measure 66
0002
0003
2010
3100
0012
0103
2010
3100
,  // measure 67
0012
0103
2010
3100
0012
0103
2010
0100
,  // measure 68
3002
0000
0000
0000
0103
0000
0001
1000
0100
0000
0010
0001
0100
0000
0010
1000
,  // measure 69
0100
0000
1000
0001
0100
0000
0010
1000
0100
0000
0010
0001
0100
0000
0001
1000
,  // measure 70
0100
0000
0100
0000
0010
0000
0010
0000
0001
1000
0001
1000
0010
0100
0010
0100
,  // measure 71
0002
0000
1003
0100
0010
0001
0200
0000
,  // measure 72
0300
0000
0000
0000
;
10
0000
0001
0100
0001
1000
0000
0100
0000
0010
0000
0001
0000
,  // measure 63
1000
0000
0010
0000
0100
0000
0001
0010
0100
0000
1000
0010
2000
0000
0000
0000
,  // measure 64
3002
0000
0000
0000
0013
0000
0100
1000
0010
0000
0100
0001
0010
0000
0100
1000
,  // measure 65
0010
0000
0100
0001
0010
0000
0100
1000
0010
0000
0100
0001
0010
0000
0100
1000
,  // measure 66
0002
0003
2010
3100
0012
0103
2010
3100
,  // measure 67
0012
0103
2010
3100
0012
0103
2010
0100
,  // measure 68
3002
0000
0000
0000
0103
0000
0001
1000
0100
0000
0010
0001
0100
0000
0010
1000
,  // measure 69
0100
0000
1000
0001
0100
0000
0010
1000
0100
0000
0010
0001
0100
0000
0001
1000
,  // measure 70
0100
0000
0100
0000
0010
0000
0010
0000
0001
1000
0001
1000
0010
0100
0010
0100
,  // measure 71
0002
0000
1003
0100
0010
0001
0200
0000
,  // measure 72
0300
0000
0000
0000
;
