#TITLE:DROP OUT Survivor;
#SUBTITLE:;
#ARTIST:SE312;
#TITLETRANSLIT:;
#SUBTITLETRANSLIT:;
#ARTISTTRANSLIT:;
#GENRE:;
#CREDIT:;
#MUSIC:DROP OUT Survivor.ogg;
#BANNER:banner.jpg;
#BACKGROUND:background.jpg;
#CDTITLE:;
#SAMPLESTART:19.431;
#SAMPLELENGTH:12.000;
#SELECTABLE:YES;
#OFFSET:-0.200;
#BPMS:0.000=312.000;
#STOPS:;
#BGCHANGES:56.000=amoeba1.avi=1.000=1=0=1===CrossFade==,
64.000=amoeba1.avi=1.000=0=1=1=StretchRewind====,
72.000=kaliedoscope11.avi=1.000=0=0=1,
73.000=kaliedoscope2.avi=1.000=0=0=1,
74.000=kaliedoscope3.avi=1.000=0=0=1,
75.000=kaliedoscope8.avi=1.000=0=0=1,
76.000=blackhole1.avi=1.000=0=0=1,
77.500=blackhole2.avi=1.000=0=1=1=StretchRewind====,
80.000=chase1.avi=1.000=0=0=1,
92.000=spikes12.avi=1.000=0=0=1,
120.000=chase2.avi=1.000=0=0=1,
132.000=amoeba2.avi=1.000=0=0=1,
136.000=chase1b.avi=1.000=0=0=1,
152.000=chase1.avi=1.000=0=0=1,
164.000=amoeba1.avi=1.000=0=0=1,
168.000=heat1.avi=1.000=0=0=1,
184.000=spikes5.avi=1.000=0=0=1,
192.000=chase7.avi=1.000=0=0=1,
208.000=chase7.avi=1.000=1=1=1=StretchRewind==CrossFade==,
224.000=chase6.avi=1.000=0=0=1,
240.000=chase6.avi=1.000=1=1=1=StretchRewind==CrossFade==,
256.000=chase5.avi=1.000=0=0=1,
268.000=blackhole1.avi=1.000=0=0=1,
272.000=cube2.avi=1.000=0=0=1,
288.000=chase4.avi=1.000=0=0=1,
300.000=blackhole2.avi=1.000=0=0=1,
304.000=chase3a.avi=1.000=0=0=1,
320.000=fire1.avi=1.000=0=0=1,
336.000=demon3.avi=1.000=0=0=1,
352.000=blackhole2.avi=1.000=0=0=1,
360.000=chase2.avi=1.000=0=0=1,
392.000=circlesh.avi=1.000=0=0=1,
408.000=city3.avi=1.000=0=0=1,
416.000=circle1c.avi=1.000=0=0=1,
424.000=cube7ar.avi=1.000=0=0=1,
436.000=background.jpg=0.000=1=0=1===CrossFade==,
99999.000=-nosongbg-=1.000=0=0=0=StretchNoLoop====
;
#FGCHANGES:;

//--------------- dance-single - WavyFX / Stepmaniac2 ----------------
#NOTES:
     dance-single:
     WavyFX / Stepmaniac2:
     Beginner:
     4:
     0.173455,0.361003,0.043364,0.151773,0,112,108,4,14,0,0,0.173455,0.361003,0.043364,0.151773,0,112,108,4,14,0,0:
0000
0000
0000
0000
,
0000
0000
0000
0000
,
0000
0000
0000
0000
,
0000
0000
0000
0000
,
0000
0000
0000
0000
,
0000
0000
0000
0000
,
0000
0000
0000
0000
,
0000
0000
0000
0000
,
0000
0000
0000
0000
,
0000
0000
0000
0000
,
0000
0000
0000
0000
,
0000
0000
0000
0000
,
0000
0000
0000
0000
,
0000
0000
0000
0000
,
1000
0000
0000
0000
,
0001
0000
0000
0000
,
0100
0000
0000
0000
,
0010
0000
0000
0000
,
0100
0000
0000
0000
,
0001
0000
0000
0000
,
1000
0000
1000
0000
,
1000
0000
0000
0000
,
0001
0000
0001
0000
,
0100
0000
0000
0000
,
0010
0000
0000
0000
,
0100
0000
0000
0000
,
0001
0000
0000
0000
,
1000
0000
0000
0000
,
0100
0000
0000
0000
,
0010
0000
0000
0000
,
0001
0000
0000
0000
,
0100
0000
0000
0000
,
0010
0000
0000
0000
,
1000
0000
1000
0000
,
0001
0000
0000
0000
,
0100
0000
0000
0000
,
0010
0000
0000
0000
,
0100
0000
0000
0000
,
0001
0000
0000
0000
,
0100
0000
0000
0000
,
0010
0000
0000
0000
,
0010
0000
0010
0000
,
1000
0000
0000
0000
,
0001
0000
0000
0000
,
0100
0000
0000
0000
,
0010
0000
0000
0000
,
1000
0000
1000
0000
,
1000
0000
1000
0000
,
0001
0000
0000
0000
,
0100
0000
0000
0000
,
0010
0000
0000
0000
,
0100
0000
0000
0000
,
0002
0000
0000
0000
,
0003
0000
0000
0000
,
2000
0000
0000
0000
,
3000
0000
0000
0000
,
0100
0000
0000
0000
,
0010
0000
0000
0000
,
0100
0000
0000
0000
,
0001
0000
0000
0000
,
2000
0000
0000
0000
,
3000
0000
0000
0000
,
0002
0000
0000
0000
,
0003
0000
0000
0000
,
1000
0000
0000
0000
,
0100
0000
0000
0000
,
0010
0000
0000
0000
,
0001
0000
0001
0000
,
1000
0000
0000
0000
,
0100
0000
0000
0000
,
0010
0000
0000
0000
,
0100
0000
0000
0000
,
1000
0000
0000
0000
,
0001
0000
0000
0000
,
0100
0000
0000
0000
,
0010
0000
0010
0000
,
1000
0000
0000
0000
,
0001
0000
0000
0000
,
0100
0000
0000
0000
,
0010
0000
0000
0000
,
2002
0000
0000
0000
,
0000
0000
0000
0000
,
3003
0000
0000
0000
,
1000
0000
1000
0000
,
2002
0000
0000
0000
,
3003
0000
0000
0000
,
1000
0000
0100
0000
,
0010
0000
0001
0000
,
2002
0000
0000
0000
,
3003
0000
0000
0000
,
1000
0000
0000
0000
,
0100
0000
0000
0000
,
0010
0000
0000
0000
,
0001
0000
0000
0000
,
0100
0000
0000
0000
,
0010
0000
0000
0000
,
2000
0000
0000
0000
,
3000
0000
0000
0000
,
0001
0000
0100
0000
,
0010
0000
1000
0000
,
0100
0000
0010
0000
,
0001
0000
0100
0000
,
0010
0000
0100
0000
,
0001
0000
0010
0000
,
0100
0000
1000
0000
,
0200
0000
0000
0000
,
0301
0000
0001
0000
,
0001
0000
0001
0000
,
1000
0000
0100
0000
,
0220
0000
0000
0000
,
0000
0000
0000
0000
,
0330
0000
0000
0000
;

//--------------- dance-single - WavyFX / Stepmaniac2 ----------------
#NOTES:
     dance-single:
     WavyFX / Stepmaniac2:
     Easy:
     8:
     0.31129,0.594896,0.11925,0.357751,0,201,190,11,33,0,0,0.31129,0.594896,0.11925,0.357751,0,201,190,11,33,0,0:
0000
0000
0000
0000
,
0000
0000
0000
0000
,
0000
0000
0000
0000
,
0000
0000
0000
0000
,
0000
0000
0000
0000
,
0000
0000
0000
0000
,
0000
0000
0000
0000
,
0000
0000
0000
0000
,
0000
0000
0000
0000
,
0000
0000
0000
0000
,
0000
0000
0000
0000
,
0000
0000
0000
0000
,
0000
0000
0000
0000
,
0000
0000
0000
0000
,
1000
0000
0000
0000
,
0001
0000
0000
0000
,
0100
0000
0000
0000
,
0010
0000
0000
0000
,
1000
0000
0100
0000
,
0001
0000
0010
0000
,
1000
0000
0000
0000
,
0100
0000
0000
0000
,
0001
0000
0100
0000
,
0010
0000
0100
0000
,
0001
0000
0000
0000
,
1000
0000
1100
0000
,
1001
0000
0000
0000
,
1000
0000
0100
0000
,
0010
0000
0100
0000
,
1000
0000
1001
0000
,
0110
0000
0100
0000
,
0001
0000
0100
0000
,
0010
0000
1000
0000
,
0002
0000
0003
0000
,
1000
0000
0100
0000
,
0010
0000
0001
0000
,
0100
0000
1000
0000
,
0020
0000
0030
0000
,
0100
0000
0001
0000
,
0100
0000
0010
0000
,
1000
0000
0100
0000
,
0020
0000
0030
0000
,
0001
0000
0001
0000
,
1000
0000
1000
0000
,
0100
0000
0100
0000
,
0020
0000
0030
0000
,
2002
0000
0000
0000
,
3003
0000
0000
0000
,
1000
0000
0100
0000
,
0010
0000
0100
0000
,
1000
0000
0001
0000
,
0100
0000
0001
0000
,
2000
0000
3002
0000
,
0203
0000
0320
0000
,
2030
0000
3200
0000
,
2300
0000
3002
0000
,
0103
0000
0001
0000
,
1000
0000
0010
0000
,
0100
0000
0001
0000
,
0010
0000
0010
0000
,
2000
0000
3200
0000
,
0302
0000
0203
0000
,
2300
0000
3020
0000
,
0032
0000
0103
0000
,
1000
0000
0100
0000
,
0001
0000
0010
0000
,
0001
0000
1000
0000
,
0020
0000
0030
0000
,
1000
0000
0100
0000
,
0001
0000
0100
0000
,
0010
0000
0100
0000
,
1000
0000
0000
0000
,
0001
0000
0100
0000
,
0010
0000
0100
0000
,
1000
0000
0001
0000
,
0020
0000
0030
0000
,
0100
0000
0001
0000
,
0100
0000
1000
0000
,
0100
0000
0010
0000
,
0100
0000
0001
0000
,
1000
1000
1000
0000
,
1001
0000
1001
0000
,
0002
0000
0203
0300
,
0020
0030
1000
1000
,
0001
0001
0100
0100
,
0110
0000
1001
0000
,
2000
0000
3200
0000
,
0320
0000
0032
0003
,
0110
0000
0000
0000
,
0000
0000
0000
0000
,
1000
0000
0001
0000
,
0100
0000
0001
0000
,
1000
0000
0010
0000
,
0100
0000
0001
0000
,
0100
0000
0010
0000
,
1000
0000
0100
0000
,
0010
0000
0001
0000
,
0200
0000
0300
0000
,
0001
0001
1000
1000
,
0100
0100
0010
0010
,
0001
0001
0100
0100
,
0010
0010
1000
1000
,
0001
0001
0100
0100
,
0010
0010
0100
0100
,
0001
0001
1000
1000
,
0100
0100
0010
0010
,
0100
0001
0000
0001
,
0100
0000
0010
0000
,
1000
0000
0001
2002
,
0000
0000
0000
3003
;

//--------------- dance-single - WavyFX / Stepmaniac2 ----------------
#NOTES:
     dance-single:
     WavyFX / Stepmaniac2:
     Medium:
     13:
     0.497134,0.596251,0.151773,0.162614,0,321,307,14,15,0,0,0.497134,0.596251,0.151773,0.162614,0,321,307,14,15,0,0:
0000
0000
0000
0000
,
0000
0000
0000
0000
,
0000
0000
0000
0000
,
0000
0000
0000
0000
,
0000
0000
0000
0000
,
0000
0000
0000
0000
,
0000
0000
0000
0000
,
0000
0000
0000
0000
,
0000
0000
0000
0000
,
0000
0000
0000
0000
,
0000
0000
0000
0000
,
0000
0000
0000
0000
,
0000
0000
0000
0000
,
0000
0000
0000
0000
,
1000
0001
0100
0001
,
1000
0100
0010
0001
,
0010
0100
1000
0001
,
0200
0000
0301
0000
,
1000
1000
1000
1000
,
1000
0001
0001
0000
,
1000
0100
0010
0000
,
0100
0000
1001
0000
,
0001
0010
0100
0000
,
1000
0100
0010
0000
,
0001
0010
0100
0000
,
1000
0010
0100
0001
,
0100
0000
0001
0000
,
0100
0000
0010
0000
,
1000
0100
0010
0100
,
1000
0001
0100
0000
,
0001
0100
0001
0100
,
0001
1000
0001
1000
,
0001
0100
0001
0100
,
0020
0000
1000
0000
,
0030
0000
0001
0000
,
0100
0000
0010
0000
,
1000
0100
0010
0001
,
0100
0010
0000
0000
,
1000
0100
1000
0100
,
1000
0001
1000
0001
,
1000
0100
0001
0100
,
0020
0000
0000
0000
,
1030
0100
0000
0000
,
0001
0100
0000
0000
,
1000
0100
0000
0000
,
0001
0100
0010
0000
,
1000
1000
0001
0001
,
0200
0010
0310
0000
,
1000
0100
1000
0010
,
0100
0001
0100
0010
,
1000
0100
0010
0100
,
0020
0130
2000
3100
,
0001
0100
0010
0000
,
1000
0100
0010
0000
,
0001
0100
0010
0000
,
0100
0001
0100
1000
,
0010
0100
0010
0100
,
0001
0100
0001
0100
,
0010
1000
0100
0001
,
0020
0031
0200
1300
,
0100
0001
0100
1000
,
0010
0100
0001
0100
,
0010
1000
0100
0010
,
0001
0000
1000
0000
,
1001
0100
0010
0100
,
0001
1000
0100
0010
,
0001
0100
0001
0100
,
0020
0000
0000
0030
,
1000
0100
1000
0100
,
0001
0100
0001
0100
,
0010
0100
0001
1000
,
0100
1000
1100
0000
,
1001
0001
0100
0010
,
1000
0100
0010
0001
,
0100
0010
0001
0100
,
0010
0010
0010
0010
,
1000
0100
1000
0100
,
0001
0100
0001
0100
,
0010
0100
0001
0010
,
0100
1000
0001
0000
,
1000
0100
1000
0001
,
1001
0000
1001
0000
,
1000
0100
1000
0001
,
0100
0001
1000
0010
,
0100
0001
0010
0100
,
0110
0000
0110
0000
,
1001
0000
1100
0000
,
1001
0000
0101
0000
,
0022
0000
0000
0000
,
0000
0000
0033
0000
,
1000
0100
0000
0001
,
0000
0100
0000
0010
,
0000
1000
0000
0100
,
0000
0010
0001
0100
,
1000
0100
0000
0010
,
0000
0100
0000
0001
,
0000
1000
0000
0200
,
0020
0000
0330
0000
,
1000
0100
1000
0001
,
0100
0001
1000
0010
,
1000
0001
0010
0001
,
1000
0100
0010
0100
,
1000
0001
0010
0100
,
0010
0001
1000
0010
,
0001
0100
1000
0100
,
0001
0010
1000
0000
,
0100
1000
0100
0001
,
0100
1000
0100
0001
,
0010
0001
0100
0010
,
0220
0000
0030
0000
,
0300
0000
0000
0000
;

//--------------- dance-single - WavyFX / Stepmaniac2 ----------------
#NOTES:
     dance-single:
     WavyFX / Stepmaniac2:
     Hard:
     16:
     0.715501,1.072033,0.368592,0.140932,0.010841,462,428,34,13,0,0,0.715501,1.072033,0.368592,0.140932,0.010841,462,428,34,13,0,0:
0000
0000
0000
0000
,
0000
0000
0000
0000
,
0000
0000
0000
0000
,
0000
0000
0000
0000
,
0000
0000
0000
0000
,
0000
0000
0000
0000
,
0000
0000
0000
0000
,
0000
0000
0000
0000
,
0000
0000
0000
0000
,
0000
0000
0000
0000
,
0000
0000
0000
0000
,
0000
0000
0000
0000
,
0000
0000
0000
0000
,
0000
0000
0000
0000
,
1000
0001
0100
0001
,
1000
0100
0010
0001
,
0100
0010
0100
0001
,
1001
0100
1001
0100
,
0001
0000
0100
0001
0100
0000
0010
1000
,
0010
0000
0000
0110
0000
1001
0000
0000
,
1000
0000
0100
1000
0010
0000
0100
0000
,
0002
0000
0100
0000
0100
0000
0103
1000
,
0010
0000
0100
0001
0010
0000
0100
0000
,
0001
0100
0010
0100
,
0001
1000
0100
0010
,
0100
1000
0001
0100
,
0010
0100
0001
1000
,
0100
0010
0100
1000
,
0001
0100
0010
0100
,
0001
0010
0100
1000
,
0001
0100
0010
0100
,
0001
1000
0100
0010
,
0001
0100
0010
1000
,
0020
0001
0001
0031
,
0001
0100
0010
1000
,
0100
0010
0001
0010
,
0100
1000
0010
0100
,
0001
0100
0010
1000
,
0100
0010
0001
0100
,
0010
1000
0100
0010
,
0001
0100
0010
0100
,
0020
1000
1000
1000
,
1030
0100
0001
0100
,
1000
0010
0001
0010
,
1000
0100
0010
0001
,
0100
0110
1001
0000
,
1000
0001
1000
0001
1000
0001
1000
0001
,
1000
0001
1000
1001
0000
0110
0000
0000
,
1000
0100
1000
0010
,
1000
0100
0001
0010
,
0001
1000
0100
0001
,
0020
0001
0001
1030
,
0100
0001
0100
1000
,
0010
0100
0001
0010
,
1000
0010
0100
0001
,
0101
1001
1010
0000
,
1000
0100
0010
0100
,
1000
0001
0100
0010
,
0100
0001
1000
0100
,
0020
0001
0001
0130
,
1000
0100
0001
0100
,
1000
0010
0100
0001
,
1000
0010
0100
0001
,
1000
0010
0001
0100
,
0001
0100
0010
1000
,
0100
0010
0001
0100
,
0010
1000
0001
0100
,
0020
1000
0001
1030
,
0100
0001
0010
1000
,
0100
0001
0010
1000
,
0010
0100
0001
0010
,
1000
0100
0010
0001
,
0100
0010
1000
0100
,
0010
0001
0100
0010
,
1000
0100
0010
0001
,
0020
0100
1000
0031
,
0100
0001
1000
0100
,
1000
0001
0100
0001
,
1000
0010
0100
0001
,
0010
0100
1000
0001
,
1000
0100
1000
0001
,
1001
0100
1001
0100
,
1000
0100
0010
0100
,
1000
0001
0100
0001
,
1000
0100
0010
0100
,
1001
0100
1001
0100
,
1001
0100
1001
0100
,
0011
0100
1001
1001
,
0220
0000
0000
0000
0000
0000
0300
0000
1000
0000
0000
0000
0000
0000
0000
0000
0000
0001
0000
0000
0000
0000
0000
0000
,
0030
0000
0000
0001
,
0100
0000
1000
0100
1000
0000
0001
0100
,
0001
0000
1000
0010
1000
0000
0001
0010
,
0001
0000
0010
1000
0100
0000
0010
0001
,
0100
0000
1000
0100
0001
0000
1000
0010
,
0001
0000
1000
0100
0001
0000
1000
0010
,
0001
0000
0100
0001
0010
0000
0100
1000
,
0010
0100
0001
0010
0100
1000
0001
2000
,
0002
0000
0000
3003
,
1000
0001
1000
0001
1000
0100
1000
0100
,
1000
0010
1000
0010
1000
0001
1000
0001
,
1000
0100
1000
0100
0010
0001
0010
0001
,
1000
0010
1000
0010
0100
0001
0100
0001
,
1000
0100
1000
0100
0010
0001
0010
0001
,
0100
0001
0100
0001
1000
0001
1000
0001
,
1000
0100
1000
0100
0010
0100
0010
0100
,
0010
0001
0010
0001
0010
0001
1000
0000
,
1001
1100
1001
0101
,
1001
1010
1001
0011
,
1100
0011
1001
0110
,
2020
0000
0000
0000
0000
0000
0000
0000
0000
0000
0000
0000
0000
0000
0030
0000
0000
0000
0000
0000
0000
3000
0000
0000
;

//--------------- dance-single - WavyFX / Stepmaniac2 ----------------
#NOTES:
     dance-single:
     WavyFX / Stepmaniac2:
     Challenge:
     18:
     0.943161,1.083009,0.704661,0.11925,0.010841,609,544,65,11,0,0,0.943161,1.083009,0.704661,0.11925,0.010841,609,544,65,11,0,0:
0000
0000
0000
0000
,
0000
0000
0000
0000
,
0000
0000
0000
0000
,
0000
0000
0000
0000
,
0000
0000
0000
0000
,
0000
0000
0000
0000
,
0000
0000
0000
0000
,
0000
0000
0000
0000
,
0000
0000
0000
0000
,
0000
0000
0000
0000
,
0000
0000
0000
0000
,
0000
0000
0000
0000
,
0000
0000
0000
0000
,
0000
0000
0000
0000
,
1000
0000
0001
0100
0001
0000
1000
0100
,
1000
0000
0001
0010
0100
0000
1000
0010
,
0100
0000
0001
0100
0010
0100
0001
0000
,
1001
0100
1010
0100
,
1000
0100
1000
0001
1000
0010
1000
0001
,
1000
0100
0010
0011
0000
1010
0000
0000
,
0100
0000
0001
0100
0010
0000
0100
0000
,
0002
0000
1000
0000
0100
0000
0010
0003
,
1000
0100
0010
0100
1000
0000
0101
0000
,
1000
0000
0001
0100
0010
0000
1000
0100
,
0010
0000
0010
1000
0100
0000
0010
0001
,
0100
0000
1000
0100
0001
0000
1000
0010
,
0001
0000
0001
0010
1000
0000
0001
0100
,
1000
0100
0010
0100
1000
0001
0100
0000
,
0101
0000
1010
0000
0100
0010
0100
0001
,
1000
0101
1001
1010
,
0110
0000
0100
0000
0001
0000
0100
1000
,
0010
0000
1000
0000
0100
0000
0010
0100
,
0001
0000
0100
1000
0100
0000
0010
0001
,
0020
0100
0001
1030
,
0001
0000
0100
0000
0010
1000
0000
0010
,
1000
0000
0100
0000
0010
0001
0000
0010
,
0001
0000
0100
0000
0010
0100
0000
0010
,
0100
0001
1000
0100
0010
0100
1000
0001
,
0100
0000
0001
0100
0010
0000
1000
0100
,
0010
0000
0001
0100
0001
0000
1000
0100
,
0001
0000
1000
0010
0001
0000
0100
0001
,
0020
0001
1000
0130
,
0001
0000
0100
0010
0100
0001
0000
1000
,
0001
0000
1000
0100
0010
0100
0000
0001
,
0100
0000
0010
1000
0100
0010
0001
0100
,
0010
0100
0001
0010
0100
1000
0100
0010
,
0001
0100
0001
1000
0001
0010
0100
1000
,
0100
0010
0001
1001
0000
0110
0000
0000
,
1001
0110
1001
0110
,
1010
0101
1010
0101
,
0011
1100
1010
0101
,
0011
0110
1100
1001
,
0011
0000
0001
0100
0010
0100
0001
1000
,
0001
0000
1000
0100
0010
0100
1000
0001
,
1000
0000
0001
0100
0010
0100
0001
1000
,
0100
0010
0001
0100
0010
0100
0001
1000
,
0101
1010
1100
0011
,
0110
1001
0011
1100
,
0110
0101
0110
1100
,
0110
1001
0011
1100
,
1010
0000
1100
1000
0001
0100
0010
1000
,
0100
0000
0100
1000
0010
0100
0001
0010
,
0001
0000
1000
0100
0010
0100
1000
0001
,
0100
0001
0010
0001
1000
0100
0010
0100
,
1000
0000
0001
0100
0001
0000
1000
0100
,
1000
0000
0001
0010
1000
0000
0100
1000
,
0010
0000
0100
0001
1000
0000
0100
1000
,
0020
0001
1000
0130
,
0001
0000
0100
1000
0001
0100
0001
1000
,
0100
0000
0100
1000
0001
0100
0001
1000
,
0010
0000
0010
1000
0100
0001
0100
1000
,
0010
0100
0001
0010
0100
1000
0010
0100
,
0001
0000
0100
0001
0100
0000
1000
0100
,
1000
0000
0010
0100
0001
0000
0100
0001
,
2000
0010
0001
3100
,
0001
0000
0100
0010
0100
0001
1000
0100
,
1000
0000
0001
0100
0010
1000
0100
0010
,
0001
0000
0100
0010
1000
0100
0010
0001
,
0010
0100
1000
0010
0100
0001
0010
0100
,
1000
0001
0100
0001
1000
0100
0010
0100
,
1000
0100
1000
0001
,
0100
0001
1000
0010
,
1000
0001
0010
0001
,
1000
0100
0010
0001
,
0010
0100
1000
0010
,
0100
0001
1000
0100
,
1001
0100
1001
0100
,
1001
0100
0011
0100
,
2002
0000
0000
0000
0000
0000
3000
0000
0100
0000
0000
0000
0000
0000
0000
0000
0000
0000
0000
0010
0000
0003
0000
0000
,
0000
0000
0000
0001
,
1000
0000
0100
1000
0001
0000
0100
0001
,
1000
0000
0010
1000
0001
0000
0010
0001
,
1000
0000
0010
1000
0100
0000
0010
0001
,
0100
0000
1000
0100
0001
0000
1000
0010
,
0001
0000
1000
0010
0001
0000
1000
0100
,
0001
0000
0001
0100
0010
1000
0100
0010
,
0001
0100
0010
0100
0001
1000
0200
0000
,
0020
0000
0330
0000
,
1000
0100
1000
0100
1000
0001
1000
0001
,
1000
0100
1000
0100
0010
0001
0010
0001
,
1000
0100
1000
0001
0100
0010
0100
0001
,
1000
0100
0010
0001
0100
0010
1000
0100
,
0010
0001
0100
0010
0100
0001
0010
0100
,
1000
0010
0100
0001
0010
0100
1000
0001
,
0100
0001
1000
0010
0100
0001
0100
0010
,
1000
0100
0010
0100
,
1100
0101
1100
1010
,
0100
1010
0101
1010
,
0101
1100
0011
1100
,
0202
0000
0000
0000
,
0000
0000
0000
0000
,
0303
0000
0000
0000
;
