#TITLE:Cyberstorm;
#SUBTITLE:(DJKurara Remix);
#ARTIST:SD-501;
#TITLETRANSLIT:;
#SUBTITLETRANSLIT:;
#ARTISTTRANSLIT:;
#GENRE:;
#CREDIT:;
#MUSIC:Cyberstorm (DJKurara Remix).ogg;
#BANNER:;
#BACKGROUND:;
#CDTITLE:;
#SAMPLESTART:0.000;
#SAMPLELENGTH:0.000;
#SELECTABLE:YES;
#OFFSET:0.005;
#BPMS:0.000=300.000
,448.000=150.000
,480.000=300.000
;
#STOPS:;
#BGCHANGES:;
#FGCHANGES:;

//--------------- dance-single - Stepmaniac ----------------
#NOTES:
     dance-single:
     Stepmaniac:
     Hard:
     18:
     0,0,0,0,0:
0000
0000
0000
0000
,
0000
0000
0000
0000
,
0000
0000
0000
0000
,
0000
0000
0000
0000
,
0000
0000
0000
0000
,
0000
0000
0000
0000
,
0000
0000
0000
0000
,
0000
0000
0000
0000
,
1000
0001
0100
0001
,
0010
0100
1000
0010
,
0100
0001
0100
0010
,
1000
0100
1000
0010
,
0100
0001
0100
0001
1000
0010
1000
0010
,
0100
0010
0100
0010
0100
0001
0100
0001
,
2000
3002
0023
0230
,
0300
0000
1001
0000
,
1000
0100
1000
0001
0000
0001
1000
0010
,
0100
0001
0010
0100
0000
0100
1000
0010
,
0100
0010
1000
0100
0000
0100
1000
0010
,
0100
0001
0010
1000
0010
0001
0100
0010
,
1000
0100
1000
0001
0000
1000
0001
0010
,
0001
1000
0010
1000
0000
0001
0100
0010
,
0100
0001
0010
0100
0000
0100
0010
0001
,
1000
0010
0100
1000
0100
0010
1000
0001
,
0010
0100
1000
0001
0000
0001
1000
0010
,
0100
0010
1000
0100
0000
0010
0001
0100
,
0010
1000
0001
0010
0000
0100
1000
0010
,
0100
0001
0100
0010
1000
0010
0001
0010
,
1000
0001
0100
0001
0000
1000
0001
0010
,
0001
0100
0010
1000
0001
0010
0001
1000
,
0100
0010
0100
1000
0100
0010
0100
0001
,
1000
0000
0010
0100
1000
0010
0100
0001
,
0101
0000
0000
1100
0000
0000
0101
0000
,
0000
0001
0100
1000
0001
1000
0100
0001
,
1000
0000
0000
1100
0000
0000
0101
0000
,
0000
0001
0010
1000
0001
1000
0010
0001
,
0101
0000
0000
1100
0000
0000
1010
0000
,
0000
1000
0010
0001
1000
0100
0001
1000
,
1100
0000
0000
1001
0000
0000
0101
0000
,
0000
0001
0010
0100
1000
0010
0100
0001
,
0101
0000
1000
1100
0000
0001
0101
0000
,
0001
0100
0010
1000
0010
0001
0010
1000
,
0100
0000
1000
1100
0000
0001
0101
0000
,
1000
0100
0010
1000
0010
0100
1000
0001
,
0101
0000
1000
1010
0000
0001
0101
0000
,
1000
0010
0001
0010
1000
0001
0010
1000
,
0001
0100
0010
0001
1000
0010
0100
0001
,
0010
0100
0001
0100
0010
0001
1000
0010
,
0100
0001
1000
0010
0100
0001
0010
0100
,
1000
0010
0001
0010
1000
0100
0001
0100
,
1000
0001
0100
0001
0010
0001
1000
0010
,
0001
0010
0100
0010
1000
0010
0100
0010
,
0001
0010
0100
0001
1000
0100
0010
1000
,
0010
0001
0010
1000
0010
0001
1000
0100
,
1000
0010
0100
0010
1000
0001
0100
0001
,
0010
0000
0000
0100
0000
0000
1000
0001
1000
0001
1000
0001
,
1000
0100
1000
0010
0100
0001
0010
0001
,
1000
0010
0001
0010
1000
0001
0010
0001
,
1000
0100
1000
0001
0100
0001
1000
0010
,
1000
0001
0010
1000
0010
0001
1000
0001
,
0100
0001
1000
0100
1000
0010
0100
0001
,
1000
0010
0100
1000
0100
0010
1000
0001
,
2000
3200
0320
0032
,
2003
0000
3020
0000
0230
0000
0301
1000
,
0001
0000
0000
0100
0000
0000
0010
0000
,
1000
0000
0000
0010
0000
0000
0100
0000
,
0001
0000
0000
1000
0000
0000
0100
0000
,
1000
0000
0001
0100
0010
1000
0010
0100
,
0001
0000
0000
1000
0000
0000
0100
0000
,
1000
0000
0000
0010
0000
0000
0100
0000
,
0001
0000
0000
1000
0000
0000
0100
0000
,
1000
0000
0010
0100
0001
0010
0001
1000
,
0001
0100
0010
1000
,
0100
1000
0010
0100
,
0001
0010
0100
1000
,
0010
0100
0001
1000
,
0100
1000
0010
0100
0001
0010
0001
0100
,
0010
1000
0100
1000
0010
0100
0001
1000
,
0100
1000
0001
1000
0010
1000
0001
0100
,
0001
0000
0000
0000
,
1000
0001
0100
0010
1000
0001
0100
0001
,
0010
0100
0010
0001
0010
0001
0100
0010
,
1000
0010
1000
0100
0010
0100
1000
0010
,
0100
0000
0000
0001
0000
0000
0010
0000
0000
0100
0000
0000
1000
0000
0000
0010
0000
0000
1000
0000
0100
0000
0010
0000
,
0001
0010
0100
0010
0001
1000
0100
0010
,
0001
1000
0100
0010
0001
0100
0010
1000
,
0001
0000
1000
1001
0000
1000
0001
1000
,
0100
0000
1000
0010
0000
0010
0100
0010
,
1000
0001
1000
0100
0010
0001
0100
0010
,
1000
0010
1000
0001
0010
0100
0010
0100
,
0010
0001
0100
0001
0100
0001
1000
0100
,
0010
0000
0000
0100
0000
0000
1000
0000
0000
0010
0000
0000
1000
0000
0100
0000
0010
0000
0001
0000
0000
1000
0000
0000
,
0001
0100
0001
0010
0100
1000
0010
0100
,
0001
0010
0001
0100
0010
1000
0010
0100
,
0001
0100
1000
0100
0001
0010
1000
0010
,
0001
0000
0001
0010
0000
0010
0100
1000
,
0100
0010
0001
0100
0001
0010
0100
1000
,
0001
0100
0010
1000
0100
0010
0100
0010
,
0100
1000
0001
1000
0010
1000
0100
0010
,
0001
0000
0000
0100
0000
0000
0010
0000
0000
1000
0000
0000
0001
0000
0000
0100
0000
0000
0001
0000
0010
0000
0100
0000
,
1000
0010
1000
0100
1000
0001
0010
0100
,
1000
0010
0100
0001
1000
0001
0100
0010
,
1010
0000
0000
0011
0000
0000
1001
0000
,
0000
0000
0000
0000
0000
0000
0000
0000
0000
1000
0100
0010
,
0001
0100
0010
0100
0001
1000
0100
1000
,
0001
0010
0001
0100
0001
1000
0100
0010
,
0100
1000
0010
0100
0010
1000
0100
0010
,
0011
0000
0000
1010
0000
0000
0001
0010
0100
1000
0100
0010
,
0001
1000
0010
1000
0100
1000
0010
0100
,
0001
1000
0100
0010
0100
1000
0010
0100
,
0102
1000
0203
1000
,
0301
0000
0001
1000
0000
1000
0100
1000
,
0001
0000
0000
1000
0000
0100
0010
0000
0001
0000
0000
0000
0000
0000
1000
0100
,
0010
0000
0000
0100
0000
1000
0010
0000
0100
0000
0001
0010
0100
0000
1000
0001
,
0100
0000
0000
0001
0000
0100
0010
0000
1000
0000
0000
0000
0000
0000
0001
0100
,
0001
0000
0000
1000
0000
0100
0010
0000
0001
0000
1000
0200
0000
0000
0000
0300
,
1100
0000
0000
1000
0000
1000
0001
0000
1010
0000
0000
0000
0000
0000
1000
0010
,
0100
0000
0000
0001
0000
0100
0010
0000
0100
0000
0001
1000
0001
0000
0010
0000
,
0100
0000
0000
1000
0000
0001
0100
0000
0001
0000
0000
0000
0000
0000
1000
0100
,
1000
0000
0000
0001
0000
0100
0010
0000
0100
0000
0001
0020
0000
0000
0000
0000
,
0130
1000
0001
0100
,
0001
0010
0100
1000
,
1001
0001
0100
0010
,
1000
0100
1000
0010
,
1010
1000
0001
0010
,
0100
1000
0010
0100
,
0101
0100
0001
0010
,
0100
1000
0001
0010
,
1100
0000
1000
0001
0000
0001
0100
0010
,
1010
0000
0010
0100
0000
0100
0001
0010
,
0011
0000
0001
0100
0000
0100
0010
1000
,
1100
0000
1000
0100
0000
0100
0010
0001
,
1000
0100
0010
0001
1000
0010
0100
0001
,
1000
0100
0010
0001
1000
0010
0100
0001
,
1000
0100
0010
0100
0001
0100
1000
0100
,
0001
0100
1000
0001
0010
1000
0001
1000
,
2002
0000
0000
0000
,
3003
0000
0000
0000
;

//--------------- dance-single - Stepmaniac - NEW ----------------
#NOTES:
     dance-single:
     Stepmaniac - NEW:
     Challenge:
     18:
     0,0,0,0,0:
0000
0000
0000
0000
,
0000
0000
0000
0000
,
0000
0000
0000
0000
,
0000
0000
0000
0000
,
0000
0000
0000
0000
,
0000
0000
0000
0000
,
0000
0000
0000
0000
,
0000
0000
0000
0000
,
1000
0001
0100
0001
,
0010
0001
0100
0001
,
1000
0010
0100
0001
,
0100
0010
1000
0001
,
1000
0100
1000
0100
0010
0001
0010
0001
,
1000
0010
1000
0010
0100
0001
0100
0001
,
0020
0230
2300
3002
,
0203
0320
2030
3001
,
1000
0100
0000
0011
0000
0001
0100
0010
,
1000
0100
0000
1010
0000
1000
0010
0100
,
0001
0100
0000
0011
0000
0001
1000
0010
,
1000
0100
0010
0001
0010
1000
0010
0001
,
0100
0010
0000
1010
0000
1000
0010
1000
,
0010
0100
0000
0011
0000
0001
0010
0001
,
0010
0100
0000
1010
0000
1000
0010
0100
,
0001
1000
0100
0010
0001
0010
1000
0010
,
0100
1000
0010
0100
0001
1000
0100
0010
,
0001
1000
0010
1000
0100
1000
0002
0000
,
0013
0100
1000
0100
0010
0001
0100
0001
,
1000
0100
1000
0020
0000
0031
0010
1000
,
0100
1000
0001
0010
0000
0010
0001
0100
,
0010
1000
0100
0010
0000
0001
0100
0010
,
1000
0100
0001
0100
0010
0100
1000
0100
,
0002
0000
0103
1000
0010
0100
0001
0000
,
1100
0000
0000
0101
0000
0000
1001
0000
,
0000
1000
0010
0100
0001
0100
1000
0100
,
0010
0000
0000
0110
0000
0000
0101
0000
,
0000
1000
0001
0100
0010
1000
0100
0001
,
0100
0000
0000
0011
0000
0000
1100
0000
,
0000
0001
0100
0010
1000
0001
0010
1000
,
0010
0000
0000
0011
0000
0000
0101
0000
,
0000
0001
0100
1000
0100
0001
0010
0001
,
0100
0000
0010
0100
0000
0010
0100
0000
,
0001
0100
0010
1000
0100
0010
0001
1000
,
0100
0000
0010
0100
0000
0010
0100
0000
,
1000
0100
0010
0001
0100
0010
1000
0001
,
0010
0001
0010
0100
0000
0010
0100
0000
,
1000
0010
0100
0001
0100
0010
1000
0001
,
1000
0100
0010
0001
0100
0010
1000
0100
,
0010
0001
1000
0010
1000
0001
1000
0001
,
1000
0100
0010
0001
1000
0010
0100
0001
,
1000
0010
0001
0010
1000
0100
0001
0100
,
1000
0100
0010
0001
1000
0010
0100
0001
,
1000
0010
0001
0010
1000
0100
0001
0100
,
1000
0010
0100
0010
1000
0001
0010
0001
,
0100
0010
0100
1000
0100
0010
0100
0001
,
1000
0100
0010
0001
0100
0010
1000
0100
,
1000
0001
2000
0000
,
3001
0100
0010
1000
0001
0010
0100
1000
,
0001
0010
0100
0010
1000
0010
0100
0010
,
0001
0100
0010
1000
0100
0010
0001
0100
,
0010
0100
1000
0100
0010
0100
0001
1000
,
0100
0010
0001
1000
0010
0100
0010
1000
,
0001
0010
1000
0010
0001
0100
1000
0100
,
0002
0010
0203
0010
,
0302
0000
0010
0000
1003
0010
0100
0001
,
1000
0000
0000
0010
0000
0000
1000
0000
,
0001
0000
0100
0010
0000
0000
1000
0000
,
0001
0000
0100
0010
0000
0100
0001
1000
,
0001
0000
1000
0020
0000
0031
0010
1000
,
0001
0000
0000
0010
0000
0100
1000
0001
,
1000
0000
0100
0020
0000
0031
0100
0001
,
0100
0000
0001
0010
0000
0001
1000
0100
,
1000
0000
0001
0020
0000
1030
0010
0001
,
1000
0001
0100
0010
,
1000
0001
0010
0100
,
1000
0010
1000
0100
,
0010
0001
0100
0010
,
1000
0100
1000
0010
0100
0001
0100
0010
,
0100
0001
0010
0100
0010
0001
0100
0010
,
2000
0000
0000
0000
,
3001
0000
0000
0000
,
1000
0100
0010
0001
0100
0010
1000
0001
,
1000
0100
0010
0001
0100
0010
1000
0001
,
1000
0010
0100
0001
0010
0100
1000
0001
,
1000
0010
0100
0001
0010
0100
1000
0001
,
1000
0100
0010
0001
0100
0010
1000
0001
,
1000
0010
0100
0001
0010
0100
1000
0001
,
1000
0000
0001
1000
0001
0000
1001
0000
,
0001
0000
0100
0010
0000
0100
0001
0000
,
1000
0100
0010
0001
1000
0010
0100
0001
,
1000
0100
0010
0001
1000
0010
0100
0001
,
1000
0010
0100
0001
1000
0100
0010
0001
,
1000
0010
0100
0001
2000
0000
3010
0100
,
0001
1000
0100
0010
0001
0010
0100
1000
,
0010
0100
0001
1000
0100
0010
0001
1000
,
0001
0100
1000
0100
0001
0010
1000
0010
,
0001
0000
0001
1000
0000
1000
0100
0000
,
1000
0010
0100
0010
1000
0001
0100
0010
,
1000
0001
0010
0100
0010
0001
1000
0010
,
0100
0001
0010
0100
1000
0001
0100
0010
,
1000
0010
0100
0001
0010
0100
0010
0001
,
1000
0100
0010
0100
1000
0010
0100
0001
,
1000
0100
0010
0001
0100
0010
1000
0001
,
0011
0000
0000
1010
0000
0000
1001
0000
,
1000
0000
0001
0010
0000
0010
0002
0000
,
1003
0100
0010
0100
1000
0001
0100
0001
,
1000
0100
0010
0100
1000
0001
0100
0001
,
1000
0100
0001
0100
1000
0001
0100
1000
,
0100
0000
0110
0000
0100
0001
0010
0100
,
1000
0001
0100
0001
0010
0100
1000
0010
,
0100
0001
0010
0001
1000
0010
0100
0001
,
2000
0010
3200
0010
,
1300
0000
0001
0010
0000
0001
0010
0001
,
1M00
0000
0000
0001
0000
1000
0010
0000
1000
0000
0000
0000
0000
0000
0001
0100
,
0010
0000
0000
1000
0000
1000
0001
0000
0100
0000
0010
1000
0010
0000
1000
0000
,
0100
0000
0000
1000
0000
0001
1000
0000
0100
0000
0000
0000
0000
0000
1000
0010
,
1000
0000
0000
0001
0000
1000
0001
0000
0100
0000
0001
0020
0000
0000
0030
0000
,
0101
0000
0000
0001
0000
1000
0010
0000
1000
0000
0000
0000
0000
0000
0001
0010
,
0100
0000
0000
1000
0000
0001
1000
0000
0010
0000
1000
0001
0010
0000
0010
0000
,
0100
0000
0000
1000
0000
0001
1000
0000
0100
0000
0000
0000
0000
0000
1000
0001
,
0100
0000
0000
0001
0000
1000
0001
0000
0100
0000
0001
0020
0000
0000
0030
0000
,
1M01
0000
1000
0010
0000
0010
1000
0000
,
0001
0000
0100
0000
0001
0000
1000
0100
,
1100
0000
1000
0010
0000
0010
1000
0000
,
0100
0000
1000
0000
0001
0000
0010
0001
,
0011
0000
0001
0010
0000
0010
0001
0000
,
1000
0000
0100
0000
1000
0000
0001
0100
,
0110
0000
0010
1000
0000
1000
0001
0000
,
1000
0100
0011
0001
,
1001
0000
1000
0010
0000
0010
0100
0001
,
1000
0000
1000
0010
0000
0010
0100
0010
,
1000
0000
0001
0010
0000
0010
0001
1000
,
0100
0000
0100
0010
0000
0010
0100
1000
,
0001
0100
0010
1000
0001
0010
0100
1000
,
0001
0100
0010
1000
0001
0010
0100
1000
,
0001
0100
1000
0100
0010
0100
0001
1000
,
0100
0001
1000
0010
0001
1000
0010
0100
,
2000
0000
0000
0000
,
0000
0000
0000
0000
,
3000
0000
0000
0000
,
0000
0000
0000
0000
,
0000
0000
0000
0000
,
0000
0000
0000
0000
,
0000
0000
0000
0000
,
0000
0000
0000
0000
,
0000
0000
0000
0000
,
0000
0000
0000
00M0
;
