#TITLE:Blazing;
#SUBTITLE:;
#ARTIST:Banya;
#TITLETRANSLIT:;
#SUBTITLETRANSLIT:;
#ARTISTTRANSLIT:;
#GENRE:;
#CREDIT:;
#MUSIC:Blazing.ogg;
#BANNER:;
#BACKGROUND:;
#CDTITLE:;
#SAMPLESTART:0.000;
#SAMPLELENGTH:0.000;
#SELECTABLE:YES;
#OFFSET:-0.266;
#BPMS:0.000=158.000;
#STOPS:;
#BGCHANGES:;
#FGCHANGES:;

//--------------- dance-single - Stepmaniac ----------------
#NOTES:
     dance-single:
     Stepmaniac:
     Medium:
     12:
     0,0,0,0,0:
0000
0000
0000
0000
,
0000
0000
0000
0000
,
0000
0000
0000
0000
,
0000
0000
0000
0000
,
1000
0100
0010
0100
1000
0010
0100
0001
,
1000
0000
0000
1000
0000
0000
1000
0000
0000
0000
0001
0000
0010
0000
0100
0000
,
1000
0000
0000
0010
0000
0000
0010
0000
0100
0000
0000
0100
0000
0000
0001
0000
,
0010
0000
0000
0010
0000
0000
0100
0000
1000
0000
0000
1000
0001
0000
0000
0000
,
1000
0000
0100
0000
1000
0000
0001
0000
1000
0000
0000
1000
0000
0000
0001
0000
,
1000
0000
0000
0010
0000
0000
0100
0000
0001
0000
0000
0001
1000
0000
0000
0000
,
1001
0000
0000
1000
0000
0000
0010
0000
0000
0100
0000
0000
0001
0000
1000
0000
,
0001
0000
0000
0000
0000
0000
0000
0000
0000
0010
0000
0000
0000
0000
0000
0000
0000
0000
0100
0000
0000
0000
0000
0000
1000
0000
0000
0000
0000
0000
0000
0000
0000
0000
0000
0000
0001
0000
0000
0000
1000
0000
0000
0000
0001
0000
0000
0000
,
1000
0100
0010
0000
0010
0100
1000
0000
,
1000
0000
0000
0100
0000
0000
0001
0000
0000
0100
0000
0000
1000
0000
0001
0000
1000
0000
0001
0000
0000
0000
0000
0000
,
1000
0000
0001
0000
0100
0000
0001
0000
2000
0000
0000
3020
0000
0000
0130
0000
,
0001
1000
0010
0100
0001
1000
0001
0000
,
1000
0100
0010
0100
1000
0001
0100
0001
,
0010
0001
0100
0001
0000
0001
1000
0100
,
0010
0100
1000
0100
0010
0100
1000
0001
,
0100
0000
0001
0000
0010
0000
0001
0000
1000
0000
0000
0010
0100
0000
0001
0000
,
1000
0000
0000
0100
0000
0000
0010
0000
0000
0001
0000
0000
1000
0000
0010
0000
,
1000
0000
0000
0000
0000
0000
0000
0000
0000
0001
0000
0000
0000
0000
0000
0000
0000
0000
0010
0000
0000
0000
0000
0000
0100
0000
0000
0000
0000
0000
0000
0000
0000
0000
0000
0000
1000
0000
0000
0000
0001
0000
0000
0000
1000
0000
0000
0000
,
0001
0100
0001
0100
0010
1000
0010
1000
,
0100
1000
0100
1000
0001
0010
0100
1000
,
0001
0100
0001
1000
0001
0010
0001
1000
,
0100
1000
0001
1000
0010
1000
0001
1000
,
0100
0000
1000
0000
0001
0010
0000
0000
0000
0000
0010
0000
0001
0000
1000
0000
,
0010
0100
0001
0100
0010
1000
0100
0010
,
0001
0100
1000
0100
0001
0100
1000
0100
,
0001
0010
1000
0010
0001
0010
1000
0010
,
0001
0100
0010
0000
0000
1000
0010
0100
,
0001
0000
0000
0001
1000
0000
0000
1000
0001
0000
0000
0001
1000
0000
0000
1000
,
0001
0100
0001
0100
0010
1000
0010
1000
,
0100
1000
0010
0100
0001
0010
0100
1000
,
0001
1000
0010
1000
0100
0000
1000
0001
,
0100
0001
0010
0001
0100
0000
0001
1000
,
0100
0000
0000
1000
0000
0000
0001
0000
0100
0000
0001
0000
1000
0000
0010
0000
,
0100
0000
0001
0000
0100
0000
0001
0000
0010
0000
0001
1000
0000
0000
0000
0000
,
1000
0001
1000
0100
1000
0010
1000
0100
,
0010
0000
0000
0001
0000
0000
1000
0000
0100
0000
0010
0000
0100
0000
1000
0000
,
0001
0000
0000
0100
0000
0000
0010
0000
0000
1000
0000
0000
0010
0000
0100
0000
,
0001
0000
0000
0001
0000
0000
0010
0000
0100
0000
0000
0000
1000
0000
0000
0000
,
1000
0100
1000
0001
1000
0010
1000
0001
,
1000
0000
0100
0000
1000
0000
0001
0000
0100
0000
0001
0000
1000
0010
0000
0000
,
1000
0100
0010
0100
0001
0100
0010
0100
,
1000
0010
0100
0001
0000
0001
0100
0010
,
1000
0100
1000
0001
0100
0001
1000
0010
,
1000
0001
0010
0001
1000
0100
0010
0000
,
0011
0001
1010
1000
,
0001
0100
0010
1000
0010
0100
0001
1000
,
1010
1000
0011
0001
,
1000
0010
0100
0001
0010
0001
1000
0010
,
2002
0000
3003
0000
1000
0100
1000
0001
,
0100
0001
0010
0001
0100
0001
1000
0010
,
0100
0000
0001
0000
0100
0000
0010
0000
1000
0000
0000
0001
0000
0000
0010
0000
,
0100
0000
0000
1000
0000
0000
0010
0000
0100
0000
0001
0000
0010
0000
1000
0000
,
0010
0001
0100
0000
0100
0001
1000
0100
,
1000
0010
0100
0001
0010
0100
1000
0010
,
0100
0000
0001
0000
1000
0000
0010
0000
1000
0000
0000
0001
0000
0000
0010
0000
,
0000
0100
0000
0000
1000
0000
0001
0000
1000
0000
0000
1000
0000
0000
0010
0000
,
0100
0000
0000
0000
0000
0000
0000
0000
0000
0000
0000
0000
0001
0000
0000
0000
1000
0000
0000
0000
0001
0000
0000
0000
1000
0000
0000
0000
0000
0000
0000
0000
0000
0100
0000
0000
0000
0000
0000
0000
0000
0000
0010
0000
0000
0000
0000
0000
,
0000
0001
0000
0000
1000
0000
0010
0000
1000
0000
0000
1000
0000
0000
0001
0000
,
0100
0000
0000
0000
0000
0000
0000
0000
0000
0000
0000
0000
0001
0000
0000
0000
0010
0000
0000
0000
0100
0000
0000
0000
1000
0000
0000
0000
0000
0000
0000
0000
0000
1000
0000
0000
0000
0000
0000
0000
0000
0000
0001
0000
0000
0000
0000
0000
,
0100
0000
0000
0001
0010
0100
1000
0000
0000
0000
0000
0000
;

//--------------- dance-single - Stepmaniac ----------------
#NOTES:
     dance-single:
     Stepmaniac:
     Hard:
     16:
     0,0,0,0,0:
0000
0000
0000
0000
,
0000
0000
0000
0000
,
0000
0000
0000
0000
,
0000
0000
0000
0000
,
1000
0100
1000
0100
0010
0001
1000
0001
0100
0000
0010
0000
1000
0010
0100
0000
,
0010
0000
0000
1000
0000
0000
0001
0000
1001
0000
0001
1000
0001
0000
0100
0000
,
0010
0000
0000
1000
0000
0000
0001
0000
0010
0000
0000
0001
0000
0000
1000
0000
,
0010
0000
0000
0010
0000
0000
0100
0000
0010
0000
0000
1000
0010
0100
0001
0000
,
1000
0100
1000
0001
1000
0010
1000
0001
1000
0000
1000
0001
0000
0001
0100
0000
,
0001
0000
0001
1000
0000
1000
0100
0000
0010
0000
0001
1000
0001
1000
0001
0000
,
1001
0000
0001
0100
0000
0100
1000
0000
1000
0010
0000
0010
0001
0000
1000
0000
,
1001
0000
0000
0000
0000
0000
0000
0000
0000
1010
0000
0000
0000
0000
0000
0000
0000
0000
0110
0000
0000
0000
0000
0000
0101
0000
0000
0000
0000
0000
0000
0000
0000
0000
0000
0000
0001
0000
0000
0000
0100
0000
0000
0000
0010
0000
0000
0000
,
1000
0001
1000
0001
1000
0001
1000
0000
0001
1000
0001
1000
0001
1000
0001
0000
,
1000
0000
0000
0100
0000
0000
0010
0000
0000
0100
0000
0000
1000
0000
0000
0001
0000
0000
0100
0000
0000
0000
0000
0000
0001
0000
0000
0000
0010
0000
0000
0000
0100
0000
0000
0000
1000
0000
0000
0000
0000
0000
1001
0000
0000
0000
0000
0000
,
1000
0000
0100
0000
0001
0000
0100
0000
2000
0000
0000
3020
0000
0130
0001
1000
,
0001
0010
0001
0010
0100
1000
0100
1000
0000
0000
0001
1000
0001
0000
1000
0000
,
1100
0000
1000
0010
0100
0001
0010
0000
0101
0000
0001
1000
0001
0000
1000
0001
,
0010
0000
0001
1000
0100
1000
0010
0000
1000
0000
0000
1000
0001
0000
1000
0000
,
0010
1000
0100
0000
0010
0001
0100
0000
0010
1000
0100
0010
0000
0001
0000
0010
,
0000
0100
0000
1000
0000
0010
0100
0000
0001
0000
0100
0010
0000
1000
0001
1000
,
0001
0000
0001
0100
0000
0100
1000
0000
1000
0010
0000
0010
0001
0000
1000
0000
,
1001
0000
0000
0000
0000
0000
0000
0000
0000
1001
0000
0000
0000
0000
0000
0000
0000
0000
1010
0000
0000
0000
0000
0000
0101
0000
0000
0000
0000
0000
0000
0000
0000
0000
0000
0000
0001
0000
0000
0000
0100
0000
0000
0000
0010
0000
0000
0000
,
1000
0000
1000
0001
0000
0001
1000
0000
1000
0100
0000
0100
1000
0000
1001
0000
,
1001
0000
0001
0100
0000
0100
0001
0000
0001
1000
0000
1000
0010
0000
0100
0000
,
0001
1000
0001
1000
0000
0010
0000
0100
0000
0001
0010
0001
0010
0001
0010
0000
,
0100
1000
0010
0100
0000
0010
0000
1000
0000
0100
0010
0001
0100
0010
0100
0001
,
0010
0001
0010
0100
1000
0001
0000
0000
0000
1000
0100
1000
0100
0010
0001
0100
,
0010
1000
0010
1000
0001
0000
0100
0001
1000
0000
0001
0010
0100
1000
0010
0100
,
0001
0100
0001
1000
0100
1000
0001
0100
0001
1000
0100
1000
0001
0010
0100
1000
,
0001
0010
0001
1000
0010
1000
0001
0010
0001
1000
0010
1000
0001
0100
0010
1000
,
0001
0000
1000
0001
0010
0000
0000
0000
0000
0001
0010
0100
1000
0010
0100
0001
,
1000
0000
0001
1000
0001
0000
1000
0001
1000
0000
0100
1000
0010
0000
0100
0001
,
0010
0000
0010
0001
0000
0001
1000
0000
1000
0010
0000
0010
0100
0000
0001
0000
,
0101
0000
0001
0100
0000
0100
0001
0000
0001
1000
0000
1000
0100
0000
1000
0000
,
0001
0000
0010
0000
0100
0000
1000
0000
1001
0000
1000
0001
1000
0000
0010
0000
,
0100
0000
0001
0000
0010
0000
0100
0000
1100
0000
1000
0001
1000
0000
0001
0000
,
1000
0000
1000
0001
0000
0001
1000
0000
0001
0000
0100
0000
1000
0000
0100
0000
,
0001
0000
1000
0100
1000
0001
0100
0001
0010
0000
0100
1000
0000
0000
0001
0000
,
1000
0100
1000
0001
0010
0001
1000
0010
1000
0001
0100
0001
1000
0100
0010
0000
,
0001
0000
0000
1001
0000
0000
1000
0000
0100
1000
0001
1000
0010
1000
0001
0000
,
0101
0000
0001
0100
0000
0100
1000
0000
1000
0010
0000
0010
0001
0000
1000
0000
,
0011
0000
0000
0000
0000
0000
0000
0000
0000
1001
0000
0000
0000
0000
0000
0000
0000
0000
1010
0000
0000
0000
0000
0000
1100
0000
0000
0000
0000
0000
0000
0000
0000
0000
0000
0000
1000
0000
0000
0000
0001
0000
0000
0000
1000
0000
0000
0000
,
0001
0000
0100
0001
0010
0000
0001
0000
1000
0000
0100
1000
0010
0000
1000
0000
,
0001
0000
0100
0000
1000
0000
0100
0010
1000
0000
0100
1000
0001
0010
0000
0000
,
0001
0100
0010
0100
1000
0100
0010
0100
,
0001
0010
0100
0000
1000
0100
0010
0001
0000
0001
0010
0100
1000
0010
0100
0001
,
1000
0001
1000
0001
0100
0010
0100
0010
,
1000
0010
0100
0001
0010
0100
1000
0001
,
0011
1000
1010
1000
,
0001
0000
1000
0100
1000
0100
1000
0200
0000
0310
0001
1000
0010
0100
0001
0000
,
0011
1000
1010
0100
,
0001
0000
1000
0001
1000
0010
1000
0002
0000
0103
0001
0010
0001
0100
0001
0000
,
2002
0000
0000
0000
3003
0000
0000
0000
0001
1000
0001
1000
0010
0000
1000
0000
,
0100
0000
0010
0000
0001
0100
0010
0000
1010
0000
0000
1100
0000
0000
1001
0000
,
0000
1000
0000
0001
1000
0000
0100
0000
0011
0000
0000
0101
0000
0000
1001
0000
,
1010
0000
0000
1001
0000
0000
1100
0000
1001
0000
0010
0000
0001
0000
0010
0000
,
1000
0000
0001
0100
0001
0100
0001
0000
0100
0001
0100
0010
0100
1000
0100
0010
,
0100
0000
0100
0001
0000
0001
1000
0000
1100
0000
0100
1000
0000
1000
0001
0000
,
0011
0000
0001
0010
0100
1000
0001
0000
1001
0000
0001
0100
0000
0100
1000
0000
,
1000
0010
0000
0010
0001
0000
1000
0000
1010
0000
0000
1010
0000
0000
1001
0000
,
0101
0000
0000
0000
0000
0000
0000
0000
0000
0000
0000
0000
0001
0000
0000
0000
1000
0000
0000
0000
0001
0000
0000
0000
1000
0000
0000
0000
0000
0000
1000
0000
0000
0100
0000
0000
0000
0000
0000
0100
0000
0000
0001
0000
0000
0000
0000
0000
,
0001
0010
0000
0010
1000
0000
0001
0000
1010
0000
0000
1010
0000
0000
1001
0000
,
0101
0000
0000
0000
0000
0000
0000
0000
0000
0000
0000
0000
0001
0000
0000
0000
0010
0000
0000
0000
0100
0000
0000
0000
1001
0000
0000
0000
0000
0000
0000
0000
0000
1001
0000
0000
0000
0000
0000
0000
0000
0000
1010
0000
0000
0000
0000
0000
,
0101
0000
0000
0010
1000
0100
0001
0000
0000
0000
0000
0000
;

//--------------- dance-single - Stepmaniac ----------------
#NOTES:
     dance-single:
     Stepmaniac:
     Challenge:
     18:
     0,0,0,0,0:
0000
0000
0000
0000
,
0000
0000
0000
0000
,
0000
0000
0000
0000
,
0000
0000
0000
0000
,
1000
0100
0010
0001
0100
0010
1000
0010
0100
0000
0001
1000
0010
0100
0001
0000
,
1001
0000
0000
1000
0001
0000
0100
0000
0101
0000
0001
0010
0100
0000
1100
0000
,
1001
0000
0000
0101
0000
0000
1001
0000
0011
0000
0000
1001
0000
0000
1100
0000
,
1010
0000
0000
1010
0000
0000
0101
0000
1010
0000
0000
1000
0010
0100
0001
0000
,
1000
0000
0000
0100
0000
0000
0010
0000
0000
0001
0000
0000
1000
0000
0100
0000
1000
0000
0001
0000
0100
0000
0001
0000
0010
0000
0000
0000
0000
0000
0010
0000
0000
0001
0000
0000
0000
0000
0000
0001
0000
0000
0100
0000
0000
0000
0000
0000
,
0010
0000
0010
1000
0000
1000
0001
0000
0010
0000
0100
1000
0001
0100
0001
0000
,
1001
0000
1000
0100
0000
0100
0001
0000
0001
0010
0000
0010
1000
0000
1000
0000
,
1010
0000
0000
0000
0000
0000
0000
0000
0000
0011
0000
0000
0000
0000
0000
0000
0000
0000
1001
0000
0000
0000
0000
0000
0101
0000
0000
0000
0000
0000
0000
0000
0000
0000
0000
0000
0001
0000
0000
0000
0001
0000
0000
0000
0001
0000
0000
0000
,
1000
0100
0010
0001
1000
0100
0010
0000
0001
0010
0100
1000
0001
0010
0100
0000
,
1000
0000
0000
0100
0000
0000
0010
0000
0000
0100
0000
0000
1000
0000
0000
0001
0000
0000
0100
0000
0000
0000
0000
0000
0101
0000
0000
0000
0001
0000
0000
0000
1000
0000
0000
0000
1100
0000
0000
0000
0000
0000
1001
0000
0000
0000
0000
0000
,
1000
0100
1000
0000
0001
0000
0100
0000
0002
0000
0000
0023
0000
0130
1000
0010
,
0100
0001
0010
0001
0100
0010
1000
0001
0000
0000
1000
0001
1000
0000
0001
0000
,
1100
0000
1000
0010
0100
0001
0010
0000
0101
0000
0001
1000
0001
0100
0001
0010
,
0001
0000
1000
0010
0100
0001
1000
0000
0100
1000
0010
0100
0001
0010
0100
1000
,
0010
1000
0100
0000
0010
0001
0100
0000
0010
1000
0100
0010
0001
1000
0010
0100
,
0000
0101
0000
0001
0010
0100
1000
0000
0001
0000
1000
0010
0000
1000
0100
0010
,
0001
0000
0001
0100
0000
0100
1000
0000
1000
0010
0000
0010
0001
0000
1000
0000
,
1001
0000
0000
0000
0000
0000
0000
0000
0000
0101
0000
0000
0000
0000
0000
0000
0000
0000
0011
0000
0000
0000
0000
0000
0101
0000
0000
0000
0000
0000
0000
0000
0000
0000
0000
0000
0001
0000
0000
0000
0001
0000
0000
0000
0001
0000
0000
0000
,
1000
0000
1000
0001
0000
0001
0100
0000
0100
0001
0000
0001
1000
0010
0001
0010
,
1000
0000
0001
0100
0000
0100
0001
0000
0001
0010
0000
0010
0001
0010
1000
0010
,
0001
0100
0010
1000
0000
0010
0000
0100
0000
0001
0010
0100
1000
0001
1000
0000
,
0100
0010
0001
1000
0000
0001
0000
0010
0000
0100
1000
0010
0100
0001
0010
0100
,
1000
0100
0001
0100
0010
0100
0000
1000
0000
0001
0100
0010
1000
0010
0100
0001
,
1000
0100
1000
0100
0010
0000
0001
0100
0001
0000
1000
0100
0010
0001
0100
0010
,
1000
0100
0001
1000
0010
0001
1000
0010
0001
1000
0100
0001
1000
0100
0001
0100
,
1000
0100
0001
1000
0010
0001
1000
0010
0001
1000
0100
0001
1000
0100
0001
0100
,
1000
0000
0001
0100
0010
0000
1000
0000
0001
0100
0010
1000
0100
0010
0001
0100
,
0010
0000
0010
0100
0001
0000
0001
1000
0100
0000
0100
1000
0010
1000
0010
1000
,
0001
0000
1000
0001
1000
0001
0100
0000
0001
0000
1000
0001
1000
0001
0100
0000
,
0001
0000
0010
0001
0010
0001
0100
0000
0001
0000
0010
0001
1000
0010
0100
0000
,
0001
0000
1000
0001
1000
0000
0001
0000
0101
0000
0001
1000
0010
1000
0100
1000
,
0001
0000
0100
0001
0010
0000
0001
0000
0101
0000
1000
0010
0100
0001
1000
0100
,
1000
0000
1000
0001
0000
0001
0100
0000
0001
0000
0010
0000
0100
0000
1000
0000
,
1001
0000
1000
0100
0001
0100
1000
0001
0010
0000
0100
1000
0000
0000
0001
0000
,
1000
0100
0010
0001
0100
0010
1000
0100
0010
0001
0100
0010
0100
0001
0010
0100
,
1000
0000
0000
1001
0000
0000
0001
0000
1000
0100
0010
0001
1000
0010
0100
0000
,
1001
0000
0001
0100
0000
0100
1000
0000
1000
0010
0000
0010
0001
0000
1000
0000
,
1001
0000
0000
0000
0000
0000
0000
0000
0000
1010
0000
0000
0000
0000
0000
0000
0000
0000
0110
0000
0000
0000
0000
0000
0101
0000
0000
0000
0000
0000
0000
0000
0000
0000
0000
0000
0001
0000
0000
0000
0001
0000
0000
0000
0001
0000
0000
0000
,
0101
0000
0100
0001
0010
0000
0001
0000
0101
0000
0100
0001
0010
0000
0001
0000
,
1000
0000
0100
0000
0001
0000
0100
1000
0001
0000
0100
0001
1000
0010
0000
0000
,
1000
0100
0010
0100
0001
0100
0010
0100
,
1000
0010
0100
0000
0001
0100
0010
1000
0000
0100
1000
0010
0100
0001
0010
0000
,
0001
0100
0001
0100
0010
1000
0010
1000
0100
1000
0100
1000
0010
1000
0010
1000
,
0001
0100
0010
1000
0001
0100
0010
1000
0001
0010
0100
1000
0010
0100
0001
0000
,
1001
0000
1000
0001
0000
1000
0000
0001
0010
0000
0100
0000
1000
0000
0001
0000
,
1001
0000
1000
0100
0001
0100
1000
0001
0000
0001
1000
0010
0001
0010
0100
0000
,
1010
0000
1000
0010
0000
0100
0001
0010
0100
0010
0100
0000
1000
0000
0001
0000
,
1010
0000
1000
0010
1000
0001
0100
0001
0000
1000
0010
0100
0010
1000
0100
0000
,
2002
0000
0003
0000
0020
0000
0030
0000
3001
0100
0010
1000
0100
0000
1000
0010
,
0100
0000
0001
0000
0010
0100
1000
0000
1001
0000
1000
0001
1000
0000
0001
0000
,
0101
0000
0001
0100
0010
1000
0100
0010
0001
0000
0001
0010
0000
0010
0100
0000
,
1000
0000
1000
0010
0000
0010
0100
0000
1001
0000
0010
0000
0001
0000
0010
0000
,
1000
0000
0000
0000
0000
0000
0001
0000
0000
1000
0000
0000
0010
0000
0000
0100
0000
0000
0001
0000
0000
0000
0000
0000
1000
0000
0000
0010
0000
0000
0100
0000
0000
0001
0000
0000
1000
0000
0100
0000
0010
0000
0100
0000
1000
0000
0001
0000
,
0100
0000
0100
0001
1000
0010
0100
0000
0101
0000
0001
1000
0000
1000
0010
0000
,
0110
0000
0010
0100
0001
1000
0100
0000
1001
0000
1000
0100
0000
0100
0001
0000
,
0001
0010
0000
0010
1000
0000
1000
0000
1001
0000
0000
1010
0000
0000
0110
0000
,
0101
0000
0000
0000
0000
0000
0000
0000
0000
0000
0000
0000
0001
0000
0000
0000
0001
0000
0000
0000
0001
0000
0000
0000
1001
0000
0000
0000
0000
0000
0001
0000
0000
0100
0000
0000
0000
0000
0000
0100
0000
0000
1000
0000
0000
0000
0000
0000
,
1000
0010
0000
0010
0001
0000
1000
0000
1001
0000
0000
0110
0000
0000
1010
0000
,
0101
0000
0000
0000
0000
0000
0000
0000
0000
0000
0000
0000
0001
0000
0000
0000
0001
0000
0000
0000
0001
0000
0000
0000
1001
0000
0000
0000
0000
0000
0000
0000
0000
1010
0000
0000
0000
0000
0000
0000
0000
0000
0110
0000
0000
0000
0000
0000
,
0101
0000
0000
1000
0100
0001
1001
0000
0000
0000
0000
0000
;
