#VERSION:0.82;
#TITLE:Gale Rider;
#SUBTITLE:;
#ARTIST:P*Light;
#TITLETRANSLIT:;
#SUBTITLETRANSLIT:;
#ARTISTTRANSLIT:;
#GENRE:;
#ORIGIN:;
#CREDIT:;
#BANNER:Gale Rider.png;
#BACKGROUND:Gale Rider-bg.png;
#PREVIEWVID:;
#JACKET:Gale Rider-jacket.png;
#CDIMAGE:;
#DISCIMAGE:;
#LYRICSPATH:;
#CDTITLE:;
#MUSIC:Gale Rider.mp3;
#OFFSET:-3.089001;
#SAMPLESTART:82.670776;
#SAMPLELENGTH:14.999999;
#SELECTABLE:YES;
#BPMS:0.000=193.000,
173.000=96.500,
190.000=193.000;
#STOPS:63.500=0.311,
66.500=0.311,
69.500=0.311,
173.000=1.865;
#DELAYS:;
#WARPS:;
#TIMESIGNATURES:0.000=4=4;
#TICKCOUNTS:0.000=4;
#COMBOS:0.000=1;
#SPEEDS:0.000=1.000=0.000=0;
#SCROLLS:0.000=1.000;
#FAKES:;
#LABELS:0.000=Song Start;
#BGCHANGES:;
#KEYSOUNDS:;
#ATTACKS:
;

//---------------dance-single - ----------------
#NOTEDATA:;
#CHARTNAME:;
#STEPSTYPE:dance-single;
#DESCRIPTION:;
#CHARTSTYLE:;
#DIFFICULTY:Hard;
#METER:13;
#RADARVALUES:0.672472,0.753589,0.580007,0.151306,0.222756,473.000000,69.000000,18.000000,0.000000,0.000000,0.000000,0.000000,0.000000,0.672472,0.753589,0.580007,0.151306,0.222756,473.000000,69.000000,18.000000,0.000000,0.000000,0.000000,0.000000,0.000000;
#CREDIT:;
#NOTES:
0000
0000
0000
0000
,
0000
0000
0000
0000
,
0000
0000
0000
0000
,
0000
0000
0000
0000
,
2002
0000
0000
3003
,
1100
0000
0000
0101
0000
0000
1001
0000
0000
0000
1010
0000
0000
0000
0011
0000
,
2001
0000
0000
0000
,
0010
0010
0010
3100
,
0001
0000
0000
0010
0000
0000
0001
0000
0000
0100
0000
0000
0110
0000
0000
0000
,
1000
0000
0000
0010
0000
0000
1000
0000
0000
0100
0000
0000
0110
0000
0000
0000
,
0001
0000
0000
1000
0000
0000
0010
0000
0000
0100
0000
0000
0110
0000
0000
0000
,
1000
0000
0100
0000
0010
0010
0001
0001
,
1000
0000
0000
0010
0000
0000
0100
0000
0000
0001
0000
0000
1001
0000
0000
0000
,
0001
0000
0000
0010
0000
0000
0100
0000
0000
1000
0000
0000
1001
0000
0000
0000
,
1000
0000
0000
0001
0000
0000
0010
0000
0000
0001
0000
0000
1001
0000
0000
0000
,
1000
0100
1000
0100
0010
0010
0001
0001
,
1001
0000
1000
0010
0100
0001
1001
0000
,
0001
0010
0100
1000
1001
0000
1000
0010
,
0100
0001
1000
0100
1000
0010
0100
0100
,
0001
0000
0001
0000
1001
0000
0000
1001
0000
0000
1000
0000
1010
0000
0000
1010
,
0000
0000
0010
0000
0110
0000
0000
0110
0000
0000
0100
0000
0101
0000
0000
0101
,
0000
0000
0101
0000
0000
0000
1001
0000
1001
0000
0000
1010
0000
0000
0101
0000
,
0001
1000
0001
1000
0010
0100
0010
0100
,
0020
0030
0220
0000
0000
0000
0000
0000
,
0330
0000
2002
0000
0000
0000
3003
1010
,
0000
0101
0202
0000
0000
0000
0000
0000
,
0303
0000
1100
1100
0000
0011
0000
0101
,
0101
0000
1000
0010
1000
0010
0100
0001
,
0100
0001
1000
0100
1000
0100
0010
0001
,
0010
0000
0001
0100
0010
0100
0001
0010
,
0100
0010
0002
0000
0000
0000
0000
0000
,
1003
0000
0000
0000
1000
0000
0000
0010
0000
0000
0001
0000
0000
0010
0000
0000
,
1010
0000
0000
0000
1000
0000
0000
0100
0000
0000
0001
0000
0000
0100
0000
0000
,
1100
0000
0000
0000
1000
0000
0000
0010
0000
0000
0100
0000
0000
0001
0000
0000
,
1001
0000
0001
0000
0010
0000
0100
0100
,
1000
0000
1000
0000
0001
0000
0000
0010
0000
0000
1000
0000
0000
0010
0000
0000
,
0011
0000
0000
0000
0001
0000
0000
0100
0000
0000
1000
0000
0000
0100
0000
0000
,
0101
0000
0000
0000
0001
0000
0000
0010
0000
0000
0100
0000
0000
1000
0000
0000
,
1001
0000
1000
0010
1000
0010
0100
0100
,
0001
0001
1000
0010
1000
0010
0100
0100
,
0001
0001
1000
0010
1000
0010
0100
0100
,
0001
0001
1000
1000
0010
0010
1000
1000
,
0010
0000
0010
0000
1000
0100
1000
0000
0001
0100
0001
0000
1000
0010
1000
0000
,
0001
0010
0001
0000
1000
0000
0000
0000
0001
0000
0000
1000
0000
0000
0010
0000
,
0000
1000
0000
0000
0100
0000
0000
0010
0000
0000
0001
0000
0000
0001
0000
0000
,
1000
0000
0000
1000
0000
0000
1000
0000
0010
0000
0000
0100
0000
0000
0010
0000
,
0000
1000
0000
0000
0001
0000
0000
0010
0000
0000
0100
0000
0000
0100
0000
0000
,
1000
0000
0000
1000
0000
0000
1000
0000
0010
0000
0000
0000
0010
0000
0000
0000
,
0010
1000
0100
0010
0001
0000
0001
0000
,
0001
1000
0001
0000
1000
0000
1000
0000
,
1000
0010
0100
0001
0010
0000
0010
0000
,
0010
0100
0010
0000
1001
0000
1000
0000
,
1000
0001
0100
0010
0110
0000
0100
0000
,
0100
0001
0010
0100
1100
0000
1000
0000
,
1000
0001
0100
0010
0000
1010
0000
0011
,
0110
1100
1001
0000
0110
0000
0000
0000
,
1001
0000
0011
1010
,
2001
0000
3010
0000
0001
0010
0001
0010
,
0001
0100
0010
1000
0100
0010
0100
0010
,
0100
1000
0100
0000
1000
0000
0000
0000
0001
0000
0100
0000
0001
0000
0100
0000
,
0001
0010
0100
1000
0010
0100
0010
0100
,
0010
1000
0010
0000
1000
0000
0000
0000
0100
0000
1000
0000
0100
0000
1000
0000
,
0010
0100
0001
0010
0100
0010
0100
0010
,
0100
1000
0100
0000
1000
0000
0000
0000
0001
0000
0100
0000
0001
0000
0100
0000
,
0010
1000
0100
0010
0001
0001
1000
1000
,
0020
0000
0130
0000
1000
0010
0001
0010
,
1000
0100
0010
0001
1000
0100
0001
0100
,
1000
0010
1000
0000
0001
0000
0000
0000
0001
0000
0010
0000
1000
0000
0010
0000
,
0001
0100
0010
1000
0001
0100
1000
0100
,
0001
0010
0001
0000
1000
0000
0000
0000
0001
0000
0100
0000
1000
0000
0100
0000
,
0001
0010
0100
1000
0001
1000
0010
0001
,
0010
1000
0010
0000
1000
0000
0000
0000
1000
0000
0010
0000
0001
0000
0010
0000
,
1000
0010
0100
0001
1000
1000
0001
0001
,
0200
0000
0310
0000
1000
0100
1000
0100
,
0010
1000
0010
0100
1000
0010
0100
0001
,
1000
0000
0100
0000
0001
0000
0100
0000
2000
0000
0000
0000
3010
0000
0100
0001
,
0200
0000
0000
0000
0301
0000
0010
0001
0010
0000
0100
0000
0010
0000
0100
0000
,
0010
0000
0010
0000
0001
0000
1000
0000
0002
0000
0000
0000
0013
0000
0100
1000
,
0200
0000
1300
1100
0011
0000
0000
0101
,
1010
0000
1100
0000
1000
0010
0100
0001
,
1000
0100
0010
0001
0000
1001
0000
0101
,
0110
1010
0110
0000
1001
0000
0000
0000
;

//---------------dance-single - ----------------
#NOTEDATA:;
#CHARTNAME:;
#STEPSTYPE:dance-single;
#DESCRIPTION:;
#CHARTSTYLE:;
#DIFFICULTY:Medium;
#METER:10;
#RADARVALUES:0.527170,0.650827,0.226959,0.226959,0.126089,385.000000,27.000000,27.000000,0.000000,0.000000,0.000000,0.000000,0.000000,0.527170,0.650827,0.226959,0.226959,0.126089,385.000000,27.000000,27.000000,0.000000,0.000000,0.000000,0.000000,0.000000;
#CREDIT:;
#NOTES:
0000
0000
0000
0000
,
0000
0000
0000
0000
,
0000
0000
0000
0000
,
0000
0000
0000
0000
,
2002
0000
0000
3003
,
1000
0000
0000
0001
0000
0000
1000
0000
0000
0000
0010
0000
0000
0000
0100
0000
,
0210
0000
0000
0000
,
0001
0001
0001
0310
,
0001
0000
0000
0010
0000
0000
0001
0000
0000
0010
0000
0000
0001
0000
0000
0000
,
1000
0000
0000
0010
0000
0000
1000
0000
0000
0010
0000
0000
1000
0000
0000
0000
,
0001
0000
0000
0100
0000
0000
0001
0000
0000
0100
0000
0000
0001
0000
0000
0000
,
1000
0000
0001
0000
1000
0001
1000
0001
,
1000
0000
0000
0100
0000
0000
1000
0000
0000
0100
0000
0000
1000
0000
0000
0000
,
0001
0000
0000
0100
0000
0000
0001
0000
0000
0100
0000
0000
0001
0000
0000
0000
,
1000
0000
0000
0010
0000
0000
1000
0000
0000
0010
0000
0000
1000
0000
0000
0000
,
0010
0000
0100
0000
0010
0100
0010
0100
,
0110
1000
0001
1001
,
0100
0010
0110
1000
,
0001
0000
0100
0000
0010
0000
0100
0010
,
0100
0000
0010
0000
1010
0000
0000
1010
0000
0000
0000
0000
0011
0000
0000
0011
,
0000
0000
0000
0000
0110
0000
0000
0110
0000
0000
0000
0000
1001
0000
0000
1001
,
0000
0000
1001
0000
0000
0000
1000
0000
0001
0000
0000
1000
0000
0000
0001
0000
,
1000
0010
1000
0010
0100
0001
0100
0001
,
0100
0220
0000
0000
,
0330
0000
2002
0000
0000
0000
3003
1001
,
0000
0200
0020
0000
0000
0000
0000
0000
,
0330
0000
1010
1010
0000
0101
0000
0001
,
1000
0000
0001
0010
0001
0000
1000
0010
,
1000
0000
0001
0100
0001
0000
1000
0100
,
1000
0000
0010
0100
0010
0100
0001
1000
,
0001
1000
0002
0000
0000
0000
0000
0000
,
1003
0000
0000
0000
0001
0000
0000
0010
0000
0000
0100
0000
0000
0010
0000
0000
,
0001
0000
0000
0000
1000
0000
0000
0010
0000
0000
0100
0000
0000
0010
0000
0000
,
1000
0000
0000
0000
0001
0000
0000
1000
0000
0000
0010
0000
0000
1000
0000
0000
,
0001
0000
1000
0000
0100
0000
1000
0100
,
1000
0000
0100
0000
1000
0000
0000
0010
0000
0000
0100
0000
0000
0001
0000
0000
,
0010
0000
0000
0000
0001
0000
0000
0100
0000
0000
0010
0000
0000
1000
0000
0000
,
0100
0000
0000
0000
1000
0000
0000
0001
0000
0000
0010
0000
0000
0001
0000
0000
,
1000
0000
0001
0000
0010
0000
0001
0010
,
0001
0010
0100
0000
1000
0000
0100
1000
,
0100
1000
0010
0000
0100
0000
0010
0100
,
0010
0100
0001
1000
0001
0000
1000
0001
,
1000
0000
0001
0100
0001
1000
0001
0100
,
0001
1000
0010
0000
2000
0000
0000
0000
,
3200
0000
0320
0000
,
0032
0000
2003
0000
,
3020
0000
0230
0000
,
0302
0000
1003
1000
,
1000
1000
0001
0001
,
0001
0001
0100
0100
,
0100
0100
0010
0010
,
0010
0010
1000
1000
,
1000
1000
0100
0100
,
0100
0100
0010
0010
,
0010
0000
0010
0000
0000
0001
0000
1000
,
0001
1000
0001
0000
1001
0000
0000
0000
,
0110
0000
1000
0001
,
2002
0000
3003
0000
0001
0010
0001
0000
,
1000
0010
0100
0001
1000
0010
1000
0000
,
0100
0010
0100
0000
1000
0010
1000
0000
,
0001
0010
0100
1000
0001
0100
0001
0000
,
0010
0100
0010
0000
0001
1000
0001
0000
,
1000
0001
0010
0100
1000
0010
1000
0000
,
0001
0010
0001
0000
1000
0001
1000
0000
,
0001
1000
0010
0100
0001
0010
0001
0010
,
0002
0000
1003
0000
0001
0010
0100
0000
,
1000
0010
1000
0010
1000
0100
0010
0000
,
0001
1000
0001
0000
1000
0010
0100
0000
,
0001
0010
0001
0010
0001
0100
0010
0000
,
1000
0001
1000
0000
0001
0100
0010
0000
,
1000
0001
1000
0001
1000
0100
0010
0000
,
0001
0010
0001
0000
1000
0010
1000
0000
,
0100
0010
0001
0010
0100
1000
0100
1000
,
0200
0000
0310
0000
0001
0100
0001
0000
,
0100
0010
0100
0000
0010
1000
0010
0000
,
1000
0100
0010
0100
2000
0000
3001
0000
,
0200
0000
0310
0000
1000
0100
0010
0100
,
1000
0001
1000
0000
2002
0000
0000
0000
,
0000
0000
3003
1000
0002
0000
0000
1003
,
1001
0000
0110
0000
1000
0100
0010
0001
,
1000
0010
0100
0001
0000
0010
0000
0100
,
1000
0001
1000
0000
1001
0000
0000
0000
;

//---------------dance-single - ----------------
#NOTEDATA:;
#CHARTNAME:;
#STEPSTYPE:dance-single;
#DESCRIPTION:;
#CHARTSTYLE:;
#DIFFICULTY:Easy;
#METER:7;
#RADARVALUES:0.435906,0.548065,0.235365,0.210148,0.004203,310.000000,28.000000,25.000000,0.000000,0.000000,0.000000,0.000000,0.000000,0.435906,0.548065,0.235365,0.210148,0.004203,310.000000,28.000000,25.000000,0.000000,0.000000,0.000000,0.000000,0.000000;
#CREDIT:;
#NOTES:
0000
0000
0000
0000
,
0000
0000
0000
0000
,
0000
0000
0000
0000
,
0000
0000
0000
0000
,
2002
0000
0000
3003
,
1000
0000
0000
1000
0000
0000
1000
0000
0000
0000
0001
0000
0000
0000
1000
0000
,
0002
0000
0000
0000
,
1000
1000
1000
0013
,
1000
0100
1000
1100
,
0001
0100
0001
0101
,
1000
0100
1000
1100
,
0001
0000
1000
0000
0001
1000
0001
0000
,
1000
0010
1000
1010
,
0001
0010
0001
0011
,
1000
0010
1000
1010
,
0100
0000
0010
0000
0100
0010
0100
0000
,
1001
0001
1000
1001
,
1000
0001
1001
0001
,
1000
0000
0010
0000
0100
0000
0010
0100
,
0010
1100
0000
0101
,
0000
1010
0000
0011
,
0000
0000
0000
1000
0001
0000
1000
0000
,
0010
0010
0100
0100
,
0100
0220
0000
0000
,
0330
0000
2002
0000
0000
0000
3003
1000
,
0000
0001
2000
0000
0000
0000
0000
0000
,
0000
0000
3010
0100
0000
0010
0000
0100
,
0010
1000
0100
1000
,
0100
0010
0001
0010
,
0001
0100
0010
0100
,
0010
0210
0000
0000
,
0310
0001
0010
0100
,
1100
1000
0010
0100
,
0101
0001
0010
0100
,
1100
0000
1000
0000
0010
0000
0100
0010
,
0100
0001
0010
0001
,
0101
1000
0100
1000
,
1010
0001
0010
0001
,
0101
0000
1000
0000
0001
0000
1000
0001
,
1000
0000
0010
0000
0100
0000
0010
0100
,
0010
0000
1000
0000
0001
0000
1000
0001
,
1000
0010
0010
0100
,
0100
0000
0010
0100
0010
0100
0010
0100
,
0010
0100
0010
0000
2000
0000
0000
0000
,
3200
0000
0320
0000
,
0032
0000
2003
0000
,
3020
0000
0230
0000
,
0302
0000
1003
1000
,
1000
1000
0010
0010
,
0010
0010
0100
0100
,
0100
0100
0001
0001
,
0001
0001
1000
1000
,
1000
1000
0100
0100
,
0100
0100
0010
0010
,
0010
0000
0010
0000
0000
0001
0000
1000
,
0001
1000
0001
0000
1001
0000
0000
0000
,
0110
0000
1000
0001
,
2002
3003
0001
0010
,
0001
0100
0010
1000
,
0100
1000
0100
0000
1000
0000
0010
0000
,
1000
0100
0010
0001
,
0100
0010
0100
0000
0001
0000
0010
0000
,
0001
0100
0010
0100
,
0001
0010
0001
0000
1000
0000
0010
0000
,
0100
0000
0010
0000
1000
0000
0100
0010
,
0200
1300
0001
1000
,
0010
0100
0010
1000
,
0001
1000
0001
0000
0010
0000
0100
0000
,
0010
0001
0100
0010
,
0100
0010
0100
0000
0001
0000
0010
0000
,
0100
1000
0001
0100
,
0010
1000
0010
0000
1000
0000
0100
0000
,
0010
0000
0001
0000
1000
0000
0010
0100
,
0020
1030
0001
0010
,
0001
0100
0001
0000
1000
0000
0010
0000
,
1000
0100
1000
0000
0002
0000
0013
0000
,
2000
0000
3010
0000
1000
0001
1000
0000
,
0001
1000
0001
0000
2002
0000
0000
0000
,
0000
0000
3003
1000
0001
0000
0000
0100
,
0010
0000
0100
0000
0001
1000
0001
1000
,
0001
1000
0001
1000
0000
0001
0000
1000
,
0010
0100
0010
0000
1001
0000
0000
0000
;

//---------------dance-single - ----------------
#NOTEDATA:;
#CHARTNAME:;
#STEPSTYPE:dance-single;
#DESCRIPTION:;
#CHARTSTYLE:;
#DIFFICULTY:Beginner;
#METER:4;
#RADARVALUES:0.220955,0.411049,0.184930,0.042030,0.000000,157.000000,22.000000,5.000000,0.000000,0.000000,0.000000,0.000000,0.000000,0.220955,0.411049,0.184930,0.042030,0.000000,157.000000,22.000000,5.000000,0.000000,0.000000,0.000000,0.000000,0.000000;
#CREDIT:;
#NOTES:
// measure 0
0000
0000
0000
0000
,  // measure 1
0000
0000
0000
0000
,  // measure 2
0000
0000
0000
0000
,  // measure 3
0000
0000
0000
0000
,  // measure 4
1001
0000
0000
0000
,  // measure 5
0110
0000
0000
0000
,  // measure 6
2002
0000
0000
0000
,  // measure 7
0000
0000
0000
3003
,  // measure 8
1000
0000
1000
0000
,  // measure 9
0001
0000
0001
0000
,  // measure 10
1000
0000
1000
0000
,  // measure 11
0010
0000
0010
0010
,  // measure 12
0010
0000
0010
0000
,  // measure 13
0100
0000
0100
0000
,  // measure 14
0010
0000
0010
0000
,  // measure 15
1000
0000
1000
1000
,  // measure 16
1001
0000
0000
1001
,  // measure 17
0000
0000
1001
0000
,  // measure 18
0000
0001
0001
0001
,  // measure 19
0000
0100
0000
0100
,  // measure 20
0000
0010
0000
0010
,  // measure 21
0000
1000
0000
1000
,  // measure 22
1000
0000
1000
0000
,  // measure 23
0000
1001
0000
0000
,  // measure 24
0000
0110
0000
0000
,  // measure 25
0000
1001
0000
0000
,  // measure 26
0000
1000
0000
0001
,  // measure 27
0000
0100
0000
0100
,  // measure 28
0000
0010
0000
0010
,  // measure 29
0000
1000
0000
1000
,  // measure 30
0000
0002
0000
0000
,  // measure 31
0003
0001
0000
0001
,  // measure 32
0000
0010
0000
0010
,  // measure 33
0000
0100
0000
0100
,  // measure 34
0000
1000
1000
1000
,  // measure 35
1000
1000
0000
1000
,  // measure 36
0000
0010
0000
0010
,  // measure 37
0000
0100
0000
0100
,  // measure 38
0000
0001
0001
0001
,  // measure 39
0000
1000
1000
1000
,  // measure 40
0000
0010
0010
0010
,  // measure 41
0000
0100
0000
0100
,  // measure 42
0000
0100
0100
0100
,  // measure 43
0100
0100
0100
0000
,  // measure 44
0010
0000
1000
0000
,  // measure 45
1000
0000
0100
0000
,  // measure 46
0010
0000
0001
0000
,  // measure 47
0001
0000
1000
0000
,  // measure 48
0000
0000
0100
0000
,  // measure 49
0000
0000
0010
0000
,  // measure 50
0000
0000
0010
0000
,  // measure 51
0000
0000
1001
0000
,  // measure 52
0000
0000
0110
0000
,  // measure 53
0000
0000
1001
0000
,  // measure 54
0000
0000
0000
0010
,  // measure 55
0010
0000
0110
0000
,  // measure 56
0110
0000
0110
0110
,  // measure 57
0110
0000
1001
0000
,  // measure 58
0100
0000
0010
0000
,  // measure 59
0001
0001
0001
0000
,  // measure 60
0100
0000
0010
0000
,  // measure 61
1000
1000
1000
0000
,  // measure 62
0100
0000
0010
0000
,  // measure 63
0001
0001
0001
0000
,  // measure 64
0100
0000
0010
0010
,  // measure 65
0010
0000
1000
0000
,  // measure 66
0100
0000
0010
0000
,  // measure 67
0001
0001
0001
0000
,  // measure 68
1000
0000
0010
0000
,  // measure 69
0100
0100
0100
0000
,  // measure 70
0001
0000
0010
0000
,  // measure 71
0001
0001
0001
0000
,  // measure 72
1000
0000
0100
0100
,  // measure 73
0100
0000
0010
0000
,  // measure 74
0001
0000
0100
0000
,  // measure 75
0010
0000
2000
3000
,  // measure 76
1000
0000
0002
0003
,  // measure 77
0001
0000
1001
0000
,  // measure 78
0000
0000
0110
0000
,  // measure 79
0110
0000
1000
0000
,  // measure 80
0001
0000
0000
0010
,  // measure 81
0010
0000
1001
0000
;
