#TITLE:CRITICAL LINE;
#SUBTITLE:;
#ARTIST:Ryu☆ feat. kradness;
#TITLETRANSLIT:;
#SUBTITLETRANSLIT:;
#ARTISTTRANSLIT:Ryu* feat. kradness;
#GENRE:;
#CREDIT:;
#BANNER:CRITICAL LINE.png;
#BACKGROUND:CRITICAL LINE-bg.png;
#LYRICSPATH:;
#CDTITLE:;
#MUSIC:CRITICAL LINE.mp3;
#OFFSET:-0.400000;
#SAMPLESTART:59.873653;
#SAMPLELENGTH:15.000000;
#SELECTABLE:YES;
#BPMS:0.000000=128.000000
;
#STOPS:
;
#BGCHANGES:;
#KEYSOUNDS:;
#ATTACKS:;

//---------------dance-single - ----------------
#NOTES:
     dance-single:
     :
     Hard:
     11:
     0.542854,0.562418,0.367189,0.179325,0.196403,381.000000,43.000000,21.000000,0.000000,0.000000,0.000000,0.542854,0.562418,0.367189,0.179325,0.196403,381.000000,43.000000,21.000000,0.000000,0.000000,0.000000:
// measure 0
0000
0000
0000
0000
,  // measure 1
0000
0000
0000
0000
,  // measure 2
0000
0000
0000
0000
,  // measure 3
0000
0000
0000
0000
,  // measure 4
0001
0100
0001
0100
0010
1000
0010
1000
,  // measure 5
0100
1000
0100
1000
0001
0010
0001
0010
,  // measure 6
0001
0100
0010
0100
0001
0010
0100
0010
,  // measure 7
0001
1000
0010
1000
0100
0010
0110
0000
,  // measure 8
1001
0000
1000
0100
0000
0000
0001
0100
0000
0000
1000
0000
0010
0000
0100
0000
,  // measure 9
0001
0011
1000
1010
,  // measure 10
0001
0000
1000
0010
0000
0000
0001
0010
0000
0000
1000
0000
0001
0000
0100
0000
,  // measure 11
0010
0000
0000
0000
1000
0100
0010
0001
1000
0000
0000
0000
0000
0000
0000
0000
,  // measure 12
1001
0000
0001
1000
0000
0000
1000
0001
0000
0000
0100
0000
0010
0000
1000
0000
,  // measure 13
0100
1100
0010
0011
,  // measure 14
0001
0000
0100
0010
0000
0000
0010
0100
0000
0000
0001
0000
1000
0000
0010
0000
,  // measure 15
0000
0000
0101
0000
0000
0000
0011
1000
,  // measure 16
1010
0000
0100
0010
0100
0000
0001
0000
0010
0100
0010
0000
0001
0000
0000
0000
,  // measure 17
1000
0000
0010
0100
0010
0000
1000
0000
0100
0010
0100
0000
1000
0000
0001
0000
,  // measure 18
0000
0000
1000
0010
1000
0000
0001
0010
0001
0000
1000
0010
1000
0000
0001
0000
,  // measure 19
0010
0000
0100
0000
1000
0010
0000
0000
0200
0000
0000
0302
0000
0000
1003
0000
,  // measure 20
1001
0000
0001
1000
0001
0000
0010
0000
0001
1000
0001
0000
0100
0000
0000
0000
,  // measure 21
0010
0000
1000
0001
1000
0000
0100
0000
1000
0001
1000
0000
0010
0000
0100
0000
,  // measure 22
0000
0000
0001
0100
0001
0000
1000
0100
1000
0000
0001
0100
0001
0000
1000
0000
,  // measure 23
0010
0000
0100
0000
0001
0000
0000
0000
1000
0000
0000
0010
0100
0000
0001
0000
,  // measure 24
2001
0010
0010
3010
,  // measure 25
0002
0010
0010
0013
,  // measure 26
2000
0100
0100
3100
,  // measure 27
0002
0000
0100
0000
0100
0000
1003
0001
,  // measure 28
0020
0000
0001
0000
0001
0000
0130
1000
,  // measure 29
0020
0000
1000
0000
1000
0000
0130
0001
,  // measure 30
1000
0010
0100
0001
1000
0100
0010
0001
,  // measure 31
1001
0000
0000
0110
0000
0000
1001
0000
0000
0000
0000
0000
1000
0100
0010
0000
,  // measure 32
0120
0000
0000
0000
0031
0000
1000
0000
0001
0000
0100
0010
0000
1000
0000
0001
,  // measure 33
2000
0000
0000
0000
3010
0000
1000
0000
0100
0000
0010
0001
0000
0100
0000
0001
,  // measure 34
0020
0000
0031
1000
0010
0100
0010
1000
,  // measure 35
0100
0000
0000
0100
0010
0000
0001
0000
0011
0000
0000
0000
1010
0000
0001
0000
,  // measure 36
0201
0000
0000
0000
0310
0000
1000
0000
0100
0000
0010
0001
0000
0100
0000
0001
,  // measure 37
0020
0000
0000
0000
0031
0000
0100
0000
0010
0000
1000
0100
0000
0010
0000
0100
,  // measure 38
2000
0000
3010
0100
0001
0100
0010
1000
,  // measure 39
0100
0000
0000
0100
0010
0000
0001
0000
1001
0000
0000
0000
0110
0000
0000
0000
,  // measure 40
2001
0000
3001
0100
0001
0010
0100
1000
,  // measure 41
0000
0000
0010
0000
0100
0000
0001
0000
0000
0000
1000
0100
1000
0000
0010
0000
,  // measure 42
0210
0000
0301
0010
0100
0010
0001
1000
,  // measure 43
0000
0010
0100
0001
0000
0001
0011
1000
,  // measure 44
2010
0000
3001
0010
0001
0100
0010
0100
,  // measure 45
0000
0100
0001
0010
0000
0100
1000
0010
,  // measure 46
0100
0001
0100
0001
1000
0010
1000
0010
,  // measure 47
1000
0100
0010
0110
0000
0011
1010
0000
,  // measure 48
1002
0000
0013
0001
1000
0010
0100
0001
,  // measure 49
0000
0000
0010
0000
0001
0000
0100
0000
0000
0000
0010
1000
0010
0000
0100
0000
,  // measure 50
0102
0000
1003
0100
0010
0100
1000
0001
,  // measure 51
0000
0100
0001
0010
0000
0100
1100
0001
,  // measure 52
0102
0000
1003
0100
0010
0001
0011
1000
,  // measure 53
1010
0010
1000
0100
0000
0010
0011
1000
,  // measure 54
0100
1000
0010
0100
0001
0010
0100
1000
,  // measure 55
0001
0100
0010
0110
0000
1010
0011
0000
,  // measure 56
1001
1100
0100
0101
,  // measure 57
0010
0011
0010
1010
,  // measure 58
1000
0100
1000
0010
0100
0001
0010
0100
,  // measure 59
1000
0000
0000
0010
0000
0000
0100
0000
0002
0000
0000
0000
0000
0000
0003
0000
;

//---------------dance-single - ----------------
#NOTES:
     dance-single:
     :
     Medium:
     7:
     0.417204,0.460160,0.162246,0.170785,0.025618,303.000000,19.000000,20.000000,0.000000,0.000000,0.000000,0.417204,0.460160,0.162246,0.170785,0.025618,303.000000,19.000000,20.000000,0.000000,0.000000,0.000000:
// measure 0
0000
0000
0000
0000
,  // measure 1
0000
0000
0000
0000
,  // measure 2
0000
0000
0000
0000
,  // measure 3
0000
0000
0000
0000
,  // measure 4
0001
0010
0001
0010
0001
0010
0001
0000
,  // measure 5
1000
0010
1000
0010
1000
0010
1000
0000
,  // measure 6
0001
0100
0001
0100
0010
1000
0010
1000
,  // measure 7
0001
0010
0001
0010
0100
1000
1100
0000
,  // measure 8
1001
1000
0000
1000
0100
0000
1000
0000
,  // measure 9
0001
1001
1000
1001
,  // measure 10
0001
0010
0000
0010
0001
0000
0100
0000
,  // measure 11
0010
0000
1000
0100
0010
0000
0000
0000
,  // measure 12
1001
0001
0000
0001
0100
0000
0010
0000
,  // measure 13
1000
1001
0001
1001
,  // measure 14
1000
0010
0000
0010
1000
0000
0100
0000
,  // measure 15
0000
0000
0100
0000
0000
0000
0010
0001
,  // measure 16
1000
0010
1000
0000
0001
0010
0001
0000
,  // measure 17
1000
0100
1000
0000
0001
0100
0001
0001
,  // measure 18
0000
1000
0010
0000
1000
0100
1000
0000
,  // measure 19
0001
0000
0010
0000
0100
0000
0000
0000
2000
0000
0000
0002
0000
0000
3003
0000
,  // measure 20
1000
0100
1000
0000
0001
0100
0001
0000
,  // measure 21
1000
0010
1000
0000
0001
0010
0001
0001
,  // measure 22
0000
1000
0100
0000
0010
0001
0010
0000
,  // measure 23
0100
0000
0010
0000
0100
0000
0000
0000
0001
0000
0000
1000
0000
0000
0010
0000
,  // measure 24
0200
0001
0001
0001
,  // measure 25
0010
0010
0010
0310
,  // measure 26
0002
0010
0010
0010
,  // measure 27
1000
0000
1000
0000
1000
0000
1003
0001
,  // measure 28
0020
0000
0001
0000
0001
0000
0031
1000
,  // measure 29
0020
0000
1000
0000
1000
0000
1030
0001
,  // measure 30
0010
0001
0010
0000
0100
1000
0100
0000
,  // measure 31
1000
0000
0000
0010
0000
0000
0100
0000
0000
0000
0000
0000
0001
0000
1000
0000
,  // measure 32
2001
0000
3010
1000
0100
1000
0010
0000
,  // measure 33
1000
0000
0001
0010
0100
0010
0001
0000
,  // measure 34
1000
0000
0010
0100
0001
0100
0010
0000
,  // measure 35
1000
0000
0000
1000
0000
0000
0100
0000
0020
0000
0000
0000
0031
0000
0000
0000
,  // measure 36
1002
0000
0013
0100
1000
0100
0010
0000
,  // measure 37
0001
0000
1000
0010
0100
0010
1000
0000
,  // measure 38
0001
0000
0010
0001
0100
0001
0010
0000
,  // measure 39
0100
0000
0000
0100
0000
0000
1000
0000
0020
0000
0000
0000
0230
0000
0000
0000
,  // measure 40
0302
0000
1003
0010
1000
0100
1000
0010
,  // measure 41
0000
0100
0000
0001
0000
0010
0001
0000
,  // measure 42
2000
0000
3010
1000
0001
0100
0001
1000
,  // measure 43
0000
0100
0000
1000
0000
0010
0100
0000
,  // measure 44
0002
0000
0013
0001
0100
0010
0100
0001
,  // measure 45
0000
0010
0000
0100
0000
1000
0001
0000
,  // measure 46
2000
0000
3010
0100
0010
1000
0100
0010
,  // measure 47
0000
0001
0000
1000
0000
0010
0110
0000
,  // measure 48
1002
0000
0013
0001
1000
0010
0100
0010
,  // measure 49
0000
1000
0000
0100
0000
0010
0001
0000
,  // measure 50
2000
0000
3010
0100
0001
0010
0001
1000
,  // measure 51
0000
0010
0000
0100
0000
0001
0010
0000
,  // measure 52
0210
0000
1300
0010
0100
0001
0010
0001
,  // measure 53
0000
1000
0000
0010
0000
0100
0001
0000
,  // measure 54
2001
0000
3100
0010
0001
0100
0010
1000
,  // measure 55
0000
0001
0000
0100
0000
0010
0110
0000
,  // measure 56
1001
1100
0100
0101
,  // measure 57
0010
0011
0010
1010
,  // measure 58
0001
1000
0001
1000
0001
1000
0001
1000
,  // measure 59
0001
0000
0000
0010
0000
0000
0100
0000
2000
0000
0000
0000
0000
0000
3000
0000
;

//---------------dance-single - ----------------
#NOTES:
     dance-single:
     :
     Beginner:
     2:
     0.158586,0.204089,0.042696,0.042696,0.000000,120.000000,5.000000,5.000000,0.000000,0.000000,0.000000,0.158586,0.204089,0.042696,0.042696,0.000000,120.000000,5.000000,5.000000,0.000000,0.000000,0.000000:
// measure 0
0000
0000
0000
0000
,  // measure 1
0000
0000
0000
0000
,  // measure 2
0000
0000
0000
0000
,  // measure 3
0000
0000
0000
0000
,  // measure 4
2000
0000
3000
0000
,  // measure 5
0200
0000
0300
0000
,  // measure 6
0020
0000
0030
0000
,  // measure 7
0002
0000
0003
0001
,  // measure 8
0001
0000
0001
0000
,  // measure 9
1000
0000
1000
0000
,  // measure 10
0010
0000
0010
0000
,  // measure 11
0100
0000
0100
0000
,  // measure 12
0010
0000
0010
0000
,  // measure 13
1000
0000
1000
0000
,  // measure 14
0001
0000
0001
0000
,  // measure 15
0000
0000
0000
1000
,  // measure 16
0000
1000
1000
1000
,  // measure 17
0000
0001
0001
0001
,  // measure 18
0000
1000
1000
1000
,  // measure 19
1000
0000
1001
0000
,  // measure 20
0000
0010
0010
0010
,  // measure 21
0000
0100
0100
0100
,  // measure 22
0000
0010
0010
0010
,  // measure 23
0010
0000
0110
0000
,  // measure 24
1001
0000
0000
0000
,  // measure 25
0000
0000
0000
0100
,  // measure 26
0100
0000
0000
0000
,  // measure 27
0000
0000
0000
0001
,  // measure 28
0001
0000
0000
1000
,  // measure 29
1000
0000
0000
0010
,  // measure 30
0010
0000
0000
0000
,  // measure 31
0100
0100
0100
0000
,  // measure 32
1001
0000
0100
0000
,  // measure 33
1000
0000
0010
0000
,  // measure 34
1000
0000
0100
0000
,  // measure 35
0010
0000
0010
0010
,  // measure 36
0010
0000
0001
0000
,  // measure 37
0100
0000
0010
0000
,  // measure 38
0100
0000
0001
0000
,  // measure 39
0010
0000
0100
0100
,  // measure 40
0100
0000
1000
0000
,  // measure 41
0010
0010
0010
0000
,  // measure 42
1000
0000
0100
0000
,  // measure 43
0010
0010
0010
0000
,  // measure 44
0001
0000
0100
0000
,  // measure 45
0010
0010
0010
0000
,  // measure 46
1000
0000
0001
0000
,  // measure 47
1000
0000
0010
0010
,  // measure 48
0010
0000
1000
0000
,  // measure 49
0100
0100
0100
0000
,  // measure 50
1000
0000
0001
0000
,  // measure 51
0100
0100
0100
0000
,  // measure 52
0001
0000
0010
0000
,  // measure 53
0100
0100
0100
0000
,  // measure 54
1000
0000
0010
0000
,  // measure 55
0100
0000
0010
0110
,  // measure 56
0000
1000
0000
1000
,  // measure 57
0000
0001
0000
0001
,  // measure 58
0000
0100
0000
0100
,  // measure 59
0000
0010
0020
0030
;

//---------------dance-single - ----------------
#NOTES:
     dance-single:
     :
     Easy:
     5:
     0.304974,0.357902,0.068314,0.145168,0.000000,225.000000,8.000000,17.000000,0.000000,0.000000,0.000000,0.304974,0.357902,0.068314,0.145168,0.000000,225.000000,8.000000,17.000000,0.000000,0.000000,0.000000:
// measure 0
0000
0000
0000
0000
,  // measure 1
0000
0000
0000
0000
,  // measure 2
0000
0000
0000
0000
,  // measure 3
0000
0000
0000
0000
,  // measure 4
1000
0100
1000
0100
,  // measure 5
0010
0001
0010
0001
,  // measure 6
0100
0010
0100
0010
,  // measure 7
1000
0001
1000
1001
,  // measure 8
0110
0010
0100
0010
,  // measure 9
1000
0100
1000
0100
,  // measure 10
0010
0001
0010
0001
,  // measure 11
0100
0010
0100
0000
,  // measure 12
1001
0010
0001
0010
,  // measure 13
0001
0100
0001
0100
,  // measure 14
0010
1000
0010
1000
,  // measure 15
0000
0100
0000
0010
,  // measure 16
0001
0000
1000
0000
0001
1000
0001
0000
,  // measure 17
0100
0000
0010
0000
0100
0010
0100
0000
,  // measure 18
0010
0000
1000
0000
0010
1000
0010
0000
,  // measure 19
1000
0001
1000
0000
0002
0000
0003
0000
,  // measure 20
1000
0000
0010
0000
1000
0010
1000
0000
,  // measure 21
0001
0000
0010
0000
0001
0010
0001
0000
,  // measure 22
0100
0000
0010
0000
0100
0010
0100
0000
,  // measure 23
0001
1000
0001
0000
1000
0000
0010
0000
,  // measure 24
0200
0000
0000
0000
,  // measure 25
0320
0000
0000
0000
,  // measure 26
2030
0000
0000
0000
,  // measure 27
3002
0000
0000
1003
,  // measure 28
0020
0000
0000
1030
,  // measure 29
0200
0000
0000
1300
,  // measure 30
0002
0000
0000
1003
,  // measure 31
1001
0000
0000
0000
0000
0000
1000
0001
,  // measure 32
2000
3010
0100
0010
,  // measure 33
1000
0100
0010
0001
,  // measure 34
0100
0001
0010
0001
,  // measure 35
1000
0010
0200
0310
,  // measure 36
1002
0013
0100
0010
,  // measure 37
0001
0100
0010
1000
,  // measure 38
0100
0010
0100
1000
,  // measure 39
0001
0100
0020
1030
,  // measure 40
2001
0000
3001
0000
0010
0001
0010
0000
,  // measure 41
0001
0000
1000
0000
0001
1000
0001
0000
,  // measure 42
1000
0000
0010
0000
1000
0010
1000
0000
,  // measure 43
0001
0000
1000
0000
0001
1000
0001
0000
,  // measure 44
0010
0000
0100
0000
0010
0100
0010
0000
,  // measure 45
0100
0000
1000
0000
0100
1000
0100
0000
,  // measure 46
1000
0000
0010
0000
1000
0010
1000
0000
,  // measure 47
0001
0010
0100
1000
0000
0001
1000
0000
,  // measure 48
2001
0000
3010
0000
0100
0010
0100
0000
,  // measure 49
0001
0000
0010
0000
0001
0010
0001
0000
,  // measure 50
1000
0000
0010
0000
1000
0010
1000
0000
,  // measure 51
0100
0000
0010
0000
0100
0010
0100
0000
,  // measure 52
2000
0000
3001
0000
0100
0010
0100
0000
,  // measure 53
0002
0000
1003
0000
0100
0010
0100
0000
,  // measure 54
1000
0010
1000
0000
0001
0010
0001
0000
,  // measure 55
1000
0100
0010
0001
0000
1000
0001
0000
,  // measure 56
1001
1000
0000
1000
,  // measure 57
0000
0001
0000
0001
,  // measure 58
0100
0010
0100
0010
,  // measure 59
1000
0000
0001
0000
2000
0000
0000
3000
;
