#TITLE:under "Mebius";
#SUBTITLE:;
#ARTIST:茅原 実里;
#TITLETRANSLIT:under "Mebius";
#SUBTITLETRANSLIT:;
#ARTISTTRANSLIT:Chihara Minori;
#GENRE:ANIME;
#CREDIT:SAIKIO;
#BANNER:under Mebius-banner.png;
#BACKGROUND:under Mebius-bg.png;
#LYRICSPATH:;
#CDTITLE:Saikio Simfiles.png;
#MUSIC:under Mebius.ogg;
#OFFSET:0.155000;
#SAMPLESTART:46.644016;
#SAMPLELENGTH:16.440037;
#SELECTABLE:YES;
#BPMS:0.000000=168.000000
;
#STOPS:128.000000=0.714000
;
#BGCHANGES:;
#KEYSOUNDS:;
#ATTACKS:;

//---------------dance-single - ----------------
#NOTES:
     dance-single:
     :
     Beginner:
     3:
     0.135132,0.194769,0.000000,0.026276,0.000000,108.000000,108.000000,0.000000,3.000000,0.000000,0.000000,0.135132,0.194769,0.000000,0.026276,0.000000,108.000000,108.000000,0.000000,3.000000,0.000000,0.000000:
0000
0000
0000
0000
,
0000
0000
0000
0000
,
0000
0000
0000
0000
,
0000
0000
0000
0000
,
0000
0000
0000
0000
,
0000
0000
0000
0000
,
0000
0000
0000
0000
,
0000
0000
0000
0000
,
0000
0010
0000
0010
,
0000
0100
0000
0000
,
0000
0001
0000
0001
,
0000
1000
0000
0000
,
0000
0100
0000
0100
,
0000
0010
0000
0000
,
0000
1000
0000
0000
,
0000
0100
0000
0000
,
0000
0010
0000
0001
,
0000
0100
0000
0000
,
0000
1000
0000
0001
,
0000
0100
0000
0000
,
0000
0001
0000
0100
,
0000
1000
0000
0000
,
0000
0100
0000
0000
,
0000
0010
0000
0000
,
0000
1000
0000
1000
,
0000
0100
0000
0100
,
0000
0010
0000
0010
,
0000
0001
0000
0001
,
0000
0100
0000
0100
,
0000
1000
0000
1000
,
0000
0010
0000
0010
,
0000
0100
0000
0000
,
0000
0100
0000
0100
,
0000
0010
0000
0000
,
0000
0001
0000
0001
,
0000
0100
0000
0000
,
0000
0010
0000
0010
,
0000
1000
0000
0100
,
0000
0001
0000
0010
,
0000
0100
0000
1000
,
0000
0100
0000
0000
,
0000
0010
0000
0000
,
0000
0001
0000
0000
,
0100
0100
0000
0000
,
0000
0010
0000
1000
,
0000
0001
0000
0000
,
0000
0100
0000
0001
,
0000
1000
0000
0010
,
0000
0200
0000
0000
,
0000
0000
0000
0300
,
0000
0010
0000
0010
,
0000
0100
0000
0000
,
0000
0001
0000
0001
,
0000
0100
0000
0000
,
0000
1000
0000
0010
,
0000
0001
0000
0000
,
0000
0100
0000
0000
,
0000
0010
0000
0000
,
0000
1000
1000
0100
,
0000
0010
0000
0001
,
0000
0010
0010
0001
,
0000
0100
0000
1000
,
0000
0100
0100
0010
,
0000
1000
0000
0010
,
0000
0200
0000
0300
,
0000
0010
0000
0000
,
0000
0010
0000
0100
,
0000
1000
0000
0001
,
0000
0100
0000
0010
,
0000
0001
0000
0100
,
0000
0001
0000
0100
,
0000
1000
0000
0010
,
0000
0001
0000
0010
,
0000
0100
0000
0200
,
0000
0300
0000
0000
0000
0000
0000
0000
;

//---------------dance-single - ----------------
#NOTES:
     dance-single:
     :
     Easy:
     5:
     0.237732,0.356473,0.052551,0.175171,0.000000,190.000000,184.000000,6.000000,20.000000,0.000000,0.000000,0.237732,0.356473,0.052551,0.175171,0.000000,190.000000,184.000000,6.000000,20.000000,0.000000,0.000000:
0000
0000
0000
0000
,
0000
0000
0000
0000
,
0000
0000
0000
0000
,
0000
0000
0000
0000
,
0000
0000
0000
0000
,
0000
0000
0000
0000
,
0000
0000
0000
0000
,
0000
0000
0000
0000
,
0000
0010
0000
0100
,
0000
0001
0100
1000
,
0000
0010
0000
0010
,
0000
1000
0100
0001
,
0000
0100
0000
1000
,
0000
0010
0100
1000
,
0000
0200
0000
0310
,
0000
0020
0000
0130
,
0000
0001
0100
0010
,
0000
1000
0000
0100
,
0000
1000
0010
0100
,
0000
0001
0000
0010
,
0000
0001
0010
1000
,
0000
0100
0000
0010
,
0000
2000
0000
3001
,
0000
0002
0000
1003
,
0000
0100
0010
1000
,
0000
0100
0010
0001
,
0000
0100
0001
1000
,
0000
0010
1000
0100
,
0000
1000
0001
0100
,
0000
0010
0100
1000
,
0000
0100
0001
0010
,
0000
1000
0010
0200
,
0300
0010
0010
0000
,
1000
0000
0100
1000
,
0001
0000
1000
0100
,
0010
0010
0000
0001
,
0000
0100
0010
1000
,
0001
2000
3000
0200
,
0300
0020
0030
0002
,
0003
0200
0300
0020
,
0030
1000
0001
1000
,
1000
0000
0010
0100
,
0001
2000
3000
0100
,
0010
0002
0003
0100
,
0010
0110
0000
0110
,
1000
1100
0000
0010
,
0100
0110
0000
0110
,
0001
0011
0000
0001
,
0000
0020
0000
0230
,
0000
0320
0000
0130
,
0000
0001
0100
1000
,
0000
0100
1000
0010
,
0000
0010
0100
0100
,
0000
0010
0001
0100
,
0000
0001
1000
0100
,
0000
0001
0001
1000
,
0000
0200
0000
0310
,
0000
0020
0000
0130
,
0000
0001
0100
1000
,
0000
0100
1000
0010
,
0000
0100
0001
0010
,
0000
0100
0001
1000
,
0000
0100
1000
0001
,
0000
0010
0001
0100
,
0000
2000
0000
3001
,
0000
0002
0000
1003
,
0000
0100
0010
0010
,
1000
0100
0010
0001
,
0000
0100
0001
0001
,
0010
0100
1000
0010
,
0000
0001
1000
1000
,
0001
0100
0010
1000
,
0000
0100
0010
0010
,
1000
0100
0010
0001
,
0100
0000
0000
0000
;

//---------------dance-single - ----------------
#NOTES:
     dance-single:
     :
     Medium:
     9:
     0.329072,0.454460,0.078827,0.157654,0.000000,263.000000,254.000000,9.000000,18.000000,0.000000,0.000000,0.329072,0.454460,0.078827,0.157654,0.000000,263.000000,254.000000,9.000000,18.000000,0.000000,0.000000:
// measure 0
0000
0000
0000
0000
,  // measure 1
0000
0000
0000
0000
,  // measure 2
0000
0000
0000
0000
,  // measure 3
0000
0000
0000
0000
,  // measure 4
0000
0000
0000
0000
,  // measure 5
0000
0000
0000
0000
,  // measure 6
0000
0000
0000
0000
,  // measure 7
0000
0000
0000
0000
,  // measure 8
0000
0001
0010
0100
,  // measure 9
0000
1000
0100
0010
,  // measure 10
0000
0000
1000
0000
1000
0001
0000
0000
,  // measure 11
0001
0000
0010
1000
,  // measure 12
0000
0010
0001
0100
,  // measure 13
0000
0010
1000
0100
,  // measure 14
0000
2000
0000
3000
,  // measure 15
0010
0020
0000
0000
0000
0000
0000
0030
,  // measure 16
0000
0000
0100
0000
0100
0001
0000
0000
,  // measure 17
0100
0000
0100
0010
,  // measure 18
0000
0000
1000
0000
1000
0100
0000
0000
,  // measure 19
1000
0000
0010
0100
,  // measure 20
0000
0000
0001
0000
0001
0100
0000
0000
,  // measure 21
0001
0000
1000
0100
,  // measure 22
0010
0002
0000
0003
,  // measure 23
0100
0200
0000
0000
0000
0000
0000
0000
,  // measure 24
0300
0000
0010
1000
0010
0000
0100
0000
,  // measure 25
0001
0000
1000
0100
1000
0000
0010
0000
,  // measure 26
0100
0000
0010
0001
0010
0000
0100
0000
,  // measure 27
0010
0000
0001
0100
0001
0000
0010
0000
,  // measure 28
1000
0000
0100
0010
0001
0000
1000
0000
,  // measure 29
0100
0000
0010
0100
1000
0000
0001
0000
,  // measure 30
0100
0000
1000
0100
0001
0000
1000
0000
,  // measure 31
0001
0000
0100
0010
0100
0000
0010
0000
,  // measure 32
0100
0200
0310
0002
,  // measure 33
0103
2000
0100
0100
,  // measure 34
3100
0020
0000
1030
,  // measure 35
0100
0002
0100
0103
,  // measure 36
0010
1100
0001
0100
,  // measure 37
0010
0011
0100
1010
,  // measure 38
1000
1100
0001
0011
,  // measure 39
0010
0101
0100
1100
,  // measure 40
0010
0020
0100
0100
,  // measure 41
0130
0000
1000
0100
,  // measure 42
0010
2000
0100
3100
,  // measure 43
0020
0031
0100
1000
,  // measure 44
0001
0000
1000
0000
1000
0100
0000
0000
,  // measure 45
0020
0031
0011
0100
,  // measure 46
0100
0000
0010
0000
0010
0001
0000
0000
,  // measure 47
0200
1300
1100
0010
,  // measure 48
0010
0000
0001
1000
0001
0000
1000
0100
,  // measure 49
1000
0000
0010
0001
0010
0000
0100
0010
,  // measure 50
0100
0000
0001
0000
0001
0100
0000
0100
,  // measure 51
0010
0000
0001
0100
,  // measure 52
0010
0000
1000
0000
1000
0100
0000
1000
,  // measure 53
0100
0000
1000
0001
,  // measure 54
0100
0000
0010
0000
0010
0001
0000
0001
,  // measure 55
0100
0000
0001
0010
,  // measure 56
0100
2000
0000
3000
,  // measure 57
0100
0200
0000
0000
0000
0000
0000
0300
,  // measure 58
0000
0000
0010
0000
0010
1000
0000
1000
,  // measure 59
0100
0000
0010
0001
,  // measure 60
0010
0000
0100
0000
0100
0001
0000
0001
,  // measure 61
1000
0000
0100
1000
,  // measure 62
0010
0000
1000
0000
1000
0100
0000
0100
,  // measure 63
0001
0000
0001
0100
,  // measure 64
0010
0002
0000
0003
,  // measure 65
0010
0020
0000
0000
0000
0000
0000
0000
,  // measure 66
0030
0000
0001
0010
0100
0000
1000
0000
,  // measure 67
0100
0000
0010
1000
0010
1000
0100
0000
,  // measure 68
0010
0000
1000
0100
0010
0000
0001
0000
,  // measure 69
0010
0000
0100
0010
0001
0010
0001
0000
,  // measure 70
0100
0000
0010
1000
0100
0000
0010
0000
,  // measure 71
0001
0000
0100
1000
0010
1000
0100
0000
,  // measure 72
0010
0000
0001
0100
0010
0000
1000
0000
,  // measure 73
0100
0001
0100
0010
,  // measure 74
0100
0100
0000
0000
0000
0000
0000
0000
;

//---------------dance-single - ----------------
#NOTES:
     dance-single:
     :
     Hard:
     11:
     0.411652,0.551844,0.078827,0.201447,0.000000,329.000000,320.000000,9.000000,23.000000,0.000000,0.000000,0.411652,0.551844,0.078827,0.201447,0.000000,329.000000,320.000000,9.000000,23.000000,0.000000,0.000000:
0000
0000
0000
0000
,
0000
0000
0000
0000
,
0000
0000
0000
0000
,
0000
0000
0000
0000
,
0000
0000
0000
0000
,
0000
0000
0000
0000
,
0000
0000
0000
0000
,
0000
0000
0000
0000
,
0000
0000
0010
0000
0010
0001
0000
0000
,
0100
0000
0000
0010
0000
1000
0100
0000
,
0001
0000
0100
0000
0100
1000
0000
0100
,
1000
0000
0000
0001
1000
0000
0100
0000
,
0010
0000
1000
0000
1000
0001
0000
0001
,
0010
0000
0000
0001
0000
0010
0100
0000
,
1000
0200
0000
0300
,
0010
0002
0000
0000
0000
0000
0000
0003
,
0000
0000
0100
0000
0100
0010
0000
0010
,
1000
0000
0000
0100
0000
1000
0001
0000
,
1000
0000
0010
0000
0010
1000
0000
1000
,
0001
0000
0000
0010
0000
1000
0100
0000
,
0001
0000
1000
0000
1000
0001
0000
0001
,
0010
0000
0000
0100
0000
0010
1000
0000
,
0001
0000
0020
0000
0000
0000
0030
0001
,
0100
2000
0000
0000
0000
0000
0000
0000
,
3000
0000
0100
0010
1000
0000
0100
0000
,
0010
0000
0001
0100
0010
0000
1000
0000
,
0001
0000
1000
0100
0010
0000
0001
0000
,
0100
0000
0001
0010
0100
0000
1000
0000
,
0100
0000
1000
0010
1000
0000
0001
0000
,
0010
0000
0100
0001
0100
0000
1000
0000
,
0001
0000
1000
0100
0001
0000
0010
0000
,
0100
0000
0010
0010
0100
0010
0100
0000
,
0010
0000
1100
0000
0010
0000
0100
0001
,
1000
0000
0011
0000
0100
0000
0010
1000
,
0100
0000
2000
0000
3010
0000
1000
0001
,
0100
0000
0020
0000
1030
0000
0010
0001
,
0100
0000
0200
0000
0301
0000
1000
0010
,
1000
0002
0103
0020
,
1030
0200
0320
0032
,
0203
0320
2030
3002
,
0103
0000
0010
0100
1000
0000
0100
0000
,
0010
0100
0001
0011
,
1010
0000
1100
0000
0001
0100
0010
0000
,
0110
0000
0101
0000
0100
0010
1000
0000
,
0100
0000
1100
0000
0001
0100
0000
0010
,
1000
0000
0010
0100
0001
1000
0100
0000
,
0100
0000
0011
0000
0100
0010
0000
0001
,
0100
0010
0001
0100
,
0010
0000
1000
0100
1000
0001
0010
0001
,
0100
0010
0100
0010
1000
0100
1000
0100
,
0010
0001
0100
0000
0100
0010
0000
0010
,
1000
0000
0100
0000
0001
0010
0100
0000
,
0010
0000
1000
0000
1000
0001
0000
1000
,
0001
0000
0010
0100
1000
0000
0100
0000
,
0010
0000
0001
0000
0001
0100
0000
0100
,
0010
0000
1000
0000
1000
0010
0100
0000
,
0001
0020
1000
0130
,
0001
0010
0200
0000
0001
0000
1000
0000
,
0310
0000
0001
0000
0001
1000
0000
1000
,
0100
0000
0010
0001
0100
0010
1000
0000
,
0001
0000
0010
0000
0010
0001
0000
0001
,
1000
0000
0010
0100
1000
0100
0001
0000
,
0010
0000
1000
0000
1000
0001
0000
0001
,
0100
0000
0010
0001
0010
0100
1000
0000
,
0001
0002
0010
0103
,
0010
0100
2000
0000
0010
0000
0001
0000
,
3100
0000
0010
0100
1000
0000
0100
0010
,
0001
0000
0100
0010
1000
0002
0000
0000
,
0103
0000
1000
0010
0100
0000
0001
0100
,
0010
0000
0001
0010
0100
2000
0000
0000
,
3010
0000
0100
0001
0010
0000
0100
1000
,
0100
0000
0001
1000
0100
0020
0000
0000
,
0130
0000
0001
1000
0010
0000
0100
0001
,
0010
0000
1000
0010
0100
0001
0100
0000
,
0010
0100
0000
0000
0000
0000
0000
0000
;

//---------------dance-double - ----------------
#NOTES:
     dance-double:
     :
     Easy:
     5:
     0.220215,0.291660,0.017517,0.140137,0.000000,176.000000,174.000000,2.000000,16.000000,0.000000,0.000000,0.220215,0.291660,0.017517,0.140137,0.000000,176.000000,174.000000,2.000000,16.000000,0.000000,0.000000:
00000000
00000000
00000000
00000000
,
00000000
00000000
00000000
00000000
,
00000000
00000000
00000000
00000000
,
00000000
00000000
00000000
00000000
,
00000000
00000000
00000000
00000000
,
00000000
00000000
00000000
00000000
,
00000000
00000000
00000000
00000000
,
00000000
00000000
00000000
00000000
,
00000000
00000100
00001000
00010000
,
00000000
00100000
00000000
00010000
,
00000000
00100000
01000000
01000000
,
00000000
10000000
00000000
00010000
,
00000000
00010000
00001000
00000100
,
00000000
00000010
00000000
00000001
,
00000000
00000200
00000000
00000300
,
00000000
00001000
00000000
00001000
,
00000000
00100000
00010000
01000000
,
00000000
10000000
00000000
01000000
,
00000000
00010000
00001000
00000100
,
00000000
00001000
00000000
00000100
,
00000000
00000010
00000001
00000100
,
00000000
00001000
00000000
00000100
,
00000000
00020000
00000000
00030000
,
00000000
00001000
00000000
00001000
,
00000000
00100000
00010000
00001000
,
00000000
00000100
00001000
00000010
,
00000000
00000100
00000001
00000010
,
00000000
00000100
00001000
00010000
,
00000000
00100000
01000000
10000000
,
00000000
00100000
00010000
01000000
,
00000000
00010000
00001000
00000100
,
00000000
00001000
00010000
00100000
,
00020000
01030000
00000000
01000000
,
00000000
10000000
00000000
10000000
,
00000000
00010000
00000000
00010000
,
00000000
00000100
00000000
00000100
,
00000000
00000001
00000000
00000001
,
00000000
00000200
00000300
00001000
,
00000000
00020000
00030000
00200000
,
00300000
02000000
03000000
20000000
,
30000000
00020000
00000000
00001000
,
00030000
00001000
00000000
00001000
,
00000100
00000010
00000000
00000100
,
00000001
00000020
00000030
00000100
,
00001000
00001100
00000000
00001000
,
00010000
00100000
00000000
00010000
,
01000000
11000000
00000000
00100000
,
00010000
00001000
00000000
00002000
,
00000000
00023000
00000000
00000000
,
00000000
00000000
00000000
00030000
,
00000000
00100000
00010000
00001000
,
00000100
00000000
00001000
00000010
,
00000000
00000100
00000001
00000010
,
00000010
00000000
00001000
00010000
,
00000000
00010000
01000000
10000000
,
00100000
00000000
00010000
00001000
,
00000100
00020000
00030000
00002000
,
00003000
00010000
00001000
00010000
,
00000000
00001000
00000100
00000010
,
00000001
00000000
00000100
00001000
,
00000000
00010000
01000000
10000000
,
00100000
00000000
00010000
00001000
,
00000000
00000010
00000001
00000100
,
00001000
00000000
00010000
00100000
,
00000000
00200000
00000000
00300000
,
00000000
00100000
01000000
00100000
,
00000000
00001000
00010000
00000100
,
00001000
00000010
00000001
00000001
,
00000000
00000100
00000001
00000100
,
00001000
00010000
00100000
00100000
,
00000000
00010000
01000000
10000000
,
00100000
00010000
00001000
00001000
,
00000000
00001000
00000100
00000010
,
00000001
00000200
00000300
00001000
,
00010000
00000000
00000000
00000000
;

//---------------dance-double - ----------------
#NOTES:
     dance-double:
     :
     Medium:
     9:
     0.322816,0.421998,0.026276,0.157654,0.000000,258.000000,255.000000,3.000000,18.000000,0.000000,0.000000,0.322816,0.421998,0.026276,0.157654,0.000000,258.000000,255.000000,3.000000,18.000000,0.000000,0.000000:
00000000
00000000
00000000
00000000
,
00000000
00000000
00000000
00000000
,
00000000
00000000
00000000
00000000
,
00000000
00000000
00000000
00000000
,
00000000
00000000
00000000
00000000
,
00000000
00000000
00000000
00000000
,
00000000
00000000
00000000
00000000
,
00000000
00000000
00000000
00000000
,
00000000
00000000
00001000
00000000
00001000
00010000
00000000
00000000
,
00100000
00000000
00000000
00010000
00000000
00000000
01000000
00000000
,
00000000
00000000
10000000
00000000
10000000
00010000
00000000
00000000
,
00010000
00000000
00000000
00001000
00000000
00000000
00000010
00000000
,
00000000
00000000
00001000
00000000
00001000
00000100
00000000
00000000
,
00000010
00000000
00000000
00000001
00000000
00000000
00000100
00000000
,
00000000
00000000
00000020
00000000
00000000
00000030
00000000
00000000
,
00001000
00000200
00000000
00000000
00000000
00000000
00000000
00000300
,
00000000
00000000
00010000
00000000
00010000
00001000
00000000
00000000
,
00010000
00000000
00000000
00100000
00000000
00000000
00010000
00000000
,
00000000
00000000
10000000
00000000
10000000
00100000
00000000
00000000
,
01000000
00000000
00000000
00010000
00000000
00000000
00001000
00000000
,
00000000
00000000
00001000
00000000
00001000
00000010
00000000
00000000
,
00000100
00000000
00000000
00001000
00000000
00000000
00010000
00000000
,
00000000
00000000
00200000
00000000
00000000
00300000
00000000
00000000
,
00010000
02000000
00000000
00000000
00000000
00000000
00000000
00000000
,
03000000
00010000
00100000
00010000
,
01000000
00000000
10000000
00000000
00100000
00010000
00001000
00000000
,
00010000
00001000
00000100
00000010
,
00000001
00000000
00000100
00000000
00001000
00010000
00100000
00000000
,
00010000
01000000
10000000
00100000
,
00010000
00000000
01000000
00000000
00100000
00010000
00001000
00000000
,
00000100
00000010
00001000
00000100
,
00000010
00000000
00000001
00000000
00000100
00000000
00001000
00010000
,
01000000
00000000
01000000
00000000
00100000
00000000
00010000
00010000
,
00010000
00000000
00001000
00000000
00000100
00000000
00000010
00000010
,
00000010
00000000
00000100
00000000
00000001
00000000
00000100
00000100
,
00001000
00000000
00000100
00000000
00001000
00000000
00010000
00010000
,
00100000
00020000
00130000
01000000
,
00010000
20000000
31000000
00200000
,
00310000
00002000
00003100
00000200
,
00000310
00000020
00000031
00000002
,
00000103
00000220
00000000
00000000
,
00000000
00000330
00000000
00000000
00001000
00000000
00000100
00000000
,
00010000
00012000
00100000
00103000
,
00010000
02010000
00010000
03010000
,
00100000
00000000
00010000
00000000
00010000
10000000
00000000
00000000
,
00100000
00010000
00001000
00000010
,
00001000
00000000
00000100
00000000
00000100
00000001
00000000
00000000
,
00000010
00000100
00000001
00000100
,
00000010
00000000
00001000
00010000
00001000
00000000
00100000
00010000
,
00100000
00000000
01000000
10000000
00010000
00000000
00100000
00010000
,
00001000
00000000
00010000
00000000
00010000
00001000
00000000
00000000
,
00000100
00000000
00000000
00001000
00000000
00000000
00000010
00000000
,
00000100
00000000
00000001
00000000
00000001
00000100
00000000
00000000
,
00000100
00000000
00000000
00001000
00000100
00000000
00001000
00000000
,
00010000
00000000
00001000
00000000
00001000
00010000
00000000
00100000
,
00010000
00000000
00000000
01000000
00000000
00000000
00100000
00000000
,
00010000
00002000
00010000
00013000
,
00000100
00000020
00000100
00000130
,
00000000
00000000
00000001
00000000
00000001
00001000
00000000
00000000
,
00000100
00000000
00000000
00000010
00000000
00000000
00000001
00000000
,
00000100
00000000
00001000
00000000
00001000
00010000
00000000
00000000
,
00100000
00000000
00000000
00010000
00000000
00000000
10000000
00000000
,
00100000
00000000
00010000
00000000
00010000
01000000
00000000
10000000
,
00100000
00000000
00000000
00010000
00000000
00000000
00001000
00000000
,
00010000
00000200
00001300
00000010
,
00000100
00000001
00000100
00000000
00000100
00000000
00000100
00000000
,
00000010
00000000
00001000
00000100
00001000
00000000
00010000
00000000
,
00001000
00000000
00010000
00100000
00010000
00000000
01000000
00000000
,
10000000
00000000
00100000
00010000
00001000
00000000
00010000
00000000
,
00000100
00000000
00001000
00000010
00000100
00000000
00000001
00000000
,
00000010
00000000
00001000
00000100
00010000
00000000
00001000
00000000
,
00000100
00000000
00010000
00100000
01000000
00000000
00010000
00000000
,
01000000
00000000
10000000
00100000
00010000
00000000
00001000
00000000
,
00010000
00001000
00000100
00000010
,
00000100
00000100
00000000
00000000
00000000
00000000
00000000
00000000
;

//---------------dance-double - ----------------
#NOTES:
     dance-double:
     :
     Hard:
     12:
     0.421662,0.551844,0.140137,0.140137,0.000000,337.000000,321.000000,16.000000,16.000000,0.000000,0.000000,0.421662,0.551844,0.140137,0.140137,0.000000,337.000000,321.000000,16.000000,16.000000,0.000000,0.000000:
00000000
00000000
00000000
00000000
,
00000000
00000000
00000000
00000000
,
00000000
00000000
00000000
00000000
,
00000000
00000000
00000000
00000000
,
00000000
00000000
00000000
00000000
,
00000000
00000000
00000000
00000000
,
00000000
00000000
00000000
00000000
,
00000000
00000000
00000000
00000000
,
00000000
00000000
00000001
00000000
00000001
00000100
00000000
00000000
,
00000010
00000000
00000000
00001000
00000000
00000100
00010000
00000000
,
00001000
00000000
00100000
00000000
00100000
01000000
00000000
00100000
,
01000000
00000000
00000000
10000000
00010000
00000000
00100000
00000000
,
00010000
00000000
00001000
00000000
00001000
00010000
00000000
00010000
,
00001000
00000000
00000000
00000100
00000000
00000010
00001000
00000000
,
00000100
00000002
00000103
00000010
,
00001000
00000200
00000000
00000000
00001000
00000000
00001000
00000300
,
00000000
00000000
00010000
00000000
00010000
00100000
00000000
10000000
,
01000000
00000000
00000000
01000000
00000000
10000000
00100000
00000000
,
00010000
00000000
00001000
00000000
00001000
00000100
00000000
00001000
,
00000010
00000000
00000000
00000100
00000000
00000001
00000010
00000000
,
00000100
00000000
00000010
00000000
00000010
00001000
00000000
00001000
,
00000100
00000000
00000000
00010000
00000000
00001000
00010000
00000000
,
00100000
20000000
31000000
01000000
,
00100000
02000000
00100000
00000000
00000000
00000000
00100000
00000000
,
03100000
00000000
00010000
00001000
00010000
00000100
00000000
00001000
,
00000000
00000000
00000010
00001000
00000100
00000010
00000000
00000001
,
00000100
00000000
00000010
00001000
00000100
00010000
00000000
00100000
,
00000000
00000000
00010000
00001000
01000000
00100000
00000000
01000000
,
10000000
00000000
00100000
00010000
00001000
00010000
00000000
00001000
,
00000000
00000000
00001000
00000100
00000010
00000001
00000000
00000100
,
00000010
00000000
00001000
00010000
00000100
00010000
00000000
00100000
,
00000000
00000000
00010000
01000000
00100000
00010000
01000000
00000000
,
01100000
00000000
00200000
00000000
00310000
00000000
10000000
00010000
,
10000000
00000000
00110000
00000000
00011000
00000000
00001000
00010000
,
00000100
00000000
00002000
00000000
00003100
00000000
00000010
00001000
,
00000100
00000000
00000011
00000000
00000110
00000000
00000010
00001000
,
00000100
00000000
00002000
00000000
00013000
00001000
00100000
00000000
,
00010000
01010000
10000000
00110000
,
00010000
00012000
00013000
00012000
,
00003200
00000320
00000031
00000101
,
00001000
00000000
00000002
00000000
00000100
00000000
00000013
00001000
,
00000100
00001000
00010000
00011000
,
00101000
02010000
00010000
03010000
,
10000000
00100000
00010000
00000000
00001000
00000000
00010000
00000000
,
00020000
00000000
00031000
00000000
00000100
00000010
00000000
00000010
,
00000001
00001000
00000100
00000001
,
00000020
00000000
00000130
00000000
00001000
00000100
00000000
00000100
,
00001000
00010000
00001000
00010000
,
00100000
00000000
10000000
01000000
00010000
00001000
00010000
00000100
,
00001000
00000100
00000010
00001000
00000100
00000010
00000001
00000100
,
00000010
00001000
00000100
00000000
00000100
00001000
00000000
00000000
,
00010000
00000000
00000000
01000000
00000000
00100000
00010000
00000000
,
01000000
00000000
10000000
00000000
10000000
00100000
00000000
10000000
,
00100000
00000000
00000000
00010000
00001000
00000000
00000100
00000000
,
00001000
00000000
00000010
00000000
00000010
00000100
00000000
00000001
,
00001000
00000000
00000000
00000100
00000000
00000100
00001000
00000000
,
00010000
00000000
00001000
00010000
00100000
00000000
00010000
01000000
,
10000000
00000000
00100000
00010000
00001000
00010000
00000100
00001000
,
00010000
00000000
00001000
00000000
00001000
00000100
00000000
00000010
,
00001000
00000000
00000000
00000100
00000000
00000100
00000010
00000000
,
00000001
00000000
00000100
00000000
00000100
00000010
00000000
00001000
,
00000100
00000000
00000000
00010000
00000000
00010000
00001000
00000000
,
00100000
00000000
00010000
00000000
00010000
01000000
00000000
10000000
,
00100000
00000000
00000000
00010000
00000000
00001000
00010000
00000000
,
00000100
00020000
00031000
00000100
,
00001000
00000100
00000010
00000001
00000010
00000100
00001000
00000010
,
00001000
00000000
00000100
00001000
00010000
00001000
00000000
00010000
,
00000000
00000000
10000000
00100000
00010000
00001000
00000000
00000000
,
00011000
00000000
00001000
00010000
00000100
00001000
00000000
00000100
,
00000000
00000000
00000001
00000010
00000100
00001000
00000000
00000000
,
00011000
00000000
00010000
00100000
00010000
10000000
00000000
00100000
,
00000000
00000000
00010000
00001000
00000100
00010000
00000000
00000000
,
00011000
00000000
00001000
00000010
00000100
00000001
00000000
00000100
,
00000000
00000000
00001000
00010000
01000000
10000000
00100000
00000000
,
01000000
01000000
00000000
00000000
00000000
00000000
00000000
00000000
;
