#TITLE:보라빛 밤;
#SUBTITLE:;
#ARTIST:SUNMI;
#TITLETRANSLIT:pporappippam;
#SUBTITLETRANSLIT:;
#ARTISTTRANSLIT:SUNMI;
#GENRE:K-POP;
#CREDIT:SAIKIO;
#BANNER:pporappippam-banner.png;
#BACKGROUND:bg.png;
#LYRICSPATH:;
#CDTITLE:Saikio Simfiles.png;
#MUSIC:pporappippam.ogg;
#OFFSET:-0.153000;
#SAMPLESTART:51.155003;
#SAMPLELENGTH:16.759979;
#LASTBEATHINT:267.000000;
#SELECTABLE:YES;
#BPMS:0.000000=120.000000
;
#STOPS:
;
#BGCHANGES:-0.500=pporappippam.avi=1.000=0=0=0=StretchNoLoop====,
99999=-nosongbg-=1.000=0=0=0 // don't automatically add -songbackground-
;
#KEYSOUNDS:;
#ATTACKS:;

//---------------dance-single - ----------------
#NOTES:
     dance-single:
     :
     Beginner:
     2:
     0.117240,0.172343,0.007461,0.014921,0.000000,110.000000,109.000000,1.000000,2.000000,0.000000,0.000000,0.117240,0.172343,0.007461,0.014921,0.000000,110.000000,109.000000,1.000000,2.000000,0.000000,0.000000:
0000
0000
0000
0000
,
0000
0000
0000
0000
,
0000
0000
0000
0000
,
0000
0000
0000
0000
,
0000
0000
0000
0000
,
0000
0010
0000
0000
,
0000
0010
0000
0000
,
0000
0100
0000
0000
,
0000
0010
0000
0000
,
0001
0000
0001
0000
,
0001
0000
0000
0000
,
1000
0000
1000
0000
,
1000
0000
0000
0000
,
0100
0000
0100
0000
,
0010
0000
0000
0000
,
0010
0000
0010
0000
,
0100
0000
0000
0000
,
0000
0010
0000
0000
,
0000
0001
0000
0000
,
0000
0100
0000
0000
,
0000
1000
0000
0000
,
0000
0010
0000
0000
,
0000
1000
0000
0000
,
0000
0001
0000
0000
,
0000
0010
0010
0010
,
0010
0000
0000
0000
,
0000
0100
0100
0010
,
0000
0100
0000
0010
,
0000
1000
1000
0001
,
0000
0001
0001
1000
,
0000
0010
0010
0100
,
0000
0010
0000
0100
,
0000
0001
0001
0100
,
0000
1000
1000
0010
,
0000
0010
0000
0000
,
0000
0001
0000
0000
,
0000
0010
0000
0000
,
0000
1000
0000
0000
,
0000
0100
0000
0000
,
0000
1000
0000
1000
,
0000
0010
0000
0000
,
0000
0001
0000
0010
,
0000
2000
0000
0000
,
3000
0000
0000
0000
,
0000
0002
0000
0000
,
0003
0000
0000
0000
,
0000
0100
0000
0100
,
0000
0100
0000
0000
,
0000
0001
0000
0000
,
0000
1000
0000
0000
,
0000
0010
0100
0010
,
0000
0100
0000
0010
,
0000
0001
0001
1000
,
0000
1000
1000
0001
,
0000
1000
0001
1000
,
0000
0010
0000
0100
,
0000
0010
0010
0100
,
0000
0100
0100
0010
,
0000
1000
0100
1000
,
0000
0001
0000
0100
,
0000
0001
0010
0001
,
0000
1000
0000
0100
,
0000
0001
1000
0010
,
0000
0001
0000
0010
,
0000
1000
0001
0100
,
0000
1000
0000
0100
,
0110
0000
0000
0000
;

//---------------dance-single - ----------------
#NOTES:
     dance-single:
     :
     Easy:
     4:
     0.147083,0.221584,0.037304,0.044764,0.000000,138.000000,133.000000,5.000000,6.000000,0.000000,0.000000,0.147083,0.221584,0.037304,0.044764,0.000000,138.000000,133.000000,5.000000,6.000000,0.000000,0.000000:
0000
0000
0000
0000
,
0000
0000
0000
0000
,
0000
0000
0000
0000
,
0000
0000
0000
0000
,
0000
0000
0000
0000
,
0000
0010
0000
0000
,
0000
0100
0000
0000
,
0000
0010
0000
0010
,
0000
0020
0000
0030
,
0000
0100
0001
0000
,
0100
0000
1000
0000
,
0010
0000
0100
0000
,
0001
0000
0000
0000
,
0010
1000
0100
0000
,
0010
0000
0001
0000
,
0100
0000
0010
0000
,
0001
0000
0100
0000
,
0000
0110
0000
0100
,
0000
0001
0000
1000
,
0000
0100
0000
0010
,
0000
0100
0000
0000
,
0010
0100
0000
0000
,
1000
0001
0000
0000
,
0100
0010
0000
0010
,
0000
1000
0001
1000
,
0010
0000
0000
0000
,
0110
1000
0000
0010
,
0001
0000
0100
1000
,
0100
0010
0001
0000
,
0010
0100
1000
0000
,
0010
0001
0000
0100
,
1000
0000
0000
0010
,
0001
0100
1000
0000
,
0010
0001
0100
0000
,
0000
0020
0000
0000
,
0030
0100
0000
0000
,
0000
0100
0000
0100
,
0000
1000
0000
1000
,
0000
0100
0000
0001
,
0000
0100
0000
0010
,
0000
2000
3000
0000
,
0000
0100
0000
0100
,
0000
0002
0000
0000
,
0003
0000
0000
0001
,
0000
2000
0000
0000
,
3000
0000
0000
1000
,
0000
0001
0000
0100
,
0000
1000
0000
0010
,
0000
0020
0000
0000
,
0000
0030
0000
0000
,
0110
0001
0000
1000
,
0100
0000
0010
1000
,
0100
0001
0010
0000
,
0100
1000
0100
0000
,
0000
0010
0000
0100
,
0001
0000
1000
0100
,
0001
0010
1000
0100
,
0010
0001
0100
0000
,
0000
0001
0001
0100
,
0000
0010
0010
1000
,
0000
0100
0100
1000
,
0000
0010
1000
0100
,
0110
0000
0001
0010
,
0001
0000
0100
1000
,
0010
0000
0100
0001
,
0010
0000
0010
0100
,
0110
0000
0000
0000
;

//---------------dance-single - ----------------
#NOTES:
     dance-single:
     :
     Medium:
     7:
     0.227020,0.295445,0.059686,0.149215,0.000000,213.000000,205.000000,8.000000,20.000000,0.000000,0.000000,0.227020,0.295445,0.059686,0.149215,0.000000,213.000000,205.000000,8.000000,20.000000,0.000000,0.000000:
0000
0000
0000
0000
,
0000
0000
0000
0000
,
0000
0000
0000
0000
,
0000
0000
0000
0000
,
0000
0000
0000
0000
,
0000
0010
0000
0010
,
0000
0100
0000
0100
,
0000
0020
0000
0000
,
0030
0000
0000
0000
,
0000
1000
0100
0001
,
0100
1000
0010
0000
,
0100
0001
0010
0100
,
1000
0000
0100
0000
,
0001
1000
0100
1000
,
0010
0100
0001
0010
,
0001
0100
0010
1000
,
0100
0000
0100
0000
,
1000
0000
0001
1000
0000
0000
0010
0000
,
0100
0000
0010
0100
0000
0000
1000
0000
,
0100
0000
0001
0100
0000
0000
0010
0000
,
0001
0000
0100
1000
0000
0000
0010
0000
,
0001
0000
0100
0010
0000
0000
1000
0000
,
0100
0000
0010
0001
0000
0000
0100
0000
,
0010
0000
1000
0001
0000
0000
0100
0000
,
0001
0000
1000
0000
0100
0000
0010
0010
,
0010
0000
0100
0010
,
0110
0000
1100
0000
0001
0000
0010
1000
,
0010
0001
0100
1000
,
0010
0002
0103
2000
,
3010
0100
0001
0100
,
1000
0000
0101
0000
0010
0000
0100
0001
,
0100
1000
0010
0001
,
0100
0020
1030
0200
,
0301
1000
0100
0010
,
0001
0020
0000
0000
,
0030
0002
0000
0000
,
0003
1000
0000
1000
,
0000
0001
0000
0001
,
0000
0200
0000
0000
,
0300
0020
0000
0000
,
0030
0100
0000
1000
,
0000
0100
0000
0001
,
1000
0020
0000
0030
,
0100
0100
0000
0000
0000
0000
0010
0000
,
0000
0200
0000
0300
,
0010
0010
0000
0000
0000
0000
0010
0000
,
0000
2000
0000
3002
,
0000
2003
0000
3200
,
0000
0320
0000
0000
,
0000
0030
0010
0100
,
0110
0000
1010
0000
0001
0000
0010
1000
,
0100
0010
0010
0001
,
0100
2000
3001
0002
,
1003
0000
0010
0100
0010
0000
1000
0000
,
0001
0000
0101
0000
0010
0000
1000
0100
,
0010
0001
0100
0010
,
0001
0020
1030
0200
,
0301
0000
0010
0000
0100
0001
0100
0000
,
0010
0000
1000
0000
0001
1000
0001
0000
,
1000
0000
0100
0000
0010
0100
0010
0000
,
0001
0000
0010
0000
0100
1000
0100
0000
,
0001
0100
1000
0100
,
0110
0000
0001
0000
0010
1000
0100
0000
,
0010
0000
1000
0000
0001
0010
0100
0000
,
1000
0000
0001
0000
1000
0100
0010
0000
,
0100
0010
0001
0100
,
0110
0000
0000
0000
;

//---------------dance-single - ----------------
#NOTES:
     dance-single:
     :
     Hard:
     11:
     0.316548,0.393927,0.171597,0.193979,0.119372,297.000000,274.000000,23.000000,26.000000,0.000000,0.000000,0.316548,0.393927,0.171597,0.193979,0.119372,297.000000,274.000000,23.000000,26.000000,0.000000,0.000000:
0000
0000
0000
0000
,
0000
0000
0000
0000
,
0000
0000
0000
0000
,
0000
0000
0000
0000
,
0000
0000
0000
0000
,
0000
2000
0000
3002
,
0000
0023
0000
0230
,
0000
0320
0000
0000
,
0000
0000
0000
0030
,
0000
0000
0010
1000
0100
0000
0010
0001
,
0100
0100
0000
0010
1000
0100
0000
1000
,
0001
0100
0000
0001
0010
0100
0000
1000
,
0001
1000
0000
1000
0000
1000
0000
0010
,
0100
0001
0000
1000
0010
0100
0000
0001
,
0010
0100
0000
1000
0100
0001
0000
0100
,
0001
0100
0000
0010
1000
0001
0000
0100
,
0010
0100
0000
0100
0000
0100
0000
0000
,
0010
0000
0000
0000
0100
0010
0100
0010
0000
0000
0000
0000
0001
0000
0000
0000
,
0100
0000
1000
0110
0000
0000
0010
0000
,
0001
0000
0000
0000
1000
0100
0000
1000
0000
0000
0000
0000
0100
0000
0000
0000
,
0001
0100
0010
0000
0100
0000
1100
0000
,
0101
0000
0000
0000
0100
0010
0100
0010
0000
0000
0000
0000
1000
0000
0000
0000
,
0100
0000
0000
0000
0100
0001
0010
0100
0000
0000
0000
0000
0100
0000
0000
0000
,
0010
0000
0000
0000
1000
0100
0001
1000
0000
0000
0000
0000
0100
0000
0000
0000
,
0010
0000
0000
0000
1100
0000
0000
0001
0000
0000
0100
0000
0000
0110
0000
0000
,
0010
0000
0000
0000
0000
0000
0000
0000
0100
0010
0000
0000
0110
0000
0000
0000
,
0110
0000
1010
0000
0001
0000
0100
0010
,
1000
0100
0000
0010
0000
0001
0010
0100
,
0010
2000
0000
3002
0000
0103
0000
1000
,
0000
1100
0000
0010
0100
0010
1000
0000
,
0001
0000
0011
0000
0010
0000
0100
0010
,
1000
0001
0000
0100
0000
1000
0010
1000
,
0001
0020
0000
2030
0000
3010
0000
0101
,
0000
1000
0000
0010
0100
0001
1000
0000
,
0010
0200
0000
0000
,
0300
0020
0000
0000
,
0030
0001
0100
0010
,
1000
0000
0000
0000
0100
0000
0010
0001
,
0010
0100
0000
0010
,
0002
1003
0010
0100
,
0001
0010
2000
0000
3000
0000
0010
0000
,
0000
0001
0100
0010
,
1000
0001
2000
0000
0000
0000
0000
0000
,
0001
3001
0000
0000
0000
0000
0100
0000
,
0000
0000
0000
0000
0010
0000
0000
0200
0000
0000
0000
0000
0000
0000
0000
0000
,
0010
0310
0000
0000
0000
0000
0100
0000
,
0000
0002
0000
2003
,
0000
3020
0000
0230
,
0000
0320
0000
0000
,
0000
0000
0000
0000
0030
0000
0000
0000
0100
0010
0000
0000
0110
0000
0000
0000
,
0110
0000
1010
0000
0100
0000
0001
0010
,
1000
0100
0000
0010
0000
0100
1000
0010
,
1000
0002
0000
2003
0000
3010
0000
1000
,
0000
0011
0000
0100
1000
0100
0001
0000
,
0010
0000
0101
0000
0100
0000
0010
1000
,
0100
0010
0000
0100
0000
0010
0001
0010
,
0100
0020
0000
2030
0000
3100
0000
0010
,
0000
1100
0000
0010
0001
1000
0100
0000
,
0010
0000
0000
0000
1001
0000
0000
0000
0100
0010
0000
1000
0000
1000
0100
0000
,
0000
0000
0010
0000
0001
0000
0000
0000
0100
0010
0000
0100
0000
0100
0001
0000
,
0000
0000
0100
0000
0010
0000
0000
0000
1000
0100
0000
0010
0000
0010
0001
0000
,
0000
0000
1000
0000
0100
0000
0000
0000
1000
0010
0000
0000
1100
0000
0000
0000
,
0110
0000
0000
0000
1001
0000
0000
0000
0010
0100
0000
0001
0000
0001
0100
0000
,
0000
0000
0010
0000
0100
0000
0000
0000
1000
0100
0000
1000
0000
1000
0010
0000
,
0000
0200
0000
0320
0000
0031
0000
0100
,
0000
0000
0010
0000
1000
0000
0010
0000
0001
0100
0000
0000
0011
0000
0000
0000
,
0110
0000
0000
0000
;

//---------------dance-double - ----------------
#NOTES:
     dance-double:
     :
     Easy:
     5:
     0.182255,0.246204,0.096990,0.052225,0.000000,171.000000,158.000000,13.000000,7.000000,0.000000,0.000000,0.182255,0.246204,0.096990,0.052225,0.000000,171.000000,158.000000,13.000000,7.000000,0.000000,0.000000:
00000000
00000000
00000000
00000000
,
00000000
00000000
00000000
00000000
,
00000000
00000000
00000000
00000000
,
00000000
00000000
00000000
00000000
,
00000000
00000000
00000000
00000000
,
00000000
00001000
00000000
00010000
,
00000000
00100000
00000000
01000000
,
00000000
00200000
00000000
00000000
,
00000000
00300000
00000000
00000000
,
00000000
00100000
00010000
00000000
,
00001000
00000000
00000100
00000000
,
00001000
00000010
00000100
00000001
,
00000100
00000000
00001000
00000000
,
00010000
01000000
10000000
00000000
,
00100000
00000000
10000000
00000000
,
00010000
00001000
00000100
00000010
,
00000001
00000000
00000100
00000000
,
00010000
00011000
00000000
00010000
,
00100000
00110000
00000000
01000000
,
10000000
10100000
00000000
00010000
,
00001000
00011000
00000000
00001000
,
00000100
00000110
00000000
00000010
,
00000001
00000011
00000000
00000001
,
00000100
00001100
00000000
00001000
,
00010000
00100000
00100000
01000000
,
00100000
00000000
00100000
00010000
,
00011000
00001000
00000000
00010000
,
00100000
00000000
01000000
00100000
,
10000000
10000000
00010000
00010000
,
01000000
01000000
00100000
00000000
,
00010000
00101000
00000000
00010000
,
00001000
00000000
00001000
00000100
,
00000010
00000010
00001000
00001000
,
00000100
00000100
00001000
00000000
,
00010000
00200000
00000000
00000000
,
00300000
02000000
00000000
00000000
,
03000000
00000000
00010000
00001000
,
00000000
00000000
00000100
00000001
,
00000000
00000000
00000000
00000000
,
00000010
00001000
00000000
00010000
,
00000000
00200000
00300000
00000000
,
00000000
00100000
00000000
00010000
,
00000000
20000000
00000000
00000000
,
30010000
00000000
00000000
00010000
,
00000000
00002000
00000000
00000000
,
00003001
00000000
00000000
00000100
,
00000000
00001000
00000000
00010000
,
00000000
00100000
00000000
01000000
,
00000000
00200000
00000000
00000000
,
00000000
00300000
00000000
00010000
,
00011000
00001000
00000000
00000010
,
00000001
00000000
00001000
00000100
,
00001000
00001000
00000001
00000001
,
00000100
00000100
00001000
00000000
,
00010000
00101000
00000000
00010000
,
01000000
00000000
00100000
10000000
,
00100000
00100000
10000000
10000000
,
01000000
01000000
00100000
00000000
,
00010000
00001000
00010000
00010000
,
00000100
00000000
00001000
00001000
,
00000010
00000000
00000100
00000100
,
00000001
00000000
00001000
00010000
,
00011000
00000000
00010000
01000000
,
00100000
00000000
10000000
01000000
,
00100000
00000000
00010000
00001000
,
00000100
00000010
00000100
00001000
,
00011000
00000000
00000000
00000000
;

//---------------dance-double - ----------------
#NOTES:
     dance-double:
     :
     Medium:
     9:
     0.261126,0.320066,0.111911,0.141754,0.000000,245.000000,230.000000,15.000000,19.000000,0.000000,0.000000,0.261126,0.320066,0.111911,0.141754,0.000000,245.000000,230.000000,15.000000,19.000000,0.000000,0.000000:
// measure 0
00000000
00000000
00000000
00000000
,  // measure 1
00000000
00000000
00000000
00000000
,  // measure 2
00000000
00000000
00000000
00000000
,  // measure 3
00000000
00000000
00000000
00000000
,  // measure 4
00000000
00000000
00000000
00000000
,  // measure 5
00000000
00002000
00000000
00023000
,  // measure 6
00000000
02030000
00000000
13000000
,  // measure 7
00000000
00200000
00000000
00000000
,  // measure 8
00000000
00000000
00300000
00000000
,  // measure 9
00100000
00000000
00010000
00001000
00000100
00000000
00001000
00000000
,  // measure 10
00000010
00000100
00000001
00000100
,  // measure 11
00000010
00001000
00010000
00100000
,  // measure 12
01000000
01000000
00000000
00000000
10000000
00000000
01000000
00000000
,  // measure 13
00100000
00010000
00000000
00001000
00010000
00000100
00000000
00000000
,  // measure 14
00001000
00000000
00000010
00000000
00000100
00000100
00000000
00000000
,  // measure 15
00000001
00000100
00001000
00010000
,  // measure 16
00100000
00100000
00000000
00000000
00010000
00000000
01000000
00000000
,  // measure 17
00100000
00000000
00011000
00001000
00000000
00000000
00001000
00000000
,  // measure 18
00000100
00000000
00000001
00001000
00000000
00000000
00000100
00000000
,  // measure 19
00001000
00000000
00000010
00001000
00000000
00000000
00010000
00000000
,  // measure 20
00100000
00000000
01000000
00010000
00000000
00000000
00010000
00000000
,  // measure 21
00100000
00000000
01100000
00100000
00000000
00000000
00010000
00000000
,  // measure 22
01000000
00000000
10000000
00100000
00000000
00000000
00010000
00000000
,  // measure 23
00001000
00000000
00000100
00000010
00000000
00000000
00000100
00000000
,  // measure 24
00001000
00000000
00000110
00000000
00000100
00000010
00000100
00000000
,  // measure 25
00000010
00000000
00010000
00001000
,  // measure 26
00011000
00000000
00110000
00000000
00100000
00000000
01000000
10000000
,  // measure 27
00100000
00000000
00010000
00000000
00001000
00000000
00010000
00000100
,  // measure 28
00010000
00001000
00000000
00001000
00000000
00000001
00000000
00000001
,  // measure 29
00000000
00000010
00000000
00000010
00000100
00001000
00010000
00000000
,  // measure 30
00100000
00000000
01010000
00000000
10000000
00000000
01000000
00100000
,  // measure 31
00010000
00000000
00001000
00000000
00000100
00000000
00000010
00001000
,  // measure 32
00000100
00000010
00000000
00000010
00000000
00001000
00000000
00001000
,  // measure 33
00000000
00000001
00000000
00000100
00001000
00000000
00010000
00000000
,  // measure 34
00100000
00020000
00000000
00000000
,  // measure 35
00030000
00200000
00000000
00000000
,  // measure 36
00300000
00000000
01000000
10000000
,  // measure 37
00010000
00000000
00000000
00000000
00100000
00000000
00010000
00001000
,  // measure 38
00010000
00000100
00000000
00001000
,  // measure 39
00000020
00000130
00000000
00000001
,  // measure 40
00000100
00002000
00003000
00010000
,  // measure 41
00100000
00000000
10000000
00010000
,  // measure 42
01000000
00200000
00000000
00300000
,  // measure 43
00100000
00100000
00000000
00000000
00000000
00000000
00010000
00000000
,  // measure 44
00000000
00000200
00000000
00000300
,  // measure 45
00000100
00000100
00000000
00000000
00000000
00000000
00000010
00000000
,  // measure 46
00001000
00000200
00000000
00020300
,  // measure 47
00000000
02030000
00000000
13000000
,  // measure 48
00000000
00200000
00000000
00000000
,  // measure 49
00000000
00300000
00010000
00001000
,  // measure 50
00011000
00000000
00001100
00000000
00000100
00000000
00001000
00000010
,  // measure 51
00000100
00000000
00000001
00000000
00000100
00000000
00001000
00010000
,  // measure 52
00100000
00010000
00000000
10000000
00000000
10000000
00000000
00010000
,  // measure 53
00000000
00010000
00000000
00001000
00000100
00000010
00000001
00000000
,  // measure 54
00000100
00000000
00001010
00000000
00000100
00000000
00000001
00000100
,  // measure 55
00001000
00000000
00000100
00000000
00001000
00000000
00010000
00100000
,  // measure 56
01000000
00100000
00000000
00100000
00000000
10000000
00000000
10000000
,  // measure 57
00000000
01000000
00000000
00010000
00100000
00000000
00010000
00000000
,  // measure 58
00001000
00000000
00000020
00000000
00000130
00000000
00001000
00001000
,  // measure 59
00000010
00000000
00000200
00000000
00000301
00000000
00000010
00000010
,  // measure 60
00000001
00000000
00002000
00000000
00013000
00000000
00100000
00100000
,  // measure 61
01000000
00010000
00101000
00010100
,  // measure 62
00011000
00000000
00200000
00000000
01300000
00000000
10000000
10000000
,  // measure 63
01000000
00000000
00020000
00000000
00031000
00000000
00000100
00000100
,  // measure 64
00000001
00000000
00001000
00000000
00010000
00000000
01000000
01000000
,  // measure 65
10000000
00100000
00101000
00010100
,  // measure 66
00011000
00000000
00000000
00000000
;

//---------------dance-double - ----------------
#NOTES:
     dance-double:
     :
     Hard:
     12:
     0.328272,0.393927,0.231283,0.119372,0.111911,308.000000,277.000000,31.000000,16.000000,0.000000,0.000000,0.328272,0.393927,0.231283,0.119372,0.111911,308.000000,277.000000,31.000000,16.000000,0.000000,0.000000:
00000000
00000000
00000000
00000000
,
00000000
00000000
00000000
00000000
,
00000000
00000000
00000000
00000000
,
00000000
00000000
00000000
00000000
,
00000000
00000000
00000000
00000000
,
00001000
00010000
00200000
00000000
00000000
00000000
20300000
00000000
,
00000000
32000000
00000000
03010000
,
00000000
00200000
00000000
00000000
,
00000000
00300000
00000000
00000000
,
00100000
00100000
00010000
00001000
00000100
00001000
00000000
00000100
,
00000010
00000100
00000000
00000010
00000001
00000010
00000000
00001000
,
00010000
00100000
00000000
00010000
00100000
00010000
00000000
01000000
,
10000000
00100000
00000000
00100000
00000000
00100000
00000000
00010000
,
00001000
00000100
00000000
00001000
00000010
00000100
00000000
00000001
,
00000100
00001000
00000000
00010000
00001000
00010000
00000000
00100000
,
00010000
01000000
00000000
10000000
00100000
00010000
00000000
00010000
,
00001000
00000100
00000000
00000100
00000000
00000100
00000000
00000000
,
00000010
00000000
00000000
00000000
00001000
00010000
00000000
00000000
00000000
00000000
00000000
00000000
00001000
00000000
00000000
00000000
,
00010000
00000000
00101000
00010000
00000000
00000000
00010000
00000000
,
01000000
00000000
00000000
00000000
00010000
10000000
00000000
00010000
00000000
00000000
00000000
00000000
00010000
00000000
00000000
00000000
,
00001000
00000000
00010000
00000000
00000100
00000000
00001000
00000100
00000000
00000000
00000000
00000000
00001010
00000000
00000000
00000000
,
00000101
00000000
00000000
00000000
00000010
00000100
00000010
00000100
00000000
00000000
00000000
00000000
00001000
00000000
00000000
00000000
,
00010000
00000000
00000000
00000000
00010000
00000000
01000000
00100000
00000000
00000000
00000000
00000000
00010000
00000000
00000000
00000000
,
01000000
10000000
00100000
00010000
00000000
00000000
00001000
00000000
,
00010000
00000000
00000100
00000000
00001000
00000000
00000000
00110000
00000000
00000000
00010000
00000000
00000000
00001000
00000000
00000000
,
00011000
00000000
00000000
00000000
00000000
00000000
00000000
00000000
00100000
00010000
00000000
00000000
00001000
00000000
00000000
00000000
,
00011000
00000000
00010100
00000000
00001000
00000000
00000010
00001000
,
00000001
00000100
00000000
00001000
00000000
00010000
01000000
00100000
,
01000000
10000000
00000000
01010000
00000000
00011000
00000000
00001000
,
00000000
00000100
00000000
00000010
00000100
00000010
00000001
00000000
,
00000100
00000000
00001010
00000000
00000100
00000000
00000010
00000001
,
00000100
00001000
00000000
00000100
00000000
00001000
00010000
01000000
,
00100000
01000000
00000000
00110000
00000000
10100000
00000000
01100000
,
00000000
01000000
00000000
00010000
00001000
00000100
00001000
00000000
,
00000010
00000200
00000000
00000000
,
00000300
00000020
00000000
00000000
,
00000030
00000000
00000000
00000000
00000100
00000000
00000001
00000100
,
00001000
00000000
00010000
00000000
00100000
00000000
00010000
01000000
,
10000000
00000000
00010000
00001000
,
00000200
00000320
00000000
00001030
,
00000100
00001000
00200000
00000000
00000000
00000000
00310000
00000000
,
00000000
00000000
01000000
00000000
10000000
00100000
00010000
00000000
,
00001000
00020000
00000000
00000000
,
00031000
00001000
00000000
00000000
00000000
00000000
00001000
00000000
,
00000000
00000000
00000000
00000000
00000010
00000000
00000000
00002000
00000000
00000000
00000000
00000000
00000000
00000000
00000000
00000000
,
00003100
00000000
00002000
00000000
00000000
00000000
00000000
00003000
00000000
00000000
00000000
00000000
00000100
00000000
00000000
00000000
,
00010000
00001000
00020000
00000000
00000000
00000000
00230000
00000000
,
00000000
00000000
00000000
00000000
02300000
00000000
00000000
00000000
00000000
03000000
00000000
10000000
00010000
00000000
00000000
00000000
,
00000000
00200000
00000000
00000000
,
00000000
00000000
00000000
00000000
00300000
00000000
00000000
00000000
00001000
00100000
00000000
00000000
00010000
00000000
00000000
00000000
,
00011000
00000000
00010100
00000000
00001000
00000000
00010000
01000000
,
10000000
00100000
00000000
00010000
00000000
00100000
00010000
00001000
,
00000100
00001000
00000000
00001001
00000000
00000101
00000000
00001100
,
00000000
00001000
00000000
00001000
00010000
00100000
01000000
00000000
,
00010000
00000000
01010000
00000000
00100000
00000000
00010000
10000000
,
00100000
00010000
00000000
00001000
00000000
00000100
00000010
00001000
,
00000100
00000010
00000000
00001010
00000000
00011000
00000000
00110000
,
00000000
00100000
00000000
00010000
01000000
00100000
01000000
00000000
,
10000000
00000000
00000000
00000000
00110000
00000000
00000000
00000000
00010000
00001000
00000000
00010000
00000000
00001000
00000100
00000000
,
00000000
00000000
00000010
00000000
00001000
00000000
00000000
00000000
00000100
00001000
00000000
00000001
00000000
00001000
00000100
00000000
,
00000000
00000000
00001000
00000000
00000010
00000000
00000000
00000000
00000100
00001000
00000000
00010000
00000000
00001000
00010000
00000000
,
00000000
00000000
00100000
00000000
00000000
00000000
00000000
00000000
00100000
00010000
00000000
00000000
01100000
00000000
00000000
00000000
,
00011000
00000000
00000000
00000000
00001000
00000000
00000000
00000000
00010000
00100000
00000000
01000000
00000000
00100000
00010000
00000000
,
00000000
00000000
00001000
00000000
00000100
00000000
00000000
00000000
00001000
00000010
00000000
00000100
00000000
00000010
00001000
00000000
,
00000000
00000100
00000000
00101000
00000000
00011000
00000000
00010100
,
00000000
00000000
00010010
00000000
00000000
00000000
00000100
00000000
00001000
00010000
00000000
00000000
00001100
00000000
00000000
00000000
,
00011000
00000000
00000000
00000000
;
