#TITLE:memories;
#SUBTITLE:;
#ARTIST:TAKA;
#TITLETRANSLIT:;
#SUBTITLETRANSLIT:;
#ARTISTTRANSLIT:;
#GENRE:beatmania IIDX;
#CREDIT:SAIKIO;
#BANNER:memories-banner.png;
#BACKGROUND:bg.png;
#LYRICSPATH:;
#CDTITLE:IIDX.png;
#MUSIC:memories.ogg;
#OFFSET:0.189000;
#SAMPLESTART:68.189980;
#SAMPLELENGTH:12.200000;
#SELECTABLE:YES;
#BPMS:0.000000=188.000000
;
#STOPS:
;
#BGCHANGES:0.500=memories.avi=1.000=0=0=0=StretchNoLoop====,
99999=-nosongbg-=1.000=0=0=0 // don't automatically add -songbackground-
;
#KEYSOUNDS:;
#ATTACKS:;

//---------------dance-single - ----------------
#NOTES:
     dance-single:
     :
     Beginner:
     3:
     0.125670,0.188283,0.000000,0.000000,0.000000,106.000000,106.000000,0.000000,0.000000,0.000000,0.000000,0.125670,0.188283,0.000000,0.000000,0.000000,106.000000,106.000000,0.000000,0.000000,0.000000,0.000000:
0000
0000
0000
0000
,
0000
0000
0000
0000
,
0000
0000
0000
0000
,
0000
0000
0000
0000
,
0000
0000
0000
0000
,
0000
0000
0000
0000
,
0000
0000
0000
0000
,
0000
0000
0000
0000
,
0000
0000
0000
0001
,
0000
0000
0000
1000
,
0000
0000
0000
0001
,
0000
0000
0000
1000
,
0000
0000
0000
0100
,
0000
0000
0000
0010
,
0000
0000
0000
0100
,
0000
0000
0000
0010
,
0000
0000
0000
1000
,
0000
0000
0000
1000
,
0000
0000
0000
1000
,
0000
0000
0000
0000
,
0000
0000
0000
0001
,
0000
0000
0000
1000
,
0000
0000
0000
0010
,
0000
0000
0000
0100
,
0000
0000
0000
0001
,
0001
0000
0000
1000
,
1000
0000
0000
0000
,
1000
0000
0000
0000
,
0001
0000
0000
0100
,
0000
0000
0000
0010
,
0000
0000
0000
0001
,
0000
0000
0000
0100
,
0000
0000
0000
1000
,
1000
0000
0000
0001
,
0001
0000
0000
0000
,
0010
0000
0000
0100
,
0000
0000
0000
0000
,
0000
0000
0000
1000
,
0000
0000
0000
0010
,
0000
0100
0000
0010
,
0000
0000
0000
0001
,
0000
1000
0000
0001
,
0000
0000
0000
0100
,
0000
0000
0000
1000
,
0000
1000
0000
0001
,
0000
0001
0000
0010
,
0000
0000
0000
0100
,
0000
1000
0000
0100
,
0000
0000
0000
0010
,
0000
0001
0000
0010
,
0000
0000
0000
0100
,
0000
0010
0000
0100
,
0000
0000
0000
0100
,
0000
0000
0000
0010
,
0010
0000
0000
0000
,
0000
0100
0000
0010
,
0000
0000
0000
0001
,
0000
0000
0000
0100
,
0100
0000
0000
0000
,
0000
1000
0000
0001
,
0000
0000
0000
0010
,
0010
0010
0000
1000
,
1000
0000
0000
0000
,
0000
0001
0000
1000
,
0000
0000
0000
0010
,
0000
0000
0000
1000
,
0000
0100
0000
0000
,
0000
0000
0001
0001
,
0000
0000
0000
0010
,
0000
0001
0000
0100
,
0000
0000
0000
0100
,
0000
0000
0000
0010
,
0000
0001
0000
0100
,
0000
0000
0000
0010
,
0000
1000
0000
0100
,
0000
0000
0000
1000
,
0000
0100
0000
0001
,
0000
0000
0000
0001
,
0000
0010
0000
1000
,
0000
0000
0000
0100
,
0000
0000
0000
0100
,
0000
0000
0000
0010
,
0000
0010
0000
0010
,
0000
0000
0000
0001
,
0000
0010
0000
1000
,
0000
0000
0000
1000
,
0000
0100
0000
0001
,
0000
0000
0000
0100
,
0000
0000
0000
0001
,
0000
0000
0000
0010
,
0000
0000
0000
0010
;

//---------------dance-single - ----------------
#NOTES:
     dance-single:
     :
     Easy:
     6:
     0.264381,0.342643,0.116185,0.091289,0.000000,223.000000,209.000000,14.000000,11.000000,0.000000,0.000000,0.264381,0.342643,0.116185,0.091289,0.000000,223.000000,209.000000,14.000000,11.000000,0.000000,0.000000:
0000
0000
0000
0000
,
0000
0000
0000
0000
,
0000
0000
0000
0000
,
0000
0000
0000
0000
,
0000
0000
0000
0000
,
0000
0002
0000
0000
,
0000
0003
0000
0010
,
0000
0010
0000
0100
,
0100
0100
0000
1000
,
0000
1000
0000
0001
,
0000
0001
0000
0100
,
0000
0100
0000
0010
,
0000
0010
0000
1000
,
0000
0100
0000
1000
,
0000
0001
0000
0100
,
0000
0000
0000
0010
,
0000
1000
0000
0001
,
0001
1000
1000
0001
,
0001
1000
1000
0100
,
0000
0000
0200
0000
,
0000
0000
0300
0001
,
0100
1000
0000
0010
,
0000
0100
0000
1000
,
0010
0001
0000
0100
,
0000
0010
0000
1010
,
0001
0000
0000
1010
,
0100
0000
0000
0010
,
0000
0100
0000
0001
,
0000
0100
0000
0010
,
0001
0100
0000
0010
,
1000
0100
0000
0001
,
0100
0001
0000
0010
,
1000
0010
0000
0101
,
1000
0000
0000
0101
,
0010
0000
0000
1000
,
0000
0100
0000
0001
,
0000
0100
0100
0020
,
0000
0000
0030
1000
,
0100
1000
0000
0001
,
0000
0001
0000
0010
,
1000
0001
0000
0100
,
0000
0100
0000
0001
,
0010
1000
0000
0010
,
0000
1000
0000
1100
,
0000
0101
0000
1010
,
0000
0011
0000
1000
,
0100
0001
0000
1000
,
0000
0100
0000
0010
,
1000
0100
0000
0010
,
0000
0001
0000
0100
,
0001
0100
0000
1000
,
0000
0100
0000
1001
,
0000
0110
0000
0001
,
0000
0000
0000
0020
,
0030
0100
0000
1000
,
0000
0001
1000
0010
,
0000
0100
0000
0001
,
1001
1000
0000
0002
,
0003
1000
0000
0010
,
0000
1000
0100
0001
,
0000
0010
0000
1100
,
0001
1100
0001
0200
,
0300
0010
0000
0001
,
0000
1000
0100
0010
,
0000
1000
0000
0010
,
0110
0100
0000
2000
,
3000
0010
0000
0100
,
0000
1000
0001
0001
,
0000
0000
0100
0010
,
0000
1000
0020
0000
,
0000
0000
0000
0000
,
0000
0030
0000
0001
,
0100
0000
1000
1000
,
0010
0000
0100
0001
,
0000
0010
0000
0100
,
1000
0000
0100
0010
,
0000
1000
0100
1000
,
0010
0001
0000
0100
,
0010
0001
0100
0001
,
0010
0100
0200
0001
,
0300
0010
0020
1000
,
0030
0000
0000
0010
,
0010
0100
0100
0001
,
1000
0000
0000
0010
,
1000
0010
0001
1000
,
0001
0000
0000
0100
,
1000
0100
0001
0100
,
0000
0010
0000
0001
,
0001
1000
1000
0010
,
0010
0100
0100
0001
,
1000
0001
0100
0002
,
0000
0000
0000
0003
;

//---------------dance-single - ----------------
#NOTES:
     dance-single:
     :
     Medium:
     9:
     0.422061,0.533001,0.265567,0.116185,0.000000,356.000000,324.000000,32.000000,14.000000,0.000000,0.000000,0.422061,0.533001,0.265567,0.116185,0.000000,356.000000,324.000000,32.000000,14.000000,0.000000,0.000000:
0000
0000
0000
0000
,
0000
0000
0000
0000
,
0000
0000
0000
0000
,
0000
0000
0000
0000
,
0000
0000
0000
0001
,
0000
0100
0020
0000
0000
0000
0000
0000
,
0030
1000
1000
0001
,
0000
0100
0000
1010
,
0001
1100
0000
0001
,
0000
0100
0020
0000
0000
0000
0000
0000
,
0030
0000
1000
0000
1000
0100
1000
0000
,
0010
0000
0100
0001
,
0001
0100
0000
0000
0010
0000
1000
0000
,
0000
1000
0002
0000
0000
0000
0000
0000
,
0003
0100
0000
0010
,
0000
1000
0100
1000
,
0000
0010
0000
0100
,
0100
0001
0001
1000
,
1000
0010
0010
1000
,
0010
0000
0100
0000
0001
0200
0000
0000
,
0000
0000
0300
0010
,
0100
1000
0100
0001
,
0100
0010
1000
0100
,
0000
0001
0010
0000
0001
0000
0010
0000
,
0100
1000
0000
0000
1000
0000
0101
0000
,
0000
1001
0000
0000
0100
0000
1001
0000
,
0000
1100
0000
0000
0010
0000
0100
0100
,
0001
0000
1000
1000
0010
0000
1000
0001
,
1000
0100
1000
0010
,
0001
0100
0010
1000
,
0100
0001
0010
1000
,
0010
0100
0010
1000
,
0001
0100
0000
0000
0001
0000
1010
0000
,
0000
1001
0000
0000
0010
0000
1001
0000
,
0000
0011
0000
0000
0000
0000
0001
0000
,
1000
0001
0100
0010
,
0010
1000
0000
0001
0000
0000
0200
0000
,
0000
0000
0300
1001
,
1100
1001
1010
0001
,
0100
0010
1000
1001
,
0101
1001
0011
0100
,
1000
0010
0001
0110
,
1000
0001
0010
0100
,
0100
0000
0001
0000
1000
0000
0010
1000
,
0001
0000
0100
0010
1000
0000
0001
0000
,
0100
0010
0100
0011
,
1001
1100
1001
0100
,
0010
1000
0001
1100
,
1001
0011
1001
0100
,
0010
0100
1000
0110
,
0001
0100
0010
0100
,
0100
1000
1000
0100
,
0010
0000
0100
0001
0100
0000
0010
0000
,
0000
0000
0000
0000
0000
0010
1000
0000
,
0000
0001
2000
0000
0010
0000
3001
0000
,
0000
0000
0010
0000
0100
0001
1000
0000
,
0100
1000
0010
0100
,
0100
0001
0000
0001
0100
0000
0010
0000
,
0000
1000
0002
0000
1000
0000
0103
0000
,
0000
0000
0100
0000
0100
0010
1000
0000
,
0100
1000
0010
1100
,
0011
1100
0010
1000
,
0000
0001
0020
0000
1000
0000
0130
0000
,
0000
0000
0001
0000
0100
0010
0100
0000
,
0001
1000
0010
1000
,
1000
0010
0000
0010
0100
0000
1000
0000
,
0000
0001
0200
0000
0010
0000
0301
0000
,
0000
0000
0010
0000
1000
0001
1000
0000
,
0100
1000
0010
1001
,
0000
0000
0100
0000
0000
0020
0000
0000
,
0000
0000
0000
0000
,
0000
0000
0000
0030
0000
0000
1000
0000
,
1000
0001
0000
0000
0100
0000
0100
0000
,
0010
1000
0000
0000
0001
0000
1000
0100
,
0000
1000
0000
0010
0000
0100
0001
0100
,
0000
0010
0000
0000
1000
0000
0001
0000
,
1000
0000
1000
0010
1000
0000
0001
0000
,
0100
0001
0100
0000
0000
1000
0100
0001
,
0000
0001
0100
1000
0000
0100
0010
0000
,
0010
0100
0001
0002
,
1000
1003
0100
2000
,
0001
3001
0000
0010
,
0010
0100
0001
0000
0100
0000
0010
0000
,
2000
0000
0000
0000
3000
0000
0001
0100
,
0010
0000
0010
0000
1000
0000
0100
1000
,
0010
0000
0100
0000
0100
0000
0010
0001
,
0010
0001
1000
0010
,
0001
0100
0000
0000
0100
0000
0010
0000
,
1000
0001
0010
0000
0100
0000
0001
0000
,
1000
0010
0100
0000
0001
0000
0100
0000
,
1000
0010
0100
0000
0100
0000
0002
0000
,
0000
0000
0000
0003
;

//---------------dance-single - ----------------
#NOTES:
     dance-single:
     :
     Hard:
     12:
     0.573814,0.647215,0.315361,0.141082,0.000000,484.000000,446.000000,38.000000,17.000000,0.000000,0.000000,0.573814,0.647215,0.315361,0.141082,0.000000,484.000000,446.000000,38.000000,17.000000,0.000000,0.000000:
0000
0000
0000
0000
,
0000
0000
0000
0000
,
0000
0000
0000
0000
,
0000
0000
0000
0000
,
0000
0000
0000
0001
,
0000
0001
0200
0000
0000
0000
0000
0000
,
0300
0000
1000
0000
1000
0100
1000
0000
,
0010
1000
0100
1010
,
1000
1010
0100
0001
,
0001
0100
0020
0000
0000
0000
0100
0000
,
0000
0000
1030
0000
0100
0010
0100
0000
,
0001
0100
0010
1000
,
1000
0001
0000
0001
0100
0000
0010
0000
,
1000
0001
2000
0000
0010
0000
0001
0000
,
0100
3010
0100
0001
,
0001
0100
0010
0000
1000
0000
0100
0000
,
1000
0010
0000
0100
,
0100
0001
1000
0010
1000
0000
1000
0000
,
0001
0100
0001
0010
0001
0000
0010
0000
,
0100
0010
0100
0001
1000
0020
0000
0000
,
0100
0100
0130
1000
,
1000
0000
0001
0100
0000
0010
0000
1000
,
0001
1000
0100
1001
,
0100
0010
0100
0000
0001
1000
0100
1000
,
0010
1000
0000
0000
0001
0000
1000
0000
,
0010
1100
0000
0000
0010
1000
0001
0000
,
0100
0101
0000
0000
1000
0000
0010
1000
,
0001
0000
0100
0010
1000
0000
1000
0010
,
0100
0001
0100
0010
0100
0000
1000
0000
,
1000
0010
0100
0001
0000
0010
0000
1000
,
0010
1000
0100
0000
0100
0000
0010
0000
,
0010
1000
0010
0000
0001
0100
0001
0100
,
0001
0010
0000
0100
0001
0000
1000
0000
,
0100
0011
0000
0000
1000
0010
0100
0000
,
0010
1010
0000
0000
0010
0000
0100
0001
,
0100
0000
0010
1000
0001
0000
0100
1000
,
0100
0000
0010
0001
0100
0000
0220
0000
,
0000
0000
0000
0000
0330
0000
0001
0010
,
0001
0000
1000
0100
1000
0000
1001
0000
,
1100
0000
1010
0000
1001
0000
1000
0010
,
0001
0000
0001
0100
1000
0000
0011
0000
,
1001
0000
0101
0000
1001
0000
1000
0010
,
0100
0000
0001
0100
0010
0000
0100
0000
,
1000
0100
1000
0000
0010
0000
1010
0000
,
0001
1000
1100
0000
0010
0100
0101
0000
,
0010
1000
0001
0000
0100
0000
0010
0100
,
0001
0010
0100
1000
0010
0000
1001
0000
,
0110
0000
0101
0000
1100
0000
0010
0001
,
1000
0100
0010
0001
0100
0000
1001
0000
,
0110
0000
1010
0000
0011
0000
0100
0001
,
1000
0010
0100
0001
0010
0000
0001
0000
,
1000
0000
0010
0000
1000
0000
1000
0010
,
1000
0000
0100
0001
0100
0000
0010
1000
,
0001
0010
0100
0100
0100
0000
0001
0000
,
1000
0010
0200
0000
0010
0000
0310
0000
,
1000
0100
0001
0000
0010
0010
1000
0000
,
0100
0001
0010
0000
0100
0000
1100
0000
,
0001
1100
0000
0001
1000
0000
0010
0000
,
0100
0001
0020
0000
0100
0000
0130
0000
,
0010
0000
0100
0000
0100
0001
1000
0000
,
0010
0100
0010
0000
0100
0000
0011
0000
,
1010
0011
1000
0100
,
1000
0001
2000
0000
0010
0000
3001
0000
,
0100
0010
0100
0000
0010
1000
0001
0000
,
1000
0001
1000
0000
0010
0000
0100
0000
,
0100
0001
0000
0100
0010
0000
1010
0000
,
0001
1000
0002
0000
1000
0000
0103
0000
,
0010
0000
0100
0000
0100
0001
1000
0000
,
0100
0010
0001
0000
0100
0000
0020
0000
,
0030
0000
1000
0000
1000
0200
0000
0000
,
0001
0001
0001
0010
,
0001
0010
0301
1000
,
1000
0100
0000
1000
0010
1000
0001
0000
,
0100
0010
0000
0001
1000
0001
0010
0000
,
0000
0100
0000
0100
0000
1000
0100
0001
,
0100
0010
0000
0000
0100
0100
0001
0000
,
0100
0010
0100
1000
0100
0001
0100
0010
,
1000
0100
1000
0000
0010
0000
1000
0100
,
1000
0100
0010
0001
0010
0001
0100
0010
,
0100
0001
1000
0000
0010
0000
1002
0000
,
0100
0100
0013
0000
1000
0000
2100
0000
,
0010
0010
3100
0000
0010
0000
0100
0000
,
0100
0001
0100
0000
0100
0010
1000
0001
,
0200
0000
0000
0000
0300
0010
1000
1000
,
0001
0010
0100
1000
0010
0100
0001
0010
,
0100
0020
0000
0000
0030
0001
1000
0010
,
1000
0001
0100
0010
1000
0001
0100
0000
,
0100
0010
0000
0010
0100
0000
0001
0000
,
1000
0100
1000
0001
0100
0000
0110
0000
,
0001
0100
0010
0100
0001
0000
1100
0000
,
0010
0100
0010
1000
0010
0000
0102
0000
,
0000
0000
0000
0003
;

//---------------dance-double - ----------------
#NOTES:
     dance-double:
     :
     Easy:
     6:
     0.267938,0.380715,0.082990,0.124484,0.000000,226.000000,216.000000,10.000000,15.000000,0.000000,0.000000,0.267938,0.380715,0.082990,0.124484,0.000000,226.000000,216.000000,10.000000,15.000000,0.000000,0.000000:
00000000
00000000
00000000
00000000
,
00000000
00000000
00000000
00000000
,
00000000
00000000
00000000
00000000
,
00000000
00000000
00000000
00000000
,
00000000
00000000
00000000
00000001
,
00000000
00001000
00000000
00000000
,
00000000
00010000
00000000
01000000
,
00000000
00100000
00000000
10000000
,
10000000
00010000
00000000
00010000
,
00000000
00001000
00000000
00000000
,
00000000
00000100
00000100
00000010
,
00000000
00000001
00000000
00000100
,
00000000
00010000
00000000
00100000
,
00100000
01000000
00000000
00010000
,
00000000
00001000
00000000
00000100
,
00000000
00001000
00000000
00000100
,
00000000
00001000
00000000
00000010
,
00001000
00010000
00000000
00100000
,
00010000
10000000
00000000
01000000
,
00010000
00100000
02000000
00000000
,
00000000
00000000
03000000
00010000
,
00000000
00010000
00000000
00001000
,
00000100
00000000
00001000
00000000
,
00100000
00000000
01000000
00000000
,
10000000
00100000
00000000
00020000
,
00000000
00031000
00000000
00000200
,
00000000
00000310
00000000
00000001
,
00000000
00000001
00000010
00000100
,
00000000
00001000
00000000
00010000
,
00010000
00100000
00000000
01000000
,
00000000
01000000
00000000
10000000
,
10000000
01000000
00000000
00010000
,
00000000
00010000
00000000
00002000
,
00000000
00013000
00000000
00200000
,
00000000
01300000
00000000
10000000
,
00000000
01000000
00000000
00010000
,
00010000
00100000
00000000
00001000
,
00000000
00000000
00000000
00010000
,
00001000
00000100
00000000
00000010
,
00000000
00000110
00000000
00000001
,
00000100
00001000
00000000
00010000
,
00000000
00110000
00000000
00100000
,
00000000
01000000
00000000
00010000
,
00010000
00000000
00000000
00010000
,
00001000
00010000
00000100
00010000
,
00000010
00001000
00000000
00000010
,
00000100
00000001
00000000
00001100
,
00000000
00011000
00000000
00010000
,
00100000
01000000
00000000
00110000
,
00000000
10010000
00000000
01000000
,
10000000
01000000
00000000
00100000
,
00000000
10000000
00000000
00010000
,
01000000
00010000
00100000
00001000
,
00001000
00001000
00000000
00000200
,
00000310
00000100
00000000
00000001
,
00000000
00000100
00000000
00020000
,
00000000
00030000
00000000
00010000
,
00100000
01000000
00000000
20000000
,
31000000
10000000
00000000
00010000
,
00000000
00001000
00010000
01000000
,
00000000
00100000
00000000
00110000
,
00110000
00011000
00000000
00002000
,
00013000
00001000
00000000
00000010
,
00000000
00000100
00000000
00000010
,
00000000
00000000
00000000
00001000
,
00000100
00001000
00000000
00200000
,
00310000
00100000
00000000
01000000
,
00000000
00100000
10000000
01000000
,
00000000
00010000
00001000
00010000
,
00000000
00000010
00002002
00000000
,
00000000
00000000
00000000
00000000
,
00000000
00003003
00000000
00000010
,
00000001
00000000
00000100
00001000
,
00001000
00000000
00010000
00100000
,
01000000
00100000
00000000
00100000
,
01000000
00000000
00000000
00010000
,
00000000
01000000
00100000
00010000
,
00100000
00010000
00000000
00000100
,
00000010
00000001
00000100
00000010
,
00000010
00000000
00001000
00002000
,
00000000
00003000
00100000
00200000
,
00000000
00300000
00000000
00010000
,
01000000
01000000
00100000
10000000
,
01000000
00000000
00000000
00100000
,
00010000
00001000
00000010
00001000
,
00000100
00000000
00000000
00000100
,
00001000
00000100
00000001
00000010
,
00000000
00000010
00001000
00100000
,
00010000
00100000
00100000
01000000
,
00010000
00001000
00001000
00000010
,
00000100
00000010
00000010
00000002
,
00000000
00000000
00000000
00000003
;

//---------------dance-double - ----------------
#NOTES:
     dance-double:
     :
     Medium:
     10:
     0.379381,0.494929,0.182577,0.240670,0.000000,320.000000,298.000000,22.000000,29.000000,0.000000,0.000000,0.379381,0.494929,0.182577,0.240670,0.000000,320.000000,298.000000,22.000000,29.000000,0.000000,0.000000:
00000000
00000000
00000000
00000000
,
00000000
00000000
00000000
00000000
,
00000000
00000000
00000000
00000000
,
00000000
00000000
00000000
00000000
,
00000000
00000000
00000000
00000001
,
00000000
00001000
00020000
00000000
00000000
00000000
00000000
00000000
,
00030000
00100000
00010000
01000000
,
00000000
00100000
00000000
10010000
,
00110000
00011000
00100000
00010000
,
00000000
00010000
00002000
00000000
00000000
00000000
00000000
00000000
,
00003000
00000100
00000010
00000002
,
00000000
00000000
00000003
00000100
,
00000010
00001000
00000000
00000000
00010000
00000000
00001000
00000000
,
00000000
00100000
02000000
00000000
00000000
00000000
00000000
00000000
,
03000000
00100000
00000000
01000000
,
00010000
10000000
00000000
00100000
,
00000000
00010000
00000000
00001000
,
00010000
00001000
00001000
00000100
,
00000010
00000001
00000001
00000100
,
00001000
00000000
00010000
00000000
00010000
00000020
00000000
00000000
,
00000000
00000000
00000030
00001000
,
00001000
00000100
00001000
00010000
,
00100000
01000000
10000000
00100000
,
00000000
00010000
00001000
00000000
00010000
00000000
00001000
00000000
,
00000100
00001000
00000000
00000000
00000010
00000000
00001000
00000000
,
00000000
00002200
00000000
00000000
00003300
00000000
00010000
00000000
,
00000000
02020000
00000000
00000000
03030000
00000000
00100000
00000000
,
01000000
01000000
00100000
10000000
,
10000000
01000000
00000000
00000000
00100000
00000000
00010000
00000000
,
00010000
00001000
00001000
00000100
,
00000010
00000001
00000100
00000010
,
00000010
00000100
00000100
00001000
,
00010000
00100000
00010000
01010000
,
00000000
02200000
00000000
00000000
03300000
00000000
00011000
00000000
,
00000000
00002020
00000000
00000000
00003030
00000000
00010000
00000000
,
00010000
00001000
00001000
00100000
,
00100000
00010000
00000000
02000000
00000000
00000000
00000000
03000000
,
00000000
00000000
00000000
00010000
,
10000000
00010000
00100000
00000000
01000000
00000000
00001000
00000000
,
00010000
00001000
00000100
00000010
,
00001000
00000010
00000100
00000000
00000010
00000000
00000100
00000000
,
00000001
00000010
00000001
00000100
,
00000010
00000001
00000010
00000000
00001000
00000000
00000100
00000000
,
00010000
01000000
00100000
01010000
,
00001000
00011000
00000100
00001100
,
00010000
00110000
00100000
00001000
,
00001000
00000100
00000010
00000000
00001000
00000000
00000100
00000000
,
00000001
00001000
00010000
00100000
,
00010000
00100000
01000000
00000000
00010000
00000000
10000000
00000000
,
01000000
01010000
00100000
01000000
,
00010000
00100000
00010000
00000000
00001000
00000000
00000100
00000000
,
00000010
00000001
00000100
00001010
,
00001000
00110000
00100000
00020000
,
00000000
00030000
00000000
00000000
00000000
00010000
02000000
00000000
,
03000000
00100000
20000000
00000000
00000000
00000000
30100000
00000000
,
00000000
01000000
00100000
11000000
,
00100000
00001000
00010000
00000100
,
00000100
00001000
00000000
00001000
00000100
00000000
00000020
00000000
,
00000030
00000100
00000002
00000000
00000000
00000000
00000103
00000000
,
00000000
00000010
00000010
00000100
,
00000001
00000100
00001000
00001100
,
00011000
00110000
00100000
00002000
,
00003000
00010000
00200000
00000000
00000000
00000000
01300000
00000000
,
00000000
00000000
00001000
00000000
00010000
00001000
00010000
00000000
,
01000000
00100000
01000000
10000000
,
10000000
01000000
00000000
01000000
00100000
00000000
00020000
00000000
,
00030000
00001000
00000200
00000000
00000000
00000000
00000300
00000000
,
00000000
00001000
00000010
00000010
,
00001000
00000100
00000001
00001000
,
00000000
00000000
00000010
00000000
00000000
00000200
00000000
00000000
,
00000000
00000000
00000000
00000000
,
00000000
00000000
00000300
00010000
,
00010000
00000100
00000000
00000000
00010000
00000000
01000000
00000000
,
00100000
00010000
00000000
00000000
10000000
00000000
00010000
00000000
,
00010000
00100000
00000000
00001000
00000000
00000000
00010000
00000000
,
00010000
00000100
00000000
00000000
00000010
00000000
00000001
00000000
,
00000100
00000010
00001000
00010000
,
00100000
00000000
00010000
00000000
00000000
01000000
01000000
00000000
,
10000000
00010000
01000000
00100000
,
00010000
00001000
00010000
00022000
,
00000000
00033000
00001000
00002200
,
00000000
00003300
00000000
00010000
,
00010000
00001000
00010000
00000000
00100000
00000000
00010000
00000000
,
01000000
00000000
00000000
00100000
,
00010000
10000000
01000000
00100000
,
00010000
00010000
00000000
00000000
00000000
00001000
00010000
00000000
,
00001000
00000100
00000010
00000001
,
00000001
00000100
00000000
00000000
00000010
00000000
00001000
00000000
,
00000100
00010000
00000100
00000000
00100000
00000000
00010000
00000000
,
01000000
10000000
01000000
00000000
00100000
00000000
01000000
00000000
,
00010000
00001000
00000100
00000000
00001000
00000000
00000002
00000000
,
00000000
00000000
00000000
00000003
;

//---------------dance-double - ----------------
#NOTES:
     dance-double:
     :
     Hard:
     13:
     0.534690,0.647215,0.348556,0.265567,0.000000,451.000000,409.000000,42.000000,32.000000,0.000000,0.000000,0.534690,0.647215,0.348556,0.265567,0.000000,451.000000,409.000000,42.000000,32.000000,0.000000,0.000000:
// measure 0
00000000
00000000
00000000
00000000
,  // measure 1
00000000
00000000
00000000
00000000
,  // measure 2
00000000
00000000
00000000
00000000
,  // measure 3
00000000
00000000
00000000
00000000
,  // measure 4
00000000
00000000
00000000
00000001
,  // measure 5
00000100
00001000
00020000
00000000
00000000
00000000
00001000
00000000
,  // measure 6
00030000
00000000
00100000
00000000
00010000
01000000
00010000
00000000
,  // measure 7
00010000
00100000
00010000
01010000
,  // measure 8
00011000
00001100
00010000
00100000
,  // measure 9
00010000
00001000
00000200
00000000
00000000
00000000
00000010
00000000
,  // measure 10
00000300
00000000
00000001
00000000
00000001
00001000
00000200
00000000
,  // measure 11
00010300
00100000
00010000
10000000
,  // measure 12
10000000
00010000
00000000
00000000
00100000
00000000
00010000
00000000
,  // measure 13
00001000
00010000
00200000
00000000
00001000
00000000
00001000
00000000
,  // measure 14
00300000
00010000
00100000
00010000
,  // measure 15
01000000
00100000
00010000
20000000
,  // measure 16
00000000
30010000
00000000
00100000
,  // measure 17
00100000
00010000
00001000
00000000
00000100
00000000
00000100
00000000
,  // measure 18
00000010
00001000
00010000
00000000
00100000
00000000
00001000
00000000
,  // measure 19
00010000
00000100
00001000
00000000
00000100
00002200
00000000
00000000
,  // measure 20
00000000
00000000
00003300
00001000
,  // measure 21
00001000
00000100
00000010
00000000
00000001
00001000
00000100
00000000
,  // measure 22
00000010
00001000
00010000
00000000
00100000
00000000
00010000
00000000
,  // measure 23
00010000
01000000
00100000
00000000
10000000
01000000
10000000
01000000
,  // measure 24
10000000
00100000
00000000
00000000
00100000
00000000
00110000
00000000
,  // measure 25
00100000
02020000
00000000
03030000
00000000
00010000
00110000
00000000
,  // measure 26
00010000
00022000
00000000
00000000
00033000
00000000
00001000
00010000
,  // measure 27
00000100
00000000
00001000
00000010
00001000
00000000
00000100
00001000
,  // measure 28
00000100
00001000
00000010
00001000
00000010
00000000
00010000
00000000
,  // measure 29
00010000
00001000
00100000
00000000
00010000
00100000
00010000
00000000
,  // measure 30
00100000
01000000
10000000
00000000
01000000
00000000
10000000
00000000
,  // measure 31
10000000
00100000
01000000
00000000
00010000
01000000
00010000
00100000
,  // measure 32
00010000
01000000
00000000
00000000
00001000
00000000
00011000
00000000
,  // measure 33
00000100
00002200
00000000
00003300
00000000
00001000
00010100
00000000
,  // measure 34
00001000
00022000
00000000
00000000
00033000
00000000
00010000
00000000
,  // measure 35
00010000
00001000
00100000
00000000
00100000
00010000
01000000
00000000
,  // measure 36
01000000
00010000
00000000
00100000
00000000
00000000
00002000
00000000
,  // measure 37
00000000
00000000
00003000
00000100
,  // measure 38
00000100
00000001
00000010
00000000
00000101
00000000
00001100
00000000
,  // measure 39
00011000
00110000
01000000
10000000
,  // measure 40
00100000
10000000
01000000
00000000
10100000
00000000
01010000
00000000
,  // measure 41
00011000
00001100
00000010
00000001
,  // measure 42
00001000
00000100
00000001
00000000
00000100
00000000
00000010
00000000
,  // measure 43
00001000
00000100
00010000
00011000
,  // measure 44
00100000
00010000
01010000
00000000
00100000
00001000
00010000
00000000
,  // measure 45
00010000
00001000
00001100
00000000
00001000
00000000
00010000
00000000
,  // measure 46
00100000
01000000
10000000
00000000
01000000
00000000
10010000
00000000
,  // measure 47
00110000
00010100
00000110
00000001
,  // measure 48
00000010
00000100
00000001
00000000
00000010
00000000
00001001
00000000
,  // measure 49
00001100
00101000
01100000
00010000
,  // measure 50
00100000
10000000
01000000
00000000
00100000
00000000
00010000
00000000
,  // measure 51
00001000
00010000
00001000
00000100
,  // measure 52
00001000
00000010
00002000
00000000
00003100
00000000
00000020
00000000
,  // measure 53
00000000
00000000
00000030
00000000
00000000
00001000
00000200
00000000
,  // measure 54
00000000
00001300
00020000
00000000
00001000
00000000
00031000
00000000
,  // measure 55
00100000
00010000
01000000
00000000
00010000
00000000
10000000
00000000
,  // measure 56
00100000
01000000
00010000
00000000
00001000
00000000
00011000
00000000
,  // measure 57
00000100
00000010
00000000
00000100
00010000
00000000
00200000
00000000
,  // measure 58
01300000
00010000
00002000
00000000
00010000
00000000
00103000
00000000
,  // measure 59
00000100
00000000
00000100
00000000
00000010
00001000
00000001
00000000
,  // measure 60
00001000
00001000
00000100
00011000
,  // measure 61
00110000
00001100
00010000
00000200
,  // measure 62
00000310
00001000
00020000
00000000
00001000
00000000
00030100
00000000
,  // measure 63
00001000
00000010
00000100
00000000
00000010
00000100
00000001
00000000
,  // measure 64
00001000
00000100
00010000
00100000
,  // measure 65
00100000
01000000
00000000
10000000
01000000
00000000
00200000
00000000
,  // measure 66
00310000
00001000
00000200
00000000
00010000
00000000
00001300
00000000
,  // measure 67
00001000
00000000
00010000
00000000
00010000
00001000
00010000
00000000
,  // measure 68
00000100
00000010
00000001
00002000
,  // measure 69
00000000
00003000
00010000
00000000
00100000
20000000
00000000
00000000
,  // measure 70
00000000
00000000
00000000
00010000
,  // measure 71
00010000
00000000
00010000
00000000
30010000
00000000
00100000
00001000
,  // measure 72
00100000
00001000
00000000
00000100
00000001
00000100
00000001
00001000
,  // measure 73
00000010
00001000
00000000
00000100
00010000
00001000
00100000
00000000
,  // measure 74
00010000
01000000
00000000
01000000
00000000
00010000
01000000
00100000
,  // measure 75
10000000
01000000
00000000
00100000
01000000
00100000
00010000
00000000
,  // measure 76
00001000
00000100
00010000
00001000
00010000
00001000
00000010
00000100
,  // measure 77
00000010
00000100
00000001
00000000
00000000
00001000
00000010
00001000
,  // measure 78
00000001
00000100
00000010
00001000
00010000
00100000
00010000
01000000
,  // measure 79
00100000
10000000
01000000
00000000
00110000
00000000
02010000
00000000
,  // measure 80
00010000
03010000
00101000
00021000
,  // measure 81
00001000
00031000
00000000
00000100
,  // measure 82
00000010
00000010
00000100
00000000
00001000
00000001
00000010
00001000
,  // measure 83
00000200
00000000
00000000
00000300
00000000
00010000
00100000
01000000
,  // measure 84
10000000
00010000
00100000
00010000
10000000
00100000
00010000
01000000
,  // measure 85
00100000
00100000
00000000
00000000
00000000
00001000
00010000
00000100
,  // measure 86
00001000
00000010
00001000
00000100
00000010
00000001
00000100
00000000
,  // measure 87
00000100
00000010
00000000
00000000
00010000
00000000
00110000
00000000
,  // measure 88
01000000
00010000
10000000
00100000
00010000
00000000
00001000
00000000
,  // measure 89
00001100
00000010
00000100
00000001
00000100
00000000
00011000
00000000
,  // measure 90
00100000
00010000
00001000
00000100
00000010
00000000
00000002
00000000
,  // measure 91
00000000
00000000
00000000
00000003
;
