#TITLE:empathy;
#SUBTITLE:;
#ARTIST:TaQ;
#TITLETRANSLIT:;
#SUBTITLETRANSLIT:;
#ARTISTTRANSLIT:;
#GENRE:beatmania IIDX;
#CREDIT:SAIKIO;
#BANNER:empathy-banner.png;
#BACKGROUND:bg.png;
#LYRICSPATH:;
#CDTITLE:IIDX.png;
#MUSIC:empathy.ogg;
#OFFSET:0.010000;
#SAMPLESTART:34.225296;
#SAMPLELENGTH:14.530590;
#SELECTABLE:YES;
#BPMS:0.000000=170.000000
,97.000000=85.000000
,129.000000=170.000000
,225.000000=85.000000
;
#STOPS:
;
#BGCHANGES:0.000=empathy.avi=1.000=0=0=0=StretchNoLoop====,
99999=-nosongbg-=1.000=0=0=0 // don't automatically add -songbackground-
;
#KEYSOUNDS:;
#ATTACKS:;

//---------------dance-single - ----------------
#NOTES:
     dance-single:
     :
     Easy:
     6:
     0.238988,0.301371,0.062622,0.035784,0.000000,187.000000,180.000000,7.000000,4.000000,0.000000,0.000000,0.238988,0.301371,0.062622,0.035784,0.000000,187.000000,180.000000,7.000000,4.000000,0.000000,0.000000:
0000
0000
0000
0000
,
0000
0000
0000
0000
,
0000
0000
0000
0000
,
0000
0000
0000
0000
,
0000
1000
0000
0000
,
0000
0100
0000
0000
,
0000
0010
0000
0000
,
0000
0001
0000
0000
,
0000
0100
0010
0100
,
0000
0010
0100
0010
,
0000
1000
0001
1000
,
0000
0001
1000
0001
,
0000
1000
0100
1000
,
0000
0010
0001
0010
,
0000
0100
1000
0100
,
0010
0001
0010
0100
,
0000
1000
0001
1000
,
0100
0010
0100
0010
,
0000
0100
1000
0100
,
0001
0010
1000
0010
,
0000
0010
0001
0100
,
1000
0010
0100
0001
,
0000
1000
0010
0001
,
0100
0010
1000
0100
,
0000
0020
0000
0000
,
0030
0010
0000
0000
,
0000
0200
0000
0000
,
0300
0100
0000
0000
,
0000
0000
1000
1000
0100
0000
1000
0000
,
0100
0000
0010
0010
0001
0000
0010
0000
,
0001
0000
0100
0100
1000
0000
0001
0000
,
1000
0000
0001
0001
0010
0000
0010
0000
,
0100
0100
0010
1000
,
0000
0010
0010
0001
,
0000
0100
1000
0010
,
0000
0100
0001
0010
,
0000
0010
0100
0101
,
0000
0001
0010
1100
,
0000
0100
0010
0011
,
0000
0010
0100
1010
,
0000
0000
1000
1000
0001
0000
0001
0001
,
1000
0010
0100
1000
,
0001
1000
0000
0010
,
0000
0001
0000
0100
,
0000
0000
0010
0010
0100
0000
0100
0100
,
0010
1000
0100
0001
,
1000
0001
0000
0100
,
0000
1000
0000
0010
,
0000
0100
0010
1001
,
0000
1000
0100
0010
,
0000
1000
0001
0110
,
0000
0100
0010
0001
,
0000
0010
0100
1001
,
0000
0010
0100
1000
,
0000
0010
0001
0100
,
0000
1000
0100
0001
,
0100
0000
0010
0010
0100
0000
1000
0000
,
0100
0000
0010
0010
0001
0000
0100
0000
,
0001
0000
2000
0100
0100
0000
0010
0000
,
3100
0010
0010
0010
,
0010
0010
0010
0020
,
0000
0030
0000
0000
;

//---------------dance-single - ----------------
#NOTES:
     dance-single:
     :
     Beginner:
     2:
     0.120133,0.219179,0.000000,0.000000,0.000000,94.000000,94.000000,0.000000,0.000000,0.000000,0.000000,0.120133,0.219179,0.000000,0.000000,0.000000,94.000000,94.000000,0.000000,0.000000,0.000000,0.000000:
0000
0000
0000
0000
,
0000
0000
0000
0000
,
0000
0000
0000
0000
,
0000
0000
0000
0000
,
0000
0000
0000
0000
,
0000
0000
0000
0000
,
0000
0000
0000
0000
,
0000
0000
0000
0000
,
0000
1000
0000
0000
,
0000
1000
0000
0000
,
0000
0001
0000
0000
,
0000
0001
0000
0000
,
0000
0010
0000
0000
,
0000
0010
0000
0000
,
0000
0100
0000
0000
,
0000
0100
0000
0000
,
0000
1000
0000
0000
,
0000
0001
0000
0000
,
0000
0100
0000
0000
,
0000
0010
0000
0000
,
0000
1000
0000
0000
,
0000
0010
0000
0000
,
0000
0100
0000
0000
,
0000
0001
0000
0000
,
0000
0010
0000
0000
,
0000
0000
0000
0000
,
0000
1000
0000
0000
,
0000
0000
0000
0000
,
0000
0010
0100
0010
,
0000
0001
1000
0001
,
0000
0100
1000
0100
,
0000
0010
0010
0010
,
0010
0100
0000
0100
,
0000
0010
0000
0010
,
0000
1000
0000
1000
,
0000
1000
0000
1000
,
0000
0001
0000
0001
,
0000
0100
0000
0100
,
0000
0001
0000
0001
,
0000
0001
0000
0001
,
0000
0100
0000
0100
,
0000
0010
0000
0100
,
0100
0010
0000
0010
,
0000
0010
0000
0001
,
0000
0010
0000
0010
,
0000
1000
0000
0010
,
0010
0100
0000
0100
,
0000
0100
0000
0001
,
0000
0100
0000
1000
,
0000
0010
0000
0001
,
0000
0100
0000
1000
,
0000
1000
0000
0100
,
0000
0100
0000
0010
,
0000
0000
0000
0010
,
0000
0100
0000
1000
,
0000
0100
0000
0010
,
0000
0001
0000
0100
,
0010
0000
0001
1000
,
1000
0000
0001
0001
,
1000
0010
0000
0010
,
0000
0010
0000
0010
,
0000
0010
0000
0000
;

//---------------dance-single - ----------------
#NOTES:
     dance-single:
     :
     Medium:
     10:
     0.347619,0.438357,0.035784,0.250490,0.000000,272.000000,268.000000,4.000000,28.000000,0.000000,0.000000,0.347619,0.438357,0.035784,0.250490,0.000000,272.000000,268.000000,4.000000,28.000000,0.000000,0.000000:
0000
0000
0000
0000
,
0000
0000
0000
0000
,
0000
0000
0000
0000
,
0000
0000
0000
0000
,
0000
0010
0000
0100
,
0000
0010
1000
0000
,
0100
0001
0100
0000
,
0010
1000
0100
0000
,
0000
0010
0001
0100
,
1000
0010
1000
0100
,
0100
0000
1000
0010
1000
0000
0001
0000
,
0100
1000
0010
0001
,
0100
0000
0001
0100
0001
0000
1000
0000
,
0010
0100
0010
0002
,
0000
0000
1003
0000
0100
0000
0001
1000
,
0010
0000
0001
0000
0100
0000
0010
0001
,
0100
0000
1000
0000
0010
0000
0100
0010
,
0001
0000
0010
0000
1000
0000
0001
0100
,
1000
0000
0100
0000
0010
0000
1000
0100
,
0010
0000
0001
0000
0100
0000
0010
1000
,
0100
0000
0001
0000
0100
0000
0001
0010
,
0100
0000
0010
0000
1000
0000
1000
0100
,
0010
0010
0100
0001
,
0100
0000
0100
0100
0010
0000
0100
0010
,
0100
0020
1000
0100
,
0031
0000
0100
0100
0100
0000
0010
0000
,
0001
2000
0100
0010
,
3001
0000
0010
0010
0010
0000
1000
0000
,
0100
0000
0010
1000
0010
0100
0001
0010
,
0100
0000
0001
1000
0001
0100
0010
1000
,
0001
0000
0100
1000
0100
0010
1000
0100
,
0001
0000
0100
0100
0001
0001
1000
1000
,
0010
0010
2000
0000
0010
0000
0100
0000
,
3001
0000
0100
0000
1000
0100
0001
0000
,
0100
0110
0001
0110
,
0010
1000
1000
0100
,
1000
0020
1000
0001
,
1030
0000
0100
0000
0001
0010
1000
0000
,
0010
1010
0100
1010
,
0010
0001
0001
0100
,
0010
0001
0100
1000
,
0010
0100
0001
0100
1000
0010
0100
0010
,
0001
2000
3010
0002
,
0103
0020
1030
2000
,
3001
0010
1000
0100
,
0001
0010
1000
0010
0100
1000
0100
0001
,
0010
0020
0031
2000
,
3100
0002
0013
0020
,
1030
0000
0010
0100
0001
0000
1000
0100
,
1000
0000
0100
0010
0001
0000
1000
0001
,
1000
0000
0010
0100
1000
0000
0200
0000
,
0301
0020
1030
0200
,
0001
0320
0100
1030
,
0100
0001
0010
0100
,
1000
0002
0000
2003
,
0000
3200
0000
0320
,
0000
0000
0031
0100
1000
0100
0001
0001
,
0010
0000
0010
1000
0100
1000
0010
0010
,
0100
0000
0001
0100
0001
1000
0010
0100
,
0010
0001
0020
0000
0230
0000
0320
0000
,
0230
0320
0230
0320
,
0000
0030
0000
0000
;

//---------------dance-single - ----------------
#NOTES:
     dance-single:
     :
     Hard:
     13:
     0.483087,0.684933,0.053676,0.277328,0.125245,378.000000,372.000000,6.000000,31.000000,0.000000,0.000000,0.483087,0.684933,0.053676,0.277328,0.125245,378.000000,372.000000,6.000000,31.000000,0.000000,0.000000:
0000
0000
0000
0000
,
0000
0000
0000
0000
,
0000
0000
0000
0000
,
0000
0000
0000
0000
,
0000
0000
0010
0000
0100
0000
0000
0010
,
0001
0000
0100
0000
1000
0000
0000
0010
,
0000
0000
0100
0000
0000
0100
0000
0010
,
0000
0000
1000
0000
0001
0000
0000
0100
,
0000
0000
0010
1000
0100
1000
0010
0100
,
0001
0000
0100
0001
0010
0001
1000
0100
,
0010
0000
0001
1000
0010
1000
0100
0010
,
0001
0000
0010
0010
1000
0100
1000
0100
,
0010
0000
0100
0001
1000
0100
1000
0001
,
0010
0000
0001
0010
0001
0010
0100
1000
,
0001
0000
0100
1000
0100
0001
0010
0001
,
0100
0000
0010
0100
0010
0100
1000
0010
,
1000
0000
0010
0100
0010
0100
0001
1000
,
0100
0000
0001
0010
0001
0010
1000
0100
,
0001
0000
0100
0001
1000
0001
0100
0010
,
1000
0000
0100
0010
0100
0001
1000
0100
,
0010
0000
0001
0010
0100
0001
0100
0010
,
1000
0000
0010
0100
0001
0100
0010
0100
,
1000
0000
0100
0010
1000
0010
1000
0010
,
0100
0000
0001
0100
0001
0010
0001
1000
,
0100
0020
2030
3200
,
0302
0000
0103
1000
0010
0000
0100
0001
,
0010
0200
0302
0023
,
2030
0000
3001
0100
0010
0000
1000
0010
,
0100
0000
0000
0000
1000
0000
1000
0000
0010
0000
0100
0001
0010
0000
0100
0000
,
1000
0000
0010
0000
0100
0000
0100
0000
0001
0000
0100
1000
0010
0000
0100
0000
,
1000
0001
1000
0000
0010
0000
0100
0000
0010
0000
0100
0001
0100
0000
0010
0000
,
1000
0100
1010
0100
0001
0010
0101
0010
,
0001
0100
0020
0000
1030
0001
1000
0100
,
1000
0100
1010
0100
,
0101
0020
0230
2300
,
3010
0200
0301
2000
,
3010
0000
0200
0000
0301
0010
0001
1000
,
0001
1000
1010
0001
,
0101
0200
0320
0032
,
0103
2000
3010
0002
,
0103
0020
0001
0130
,
1000
0000
0000
0000
1000
0100
1000
0100
0010
0100
0010
0001
0010
0001
0100
0010
,
0100
0020
2030
3200
,
0301
0000
0010
0000
0200
0000
0301
0010
,
0100
0020
1000
0130
,
0001
0000
0000
0000
0010
0001
0010
0001
0100
0001
0100
0010
1000
0010
1000
0001
,
0100
0020
0032
0203
,
1300
0000
0020
0000
0130
0000
0010
1000
,
0100
0000
1000
0001
0010
0000
0001
0010
,
0100
0000
1000
0100
1000
0000
0010
0001
,
0010
0000
1000
1000
0100
0000
0001
0001
,
0100
0000
0001
0010
0100
0000
1000
0100
,
0010
0000
0001
0010
1000
0000
0100
0010
,
1000
0000
1000
0100
0001
0000
0010
0100
,
0001
0000
0010
1000
0100
0000
1000
0001
,
0100
0000
0010
0100
1000
0100
0010
0001
,
0100
0000
0001
0000
0020
0000
1000
0000
0130
0000
0100
0001
0010
0100
0010
0000
,
1000
0000
0100
0000
0010
0000
0001
0000
0100
0000
0100
0010
0001
1000
0001
0000
,
0010
0100
0001
0001
1000
1000
0010
1000
,
0010
0000
0100
0000
0001
0010
0100
0000
1000
0010
0100
0000
0001
0010
0100
0000
,
1000
0010
0100
0000
0001
0010
0100
0000
1000
0010
0100
0000
0001
0010
0100
0000
,
1000
0010
0100
0000
0010
0000
0000
0000
0000
0000
0000
0000
0000
0000
0000
0000
;

//---------------dance-double - ----------------
#NOTES:
     dance-double:
     :
     Easy:
     5:
     0.215984,0.301371,0.000000,0.080515,0.000000,169.000000,169.000000,0.000000,9.000000,0.000000,0.000000,0.215984,0.301371,0.000000,0.080515,0.000000,169.000000,169.000000,0.000000,9.000000,0.000000,0.000000:
00000000
00000000
00000000
00000000
,
00000000
00000000
00000000
00000000
,
00000000
00000000
00000000
00000000
,
00000000
00000000
00000000
00000000
,
00000000
00001000
00000000
00000000
,
00000000
00010000
00000000
00000000
,
00000000
00100000
00000000
00000000
,
00000000
01000000
00000000
00000000
,
00000000
10000000
10000000
01000000
,
00000000
00100000
00100000
00010000
,
00000000
00001000
00010000
00001000
,
00000000
00000100
00001000
00000100
,
00000000
00000010
00000001
00000100
,
00000000
00001000
00010000
00100000
,
00000000
00010000
00010000
01000000
,
00000000
10000000
00100000
00010000
,
00000000
00001000
00001000
00000100
,
00000000
00000010
00000001
00000100
,
00000000
00001000
00010000
00100000
,
00000000
00010000
01000000
10000000
,
00000000
00100000
00010000
00001000
,
00000000
00001000
00000100
00000001
,
00000000
00000010
00000010
00000100
,
00000000
00001000
00010000
01000000
,
00000000
00200000
00000000
00000000
,
00000000
00300000
00100000
00000000
,
00000000
00002000
00000000
00000000
,
00000000
00003000
00001000
00000000
,
00000000
00000000
00000100
00000000
00001000
00000000
00000010
00000010
,
00000001
00000000
00000100
00000000
00001000
00000000
00010000
00010000
,
00100000
00000000
01000000
00000000
10000000
00000000
01000000
01000000
,
00010000
00001000
00010000
00000100
,
00001000
00010000
01000000
10000000
,
01000000
00100000
00010000
00001000
,
00000100
00001000
00000000
00000100
,
00000000
00000010
00000000
00000001
,
00000000
00000100
00001000
00010000
,
01000000
10000000
00100000
00010000
,
00001000
00000100
00000000
00010000
,
00000000
00100000
00000000
01000000
,
00000000
10000000
00010000
00100000
,
01000000
00000000
00010000
00010000
00010000
00000000
00001000
00000000
,
00000100
00000020
00000030
00000100
,
00000000
00000001
00000000
00000100
,
00000000
00000010
00001000
00010000
,
00000100
00000000
00000010
00000010
00000010
00000000
00001000
00000000
,
00100000
00020000
00030000
00100000
,
00000000
01000000
00000000
00010000
,
00000000
00000000
00001000
00000100
,
00000001
00000000
00000010
00000100
,
00001000
00000000
00010000
00001000
,
00100000
00000000
00010000
00100000
,
10000000
00000000
01000000
00010000
,
00001000
00000000
00001000
00000100
,
00000001
00000020
00000000
00001030
,
00000000
00000200
00000000
00010300
,
00000000
00000000
00200000
00000000
00310000
00000000
01000000
10000000
,
01000000
00000000
00020000
00000000
00031000
00000000
00001000
00010000
,
00001000
00000010
00000100
00001000
,
00010000
00100000
00100000
00100000
,
00100000
00100000
00100000
00100000
,
00200000
00300000
00000000
00000000
;

//---------------dance-double - ----------------
#NOTES:
     dance-double:
     :
     Medium:
     10:
     0.351453,0.438357,0.125245,0.098407,0.000000,275.000000,261.000000,14.000000,11.000000,0.000000,0.000000,0.351453,0.438357,0.125245,0.098407,0.000000,275.000000,261.000000,14.000000,11.000000,0.000000,0.000000:
// measure 0
00000000
00000000
00000000
00000000
,  // measure 1
00000000
00000000
00000000
00000000
,  // measure 2
00000000
00000000
00000000
00000000
,  // measure 3
00000000
00000000
00000000
00000000
,  // measure 4
00000000
00100000
00000000
00010000
,  // measure 5
00000000
00001000
00000000
00000100
,  // measure 6
00000000
00001000
00000000
00000100
,  // measure 7
00000000
00000010
00000010
00000000
,  // measure 8
00000001
00000100
00001000
00010000
,  // measure 9
00010000
00100000
00010000
01000000
,  // measure 10
01000000
00100000
10000000
00010000
,  // measure 11
00010000
00001000
00000100
00000010
,  // measure 12
00000010
00000100
00000001
00001000
,  // measure 13
00001000
00000100
00010000
01000000
,  // measure 14
01000000
00000000
00100000
00000000
01000000
00000000
10000000
00010000
,  // measure 15
10000000
00000000
00010000
00000000
00001000
00000000
00000100
00001000
,  // measure 16
00000100
00000000
00000010
00000000
00000001
00000000
00000010
00001000
,  // measure 17
00000100
00000000
00001000
00000000
00010000
00000000
00100000
00010000
,  // measure 18
01000000
00000000
10000000
00000000
00100000
00000000
00010000
00001000
,  // measure 19
00010000
00000000
00000100
00000000
00001000
00000000
00000100
00000001
,  // measure 20
00000100
00000000
00000010
00000000
00000100
00000000
00001000
00010000
,  // measure 21
00100000
00000000
00010000
00000000
01000000
00000000
00100000
01000000
,  // measure 22
10000000
00000000
01000000
00000000
10000000
00000000
00100000
00010000
,  // measure 23
00001000
00000000
00010000
00000000
00001000
00000000
00000100
00001000
,  // measure 24
00010000
00200000
00000000
00310000
,  // measure 25
00001000
00000200
00000310
00000001
,  // measure 26
00000100
00000020
00000000
00000130
,  // measure 27
00001000
00020000
00130000
01000000
,  // measure 28
00000000
00000000
00100000
00100000
00010000
01000000
10000000
00100000
,  // measure 29
00010000
00000000
00001000
00001000
00000100
00000001
00000010
00000100
,  // measure 30
00001000
00000000
00010000
00010000
00100000
00010000
01000000
10000000
,  // measure 31
00100000
00011000
00010100
00011000
,  // measure 32
00101000
00000000
00010000
00000000
01000000
00000000
10000000
00100000
,  // measure 33
00010000
00000000
00001000
00000000
00010000
00000000
00001000
00000100
,  // measure 34
00001000
00000000
00000010
00000000
00001000
00000000
00000001
00000001
,  // measure 35
00000100
00000000
00000010
00000000
00001000
00000000
00001000
00001000
,  // measure 36
00010000
00000000
00100000
00000000
01000000
00000000
00100000
00010000
,  // measure 37
00100000
00000000
01000000
00000000
10000000
00000000
00100000
00010000
,  // measure 38
00001000
00000000
00010000
00000000
00001000
00000000
00000100
00001000
,  // measure 39
00000010
00000000
00001000
00000000
00000100
00000000
00000001
00000100
,  // measure 40
00001000
00010000
00100000
01000000
,  // measure 41
00010000
00000000
00001000
00100000
00001000
00010000
00001000
00100000
,  // measure 42
00001000
00010000
01010000
00010000
,  // measure 43
00110000
00010000
00011000
00001000
,  // measure 44
00001100
00000010
00000100
00000010
,  // measure 45
00000001
00000000
00000010
00000001
00000010
00000100
00000010
00000001
,  // measure 46
00000010
00001000
00001100
00001000
,  // measure 47
00011000
00010000
00110000
00100000
,  // measure 48
01100000
20000000
30010000
00100000
,  // measure 49
00010000
00020000
00031000
00000100
,  // measure 50
00001000
00000020
00000130
00000001
,  // measure 51
00000010
00000200
00001300
00000100
,  // measure 52
00010000
00000000
00001000
00010000
00001000
00000000
00100000
00000000
,  // measure 53
00010000
00000000
01000000
10000000
00100000
00000000
00010000
00000000
,  // measure 54
00001000
00000000
00010000
00001000
00000100
00000000
00001000
00000010
,  // measure 55
00000100
00000000
00000100
00000001
00000010
00000000
00000010
00001000
,  // measure 56
00010000
00000000
00001000
00010000
01010000
00000000
01000000
10000000
,  // measure 57
00100000
00000000
00010000
00001000
00011000
00000000
00001000
00000100
,  // measure 58
00000010
00002000
00003100
00000002
,  // measure 59
00000103
00000010
00001000
00010000
,  // measure 60
00100000
10000000
00100000
00010000
,  // measure 61
00200000
00300000
00000000
00000000
;

//---------------dance-double - ----------------
#NOTES:
     dance-double:
     :
     Hard:
     13:
     0.471585,0.684933,0.143137,0.116299,0.076042,369.000000,353.000000,16.000000,13.000000,0.000000,0.000000,0.471585,0.684933,0.143137,0.116299,0.076042,369.000000,353.000000,16.000000,13.000000,0.000000,0.000000:
00000000
00000000
00000000
00000000
,
00000000
00000000
00000000
00000000
,
00000000
00000000
00000000
00000000
,
00000000
00000000
00000000
00000000
,
00000000
00000000
00100000
00000000
00010000
00000000
00000000
00001000
,
00000000
00000000
00000100
00000000
00000100
00000000
00000000
00000001
,
00000000
00000000
00000010
00000000
00000000
00000100
00000000
00000000
,
00000000
00000010
00000100
00001000
,
00000000
00000000
00001000
00010000
00100000
00000000
00010000
00000000
,
01000000
00000000
10000000
00100000
00010000
00000000
00001000
00000000
,
00010000
00000000
00000100
00001000
00000010
00000000
00000100
00000000
,
00000001
00000000
00000010
00000100
00001000
00000000
00000100
00000000
,
00010000
00000000
00100000
01000000
10000000
00000000
01000000
00000000
,
10000000
00000000
00100000
00010000
00001000
00000000
00000100
00000000
,
00010000
00000000
00001000
00000100
00000010
00000001
00000100
00000000
,
00000110
00000000
00000001
00000100
00000010
00001000
00010000
00000000
,
00011000
00000000
00100000
01000000
00010000
01000000
00100000
00000000
,
11000000
00000000
10000000
00100000
00010000
00001000
00010000
00000000
,
00011000
00000000
00000100
00001000
00000010
00000100
00000001
00000000
,
00000110
00000000
00000100
00001000
00010000
00100000
01000000
00000000
,
00110000
00000000
01000000
00010000
01000000
10000000
00100000
00000000
,
00011000
00000000
00000100
00001000
00000010
00000100
00000001
00000000
,
00001001
00000000
00000100
00000001
00000100
00001000
00000010
00000000
,
00001100
00000000
00000100
00001000
00010000
00100000
01000000
00000000
,
01100000
00200000
00000000
20300000
,
30020000
00031000
00000010
00000001
,
00000100
00000020
00000000
00000032
,
00002003
00013000
00100000
01000000
,
10000000
00000000
00000000
00000000
00100000
00000000
00010000
00000000
00001000
00000000
00010000
00001000
00000100
00000000
00001000
00000000
,
00000010
00000000
00000100
00000000
00000001
00000000
00000010
00000000
00000100
00000000
00001000
00010000
00100000
00000000
00010000
00000000
,
01000000
00000000
10000000
00000000
00100000
00000000
00010000
00000000
00001000
00000000
00010000
00001000
00000100
00000000
00001000
00000000
,
00000010
00000100
00000101
00001000
00001100
00010000
00011000
00100000
,
00100000
00010000
01000000
00100000
00001000
00010000
00001000
00100000
,
00001000
00000000
00010000
00000100
00001000
00000010
00000100
00000001
,
00000010
00000000
00000010
00010000
00001000
00010000
00000100
00001000
,
00010000
00000000
01000000
00100000
10000000
00100000
00010000
00001000
,
00010000
00000000
00001000
00000100
00000001
00000100
00001000
00000010
,
00001000
00000000
00010000
00001000
00010000
00100000
00010000
01000000
,
10000000
00000000
00100000
00010000
00001000
00000000
00000100
00001000
,
00000100
00000000
00000010
00001000
00000001
00000000
00000100
00010000
,
00001000
00000000
00100000
00010000
00100000
01000000
10000000
00100000
,
01000000
00000000
00010000
00000000
00100000
00001000
00100000
00001000
00100000
00000000
00010000
00000000
00001000
00000000
00010000
00000000
,
00000100
00000000
00000100
00000010
00001000
00000000
00000010
00000001
,
00001000
00000000
00001000
00010000
00100000
00000000
00100000
01000000
,
00010000
00000000
00001000
00010000
00001000
00000100
00000001
00000100
,
00001000
00000000
00000010
00000000
00001000
00010000
00001000
00010000
00001000
00000000
01000000
00000000
00010000
00000000
00100000
00000000
,
00010000
00000000
00100000
01000000
10000000
00000000
00100000
00010000
,
01000000
00000000
00010000
00001000
00000100
00000000
00000010
00000001
,
00000100
00000000
00000001
00000010
00000100
00001000
00010000
00100000
,
00010000
00000000
00100000
10000000
01000000
00100000
01000000
00010000
,
00100000
00000000
00010000
00001000
00010000
00001000
00000100
00000010
,
00000100
00000000
00000001
00000010
00000100
00001000
00010000
00100000
,
00010000
00000000
00100000
01000000
10000000
01000000
00100000
00010000
,
00001000
00000000
00000100
00000010
00001000
00000100
00001000
00010000
,
00100000
00000000
10000000
01000000
00100000
00000000
00210000
00000000
,
00000000
00302000
00000000
00023000
,
00000000
00000000
00000000
00000000
00030100
00000000
00001000
00000000
00011000
00000000
00000000
00000000
00010000
00100000
01000000
00000000
,
10000000
00000000
00000000
00000000
01000000
00000000
10000000
00000000
00110000
00000000
00000000
00000000
00010000
00001000
00000100
00000000
,
00000010
00000002
00000023
00000230
,
00002300
00000000
00000000
00000000
00003100
00010000
00001000
00000000
00010000
00100000
01000000
00000000
00010000
10000000
01000000
00000000
,
00100000
01000000
00010000
00000000
00010000
00001000
00000100
00000000
00000001
00000010
00000100
00000000
00000010
00000001
00001000
00000000
,
00000100
00001000
00010000
00000000
00100000
00000000
00000000
00000000
00000000
00000000
00000000
00000000
00000000
00000000
00000000
00000000
;
