#VERSION:0.83;
#TITLE:chase;
#SUBTITLE:;
#ARTIST:batta;
#TITLETRANSLIT:chase;
#SUBTITLETRANSLIT:;
#ARTISTTRANSLIT:batta;
#GENRE:J-ROCK;
#ORIGIN:;
#CREDIT:SAIKIO;
#BANNER:chase-banner.png;
#BACKGROUND:bg.png;
#PREVIEWVID:;
#JACKET:chase-jacket.png;
#CDIMAGE:;
#DISCIMAGE:;
#LYRICSPATH:;
#CDTITLE:Saikio Simfiles.png;
#MUSIC:chase.ogg;
#OFFSET:-0.051000;
#SAMPLESTART:43.964020;
#SAMPLELENGTH:13.480024;
#SELECTABLE:YES;
#BPMS:0.000=224.080;
#STOPS:;
#DELAYS:;
#WARPS:;
#TIMESIGNATURES:0.000=4=4;
#TICKCOUNTS:0.000=4;
#COMBOS:0.000=1;
#SPEEDS:0.000=1.000=0.000=0;
#SCROLLS:0.000=1.000;
#FAKES:;
#LABELS:0.000=Song Start;
#BGCHANGES:-0.700=chase.avi=1.000=0=0=0=StretchNoLoop====,
99999=-nosongbg-=1.000=0=0=0 // don't automatically add -songbackground-
;
#KEYSOUNDS:;
#ATTACKS:
;

//---------------dance-single - ----------------
#NOTEDATA:;
#CHARTNAME:;
#STEPSTYPE:dance-single;
#DESCRIPTION:;
#CHARTSTYLE:;
#DIFFICULTY:Beginner;
#METER:4;
#RADARVALUES:0.164774,0.276176,0.071641,0.007164,0.000000,161.000000,151.000000,10.000000,1.000000,0.000000,0.000000,0.000000,0.000000,0.000000,0.164774,0.276176,0.071641,0.007164,0.000000,161.000000,151.000000,10.000000,1.000000,0.000000,0.000000,0.000000,0.000000,0.000000;
#CREDIT:;
#NOTES:
0000
0000
0000
0000
,
0000
0000
0000
0000
,
0000
0000
0000
0000
,
0000
0000
0000
0000
,
0000
0000
0000
0000
,
0000
0000
0000
0000
,
0000
0000
0000
0000
,
0000
0000
0000
0000
,
0000
0000
0000
0000
,
0000
0000
0000
0000
,
0000
0010
0000
0000
,
0000
0100
0000
0000
,
0000
0001
0000
0000
,
0000
1000
0000
0000
,
0000
0100
0000
0000
,
0000
0010
0000
0000
,
0000
0001
0000
0000
,
0000
1000
0000
0000
,
0000
0001
0000
0000
,
0000
0001
0000
0000
,
0000
0100
0000
0000
,
0000
0100
0000
0000
,
0000
1000
0000
0000
,
0000
1000
0000
0000
,
0000
0010
0000
0000
,
0000
0000
0000
0000
,
0000
0100
0000
0000
,
0000
0001
0000
0000
,
0000
0100
0000
0000
,
0000
1000
0000
0000
,
0000
0100
0000
0000
,
0000
0010
0000
0000
,
0000
0001
0000
0000
,
0000
0000
0000
0010
,
0000
0000
0000
0100
,
0000
0000
0000
1000
,
0000
1000
0000
0000
,
0000
0000
0000
0001
,
0000
0000
0000
0010
,
0000
0000
0000
0100
,
0000
0010
0000
0010
,
0000
0010
0000
0000
,
0000
0001
0000
0001
,
0000
0000
0000
0010
,
0000
1000
0000
0010
,
0000
0000
0000
0100
,
0000
0001
0000
0100
,
0000
0000
0000
1000
,
0000
1000
0000
0000
,
0000
1000
0000
1000
,
0000
0010
0000
0001
,
0000
0000
0000
0001
,
0000
0001
0000
0100
,
0000
0000
0000
0010
,
0000
0100
0000
0100
,
0000
1000
0000
0000
,
0000
0001
0000
0100
,
0000
0000
0000
0010
,
0000
1000
0000
1000
,
0000
0000
0000
0010
,
0000
0001
0000
0001
,
0000
0000
0000
0100
,
0000
0010
0000
0100
,
0000
0010
0000
0000
,
0000
1000
0000
1000
,
0000
0100
0000
0100
,
0000
0001
0000
0001
,
0000
0010
0000
0010
,
0000
1000
0000
0001
,
0000
1000
0000
0001
,
0000
0100
0000
0100
,
0000
0010
0000
0010
,
0000
1000
0000
0000
,
0000
1000
0000
0000
,
0000
0001
0000
0000
,
0000
0001
0000
0000
,
0000
0010
0000
0100
,
0000
0010
0000
0100
,
0000
1000
0000
0001
,
0000
1000
0000
0000
,
0000
0010
0000
0000
,
0000
0010
0000
0000
,
0000
0100
0000
0000
,
0000
0100
0000
0000
,
0000
0001
0000
0000
,
0000
0001
0000
0000
,
0000
1000
0000
0001
,
0000
1000
0000
0001
,
0000
1000
0000
0001
,
0000
1000
0000
0000
,
0000
0010
0000
0010
,
0000
0100
0000
0100
,
0000
0010
0000
0000
,
0000
0001
0000
0001
,
0000
1000
0000
0001
,
0000
0000
0000
0100
,
0000
1000
0000
0000
,
0000
0010
0000
1000
,
0000
0010
0000
0010
,
0000
0100
0000
0100
,
0000
0010
0000
0000
,
0000
0001
0000
0001
,
0000
0100
0000
0000
,
0000
0010
0000
0000
,
0000
1001
0000
0000
,
0000
1001
0000
0000
,
0000
0110
0000
0000
,
0000
0110
0000
0000
,
0000
1001
0000
0000
,
0000
1001
0000
0000
,
0000
1000
0000
0000
,
0000
0100
0000
0000
,
0000
0110
0000
0000
,
0000
0110
0000
0000
,
0000
1001
0000
0000
,
0000
1001
0000
0000
,
0000
0010
0000
0001
,
0000
0100
0000
0000
,
0000
0010
0000
0010
,
0000
0000
0000
0000
,
0000
0100
0000
0100
,
0000
0000
0000
0000
,
0000
0001
0000
0001
,
0000
0000
0000
0100
,
0000
0010
0000
0000
,
0200
0000
0000
0000
,
0000
0000
0000
0000
,
0000
0000
0000
0000
,
0000
0000
0300
0000
;

//---------------dance-single - ----------------
#NOTEDATA:;
#CHARTNAME:;
#STEPSTYPE:dance-single;
#DESCRIPTION:;
#CHARTSTYLE:;
#DIFFICULTY:Easy;
#METER:6;
#RADARVALUES:0.227204,0.368234,0.128954,0.035820,0.000000,222.000000,204.000000,18.000000,5.000000,0.000000,0.000000,0.000000,0.000000,0.000000,0.227204,0.368234,0.128954,0.035820,0.000000,222.000000,204.000000,18.000000,5.000000,0.000000,0.000000,0.000000,0.000000,0.000000;
#CREDIT:;
#NOTES:
0000
0000
0000
0000
,
0000
0000
0000
0000
,
0000
0000
0000
0000
,
0000
0000
0000
0000
,
0000
0000
0000
0000
,
0000
0000
0000
0000
,
0000
0000
0000
0000
,
0000
0000
0000
0000
,
0000
0000
0000
0000
,
0000
0000
0000
0000
,
0000
0010
0000
1000
,
0000
0100
0000
0000
,
0000
0010
0000
0001
,
0000
0100
0000
0000
,
0000
1000
0000
0001
,
0000
0100
0000
0000
,
0000
0001
0000
1000
,
0000
0010
0000
0000
,
0000
0100
0000
0100
,
0000
1000
0000
0010
,
0000
1000
0000
1000
,
0000
0010
0000
0100
,
0000
0001
0000
0001
,
0000
0010
0000
0100
,
0000
1000
0000
0000
,
0000
0100
0000
0000
,
0000
0010
0000
0010
,
0000
0001
0000
0100
,
0000
1000
0000
1000
,
0000
0010
0000
0001
,
0000
0100
0000
1000
,
0000
0100
0000
0100
,
0000
1000
0000
0000
,
0000
1000
0000
0000
,
0000
0010
0000
1000
,
0000
0100
0000
0001
,
0000
0100
0000
0000
,
0000
0010
0000
0000
,
0000
1000
0000
0010
,
0000
0001
0000
0010
,
0000
1000
0000
1000
,
0000
0001
0000
0000
,
0000
1000
0000
0100
,
0000
1000
0000
0100
,
0000
0010
0000
0100
,
0000
0010
0000
0001
,
0000
0010
0000
0001
,
0000
0010
0000
0100
,
0000
1000
0000
0000
,
0000
0100
0000
1000
,
0000
0010
0000
1000
,
0000
0010
0000
0100
,
0000
0001
0000
0100
,
0000
0001
0000
0010
,
0000
0100
0000
0010
,
0000
1000
0000
0000
,
0000
1001
0000
1000
,
0000
0000
0000
0000
,
0000
0110
0000
0100
,
0000
0000
0000
0000
,
0000
0011
0000
0010
,
0000
0000
0000
0010
,
0000
1010
0000
1000
,
0000
0000
0000
0000
,
0000
0010
0000
1000
,
0000
0100
0000
0100
,
0000
0001
0000
1000
,
0000
0010
0000
0100
,
0000
0002
0000
1003
,
0000
2000
0000
3001
,
0000
0100
0000
0010
,
0000
1000
1000
1000
,
0000
0010
0000
0100
,
0000
0001
0000
0010
,
0000
0100
0000
0001
,
0000
1000
0000
0100
,
0000
0010
0010
0010
,
0000
0100
0100
0100
,
0000
0001
0001
0001
,
0000
1000
0000
0000
,
0000
0010
0000
1000
,
0000
0100
0000
0010
,
0000
0001
0000
0000
,
0000
0100
0000
0000
,
0000
0001
0000
1000
,
0000
0100
0000
1000
,
0000
0010
0000
0110
,
0000
0110
0000
0100
,
0000
0101
0000
1000
,
0000
1010
0000
0000
,
0000
1000
0000
0100
,
0000
1000
0000
0100
,
0000
0010
0000
0100
,
0000
0010
0000
0100
,
0000
0001
0000
0010
,
0000
0001
0000
0100
,
0000
0010
0000
0000
,
0000
0100
0000
0000
,
0000
0001
0000
0010
,
0000
0001
0000
0010
,
0000
0100
0000
0010
,
0000
0100
0000
1000
,
0000
0100
0000
0010
,
0000
0001
0000
0000
,
0000
0110
0000
0100
,
0000
0110
0000
0010
,
0000
1001
0000
1000
,
0000
1001
0000
0001
,
0000
0011
0000
0010
,
0000
0011
0000
1000
,
0000
0100
0000
0100
,
0000
1000
0000
0010
,
0000
1100
0000
1000
,
0000
1100
0000
0001
,
0000
0101
0000
0100
,
0000
0101
0000
1000
,
0000
0100
0000
0100
,
0000
0010
0000
0100
,
0000
0020
0000
0000
,
0130
0000
0000
0000
,
0000
0200
0000
0000
,
0310
0000
0000
0000
,
0000
0001
0000
0100
,
0000
1000
0000
0100
,
0000
0010
0000
0010
,
0200
0000
0000
0000
,
0000
0000
0000
0000
,
0000
0000
0000
0000
,
0000
0000
0300
0000
;

//---------------dance-single - ----------------
#NOTEDATA:;
#CHARTNAME:;
#STEPSTYPE:dance-single;
#DESCRIPTION:;
#CHARTSTYLE:;
#DIFFICULTY:Medium;
#METER:9;
#RADARVALUES:0.365369,0.506322,0.265071,0.136118,0.000000,357.000000,320.000000,37.000000,19.000000,0.000000,0.000000,0.000000,0.000000,0.000000,0.365369,0.506322,0.265071,0.136118,0.000000,357.000000,320.000000,37.000000,19.000000,0.000000,0.000000,0.000000,0.000000,0.000000;
#CREDIT:;
#NOTES:
0000
0000
0000
0000
,
0000
0000
0000
0000
,
0000
0000
0000
0000
,
0000
0000
0000
0000
,
0000
0000
0000
0000
,
0000
0000
0000
0000
,
0000
0000
0000
0000
,
0000
0000
0000
0000
,
0000
0000
0000
0000
,
0000
0000
0000
0000
,
0000
0010
1000
0100
,
0000
0010
0001
0100
,
0000
0001
1000
0100
,
0000
1000
0001
0010
,
0000
1000
0100
0010
,
0000
0001
0100
0010
,
0000
1000
1000
0001
,
0000
0100
0000
0010
,
0000
1000
0100
1000
,
0010
1000
0000
0100
,
0000
0010
0001
0100
,
0001
0010
0000
0001
,
0000
0100
0000
0010
,
0000
1000
0000
0100
,
0000
0010
0000
0001
,
0000
0100
0000
0010
,
0000
1000
0001
1000
,
0100
1000
0000
0001
,
0000
0010
0001
0100
,
0001
1000
0001
0100
,
0000
0010
0000
1000
,
0000
0001
0000
0100
,
0000
1000
0000
0010
,
0000
1000
0000
0100
,
0000
1000
1000
0001
,
0000
0100
0100
0010
,
0000
0001
0010
0100
,
0000
1000
0100
0010
,
0000
1000
0001
1000
,
0000
0010
0100
0010
,
0000
1001
1000
1001
,
0001
1001
0000
0000
,
0000
2001
0000
3100
,
0100
0000
0001
0010
,
0000
1002
0000
0013
,
0010
0000
1000
0100
,
0000
0210
0000
0301
,
0001
0000
0010
1000
,
0100
1000
1000
0000
,
0000
0001
0100
0010
,
0000
0021
0000
1030
,
1000
0000
0010
0100
,
0000
2100
0000
3010
,
0010
0000
0001
0100
,
0000
0010
0100
1000
,
1000
0001
0100
0010
,
0000
0000
1010
0000
0000
1000
0000
0000
,
1010
0000
0000
0100
,
0000
0000
0101
0000
0000
0100
0000
0000
,
0101
0000
0000
0010
,
0000
0000
0110
0000
0000
0010
0000
0000
,
0110
0000
0000
0001
,
0000
0000
1001
0000
0000
1000
0000
0001
,
0000
0000
0000
0000
,
0000
0010
0010
0100
,
0100
1000
0100
0010
,
0001
0100
0100
0010
,
0010
0100
0001
1000
,
0000
1000
0100
1000
,
0010
1000
0100
0010
,
0001
0010
0010
0100
,
0100
1000
0001
0100
,
0000
0020
0000
2030
,
0000
3200
0000
0310
,
0000
0002
0000
0203
,
0000
0320
0000
1030
,
0000
0100
0001
0010
,
0100
0001
1000
0100
,
0000
0010
0001
0100
,
0010
1000
0000
0001
,
0000
1000
0000
0000
1001
0000
0000
0000
,
0000
0001
0000
0000
1001
0000
0000
0000
,
0000
0010
0000
0000
0110
0000
0000
0000
,
0000
0100
0000
0000
0110
0000
0000
0000
,
0000
0001
0000
0000
0101
0000
0000
0000
,
0000
0010
0000
0000
1010
0000
0000
0000
,
0000
0100
0010
1000
,
0100
0010
0001
0100
,
1000
0100
0010
0001
,
0100
1001
0000
0000
,
0000
2001
0000
3001
,
0010
0000
0100
0010
,
0100
1002
0000
1003
,
0010
0000
0100
0001
,
0100
1020
0000
1030
,
0100
0000
0001
0010
,
0100
1000
0100
0000
,
1000
0001
0100
0001
,
1000
0120
0000
0031
,
0100
0000
0010
1000
,
0100
2001
0000
3100
,
0010
0000
0100
0010
,
0100
0001
0001
1000
,
0100
0010
0001
0100
,
0000
0011
0011
0100
,
0010
1000
0000
0100
,
0000
1100
1100
0010
,
0100
0001
0000
0100
,
0000
1001
1001
0010
,
0100
1000
0000
0100
,
0000
1000
0010
0100
,
0001
0010
1000
0100
,
0000
0011
0101
0010
,
0100
1000
0000
0100
,
0000
1100
1010
0100
,
0001
1000
0000
0000
,
0010
0001
0010
0100
,
1000
0100
0010
0100
,
0000
0000
0001
0000
0000
0001
0000
0000
,
0200
0000
0000
0310
,
0000
0000
1000
0000
0000
1000
0000
0000
,
0002
0000
0000
0013
,
0000
0000
0100
0000
0000
0100
0000
0000
,
0010
0000
0100
1000
,
0000
0000
0010
0000
0000
0010
0000
0000
,
0200
0000
0000
0000
,
0000
0000
0000
0000
,
0000
0000
0000
0000
,
0000
0000
0300
0000
;

//---------------dance-single - ----------------
#NOTEDATA:;
#CHARTNAME:;
#STEPSTYPE:dance-single;
#DESCRIPTION:;
#CHARTSTYLE:;
#DIFFICULTY:Hard;
#METER:12;
#RADARVALUES:0.535260,0.782498,0.616112,0.100297,0.000000,523.000000,437.000000,86.000000,14.000000,0.000000,0.000000,0.000000,0.000000,0.000000,0.535260,0.782498,0.616112,0.100297,0.000000,523.000000,437.000000,86.000000,14.000000,0.000000,0.000000,0.000000,0.000000,0.000000;
#CREDIT:;
#NOTES:
0000
0000
0000
0000
,
0000
0000
0000
0000
,
0000
0000
0000
0000
,
0000
0000
0000
0000
,
0000
0000
0000
0000
,
0000
0000
0000
0000
,
0000
0000
0000
0000
,
0000
0000
0000
0000
,
0000
0000
0000
0000
,
0000
0000
0000
0000
,
0000
0010
0001
0100
,
0010
1000
1000
0100
,
0100
1000
0010
0100
,
0001
1000
1000
0100
,
0100
1000
0001
0010
,
0100
0010
0010
0001
,
0001
0100
0010
1000
,
0100
0000
0100
0010
0000
0100
0000
0000
,
0000
0001
0100
0010
,
1000
0000
0100
0010
0001
0000
0100
0000
,
0010
1000
1000
0010
,
0001
0000
0010
0100
1000
0000
0001
0000
,
0100
0010
0100
0001
,
1000
0000
0010
0000
1000
0100
1000
0000
,
0001
0000
0100
0000
0100
0000
0010
0001
,
0010
0000
0100
0000
0010
0000
0100
0010
,
0100
0000
0001
0000
0001
0100
0000
0010
,
0000
0000
1000
0000
1000
0100
0000
0000
,
0010
0001
0100
0100
,
0010
0000
1000
0000
0001
0000
0010
0100
,
0010
0001
1000
0100
,
0010
0001
0100
0100
,
0001
0000
0100
0000
0010
1000
0100
0000
,
0010
0000
0001
0000
0100
0010
0100
0001
,
0000
0101
0000
0000
0100
0000
0010
0000
,
0000
1100
0000
0000
0100
0000
0010
0000
,
0000
0110
0000
0000
0100
0000
0010
0000
,
0000
0011
0000
0000
0010
0000
0100
0000
,
0000
1001
0000
0000
1000
0000
0010
0000
,
0000
0101
0000
0000
0101
0000
1000
0000
,
0100
1100
0101
1100
,
0101
0110
0000
0000
,
0000
0110
0100
1001
,
0100
0010
0001
0100
,
0001
1010
0010
1100
,
0001
0100
1000
0100
,
0001
0011
0100
0101
,
0010
1000
0010
0100
,
0010
0001
0100
0000
,
0001
0100
0010
1000
,
0100
1100
0010
0011
,
0100
0010
1000
0001
,
0100
0011
0010
1100
,
0001
0010
0100
0001
,
1000
0010
0001
0100
,
1000
0100
0010
1000
,
0000
0000
1001
0000
0000
1100
0000
0000
,
2020
0000
0000
0000
0000
3030
0000
0000
,
0000
0000
0101
0000
0000
0110
0000
0000
,
0202
0000
0000
0000
0000
0303
0000
0000
,
0000
0000
1001
0000
0000
0110
0000
0000
,
1001
0000
0010
0100
,
0010
0000
0001
0000
0000
0100
0000
0020
,
0000
0000
0000
0000
,
0030
0000
0001
0100
0010
0000
1000
0100
,
0010
0000
0001
0010
0100
0000
1000
0001
,
1000
0000
0010
0000
0010
0000
0100
0001
,
0100
0010
0100
0010
,
1000
0000
0100
1000
0010
1000
0001
0000
,
1000
0000
0010
0100
0001
0100
0010
0000
,
1000
0000
0100
0010
0001
0100
0010
0000
,
1000
0001
0001
0100
,
0010
0000
2000
0000
0000
3100
0000
0000
,
0020
0000
0031
0000
,
0100
0000
0002
0000
0000
0013
0000
0000
,
0200
0000
1300
0001
,
1000
0000
0100
0010
0100
0010
0001
1000
,
0001
1000
0010
0100
0001
0100
0010
0000
,
1000
0000
0100
1000
0001
0000
0100
0010
,
1000
0001
0010
0100
,
0000
1010
0000
0000
1100
0000
0001
0000
,
0000
0011
0000
0000
0110
0000
0001
0000
,
0000
1100
0000
0000
0011
0000
0100
0000
,
0000
0110
0000
0000
0101
0000
1000
0000
,
0000
0100
0000
0000
1001
0000
0100
0000
,
0000
0101
0000
0000
0010
0000
0100
0000
,
0000
0011
1010
1100
,
1001
0101
0110
1001
,
1100
0001
0010
0100
,
0010
0110
0000
0000
,
0000
1100
1000
0101
,
0010
1000
0100
0010
,
0001
0011
0100
1010
,
0001
0100
0010
1000
,
0001
1001
0100
0110
,
0001
1000
0100
0010
,
0010
0001
0100
0000
,
0001
0100
0010
1000
,
0001
0011
0100
1100
,
0010
0100
0001
1000
,
0100
1010
0010
0101
,
0001
1000
0100
0010
,
0001
0001
0100
0100
,
0010
1000
0001
0100
,
0000
0011
1010
1100
,
1000
0010
0001
0100
0010
0000
0100
0000
,
0001
1001
1100
1001
,
0010
0001
0100
0010
0100
0000
0001
0000
,
1000
1100
1010
0101
,
0100
0010
1000
0100
0010
0000
1000
0000
,
0001
0100
0010
1000
,
0001
0010
0100
1000
,
0000
0011
1010
1001
,
1000
0010
0100
1000
0100
0000
0010
0000
,
0100
1100
1010
0110
,
0001
0010
0100
0001
1000
0000
0100
0000
,
0001
0010
0100
0010
,
1000
0100
0001
0010
,
0000
0000
0101
0000
0000
1100
0000
0000
,
2020
0000
0000
0000
0000
3030
0000
0000
,
0000
0000
0101
0000
0000
1100
0000
0000
,
0202
0000
0000
0000
0000
0303
0000
0000
,
0000
0000
0110
0000
0000
1100
0000
0000
,
0011
0000
0001
0100
,
0010
0000
1000
0000
0000
1001
0000
0000
,
0210
0000
0000
0000
,
0000
0000
0000
0000
,
0000
0000
0000
0000
,
0000
0000
0300
0000
;

//---------------dance-double - ----------------
#NOTEDATA:;
#CHARTNAME:;
#STEPSTYPE:dance-double;
#DESCRIPTION:;
#CHARTSTYLE:;
#DIFFICULTY:Easy;
#METER:6;
#RADARVALUES:0.235392,0.368234,0.186266,0.121790,0.000000,230.000000,204.000000,26.000000,17.000000,0.000000,0.000000,0.000000,0.000000,0.000000,0.235392,0.368234,0.186266,0.121790,0.000000,230.000000,204.000000,26.000000,17.000000,0.000000,0.000000,0.000000,0.000000,0.000000;
#CREDIT:;
#NOTES:
00000000
00000000
00000000
00000000
,
00000000
00000000
00000000
00000000
,
00000000
00000000
00000000
00000000
,
00000000
00000000
00000000
00000000
,
00000000
00000000
00000000
00000000
,
00000000
00000000
00000000
00000000
,
00000000
00000000
00000000
00000000
,
00000000
00000000
00000000
00000000
,
00000000
00000000
00000000
00000000
,
00000000
00000000
00000000
00000000
,
00000000
00011000
00000000
00100000
,
00000000
00010000
00000000
01000000
,
00000000
10000000
00000000
00100000
,
00000000
00010000
00000000
00001000
,
00000000
00011000
00000000
00001000
,
00000000
00000100
00000000
00000010
,
00000000
00000001
00000000
00000100
,
00000000
00001000
00000000
00000000
,
00000000
00010000
00000000
01000000
,
00000000
01000000
00000000
00100000
,
00000000
10000000
00000000
10000000
,
00000000
00010000
00000000
00001000
,
00000000
00000000
00000000
00000100
,
00000000
00001000
00000000
00000010
,
00000000
00000100
00000000
00000100
,
00000000
00000010
00000000
00000000
,
00000000
00001000
00000000
00000001
,
00000000
00000100
00000000
00001000
,
00000000
00010000
00000000
01000000
,
00000000
10000000
00000000
00010000
,
00000000
00100000
00000000
00010000
,
00000000
00010000
00000000
00001000
,
00000000
00000100
00000000
00000000
,
00000000
00000010
00000000
00000000
,
00000000
00001010
00000000
00001000
,
00000000
00011000
00000000
00010000
,
00000000
00110000
00000000
00010000
,
00000000
01010000
00000000
00000000
,
00000000
01100000
00000000
00100000
,
00000000
00010000
00000000
00001000
,
00000000
00000100
00000000
00000100
,
00000000
00000010
00000000
00000000
,
00000000
00002000
00000000
00003000
,
00000000
00010000
00000000
01000000
,
00000000
20000000
00000000
30000000
,
00000000
00100000
00000000
00010000
,
00000000
00002000
00000000
00003000
,
00000000
00000100
00000000
00001000
,
00000000
00000010
00000000
00000000
,
00000000
00000100
00000000
00000010
,
00000000
00000002
00000000
00000003
,
00000000
00000100
00000000
00001000
,
00000000
00020000
00000000
00030000
,
00000000
00100000
00000000
00010000
,
00000000
01000000
00000000
01000000
,
00000000
00100000
00000000
00000000
,
00000000
02000000
00000000
00000000
,
03100000
00000000
00000000
00000000
,
00000000
00002000
00000000
00000000
,
00003010
00000000
00000000
00000000
,
00000000
00000100
00000000
00000001
,
00000000
00000000
00000000
00000010
,
00000000
00001000
00000000
00010000
,
00000000
00000000
00000000
00000000
,
00000000
00010000
00000000
01000000
,
00000000
10000000
00000000
00100000
,
00000000
00010000
00000000
00001000
,
00000000
00000100
00000000
00000001
,
00000000
00000010
00000010
00000100
,
00000000
00000001
00000001
00000100
,
00000000
00001000
00000000
00000100
,
00000000
00001000
00000000
00010000
,
00000000
00200000
00000000
00310000
,
00000000
01000000
00000000
10000000
,
00000000
02000000
00000000
13000000
,
00000000
00100000
00000000
00010000
,
00000000
00001000
00001000
00010000
,
00000000
00000100
00000000
00001000
,
00000000
00000010
00000010
00000100
,
00000000
00000001
00000000
00000100
,
00000000
00001000
00000000
00011000
,
00000000
00010000
00000000
00110000
,
00000000
00010000
00000000
01010000
,
00000000
10000000
00000000
00010000
,
00000000
00100000
00000000
00100000
,
00000000
00010000
00000000
00001000
,
00000000
00000200
00000000
00000000
,
00000000
00002300
00000000
00000000
,
00000000
00023000
00000000
00000000
,
00000000
00130000
00000000
00000000
,
00000000
00110000
00000000
00100000
,
00000000
01000000
00000000
10000000
,
00000000
01010000
00000000
00010000
,
00000000
00001000
00000000
00000100
,
00000000
00001100
00000000
00001000
,
00000000
00000010
00000000
00000100
,
00000000
00000001
00000000
00000000
,
00000000
00000010
00000000
00000100
,
00000000
00000120
00000000
00000130
,
00000000
00001000
00000000
00000100
,
00000000
00021000
00000000
00031000
,
00000000
00010000
00000000
01000000
,
00000000
10000000
00000000
00100000
,
00000000
00010000
00000000
00000000
,
00000000
00011000
00000000
00010000
,
00000000
00011000
00000000
00000100
,
00000000
00001100
00000000
00001000
,
00000000
00001100
00000000
00000001
,
00000000
00000011
00000000
00000010
,
00000000
00000011
00000000
00001000
,
00000000
00010000
00000000
00100000
,
00000000
00010000
00000000
01000000
,
00000000
10010000
00000000
01000000
,
00000000
01100000
00000000
00100000
,
00000000
00101000
00000000
00010000
,
00000000
00011000
00000000
00000100
,
00000000
00001000
00000000
00001000
,
00000000
00000010
00000000
00000100
,
00000000
00000020
00000000
00000000
,
00000130
00000000
00000000
00001000
,
00000000
02000000
00000000
00000000
,
03100000
00000000
00000000
00010000
,
00000000
00011000
00000000
00000100
,
00000000
00000000
00000000
00001000
,
00000000
00000100
00000000
00000000
,
00000020
00000000
00000000
00000000
,
00000000
00000000
00000000
00000000
,
00000000
00000000
00000000
00000000
,
00000000
00000000
00000030
00000000
;

//---------------dance-double - ----------------
#NOTEDATA:;
#CHARTNAME:;
#STEPSTYPE:dance-double;
#DESCRIPTION:;
#CHARTSTYLE:;
#DIFFICULTY:Medium;
#METER:9;
#RADARVALUES:0.327501,0.414264,0.300892,0.107461,0.000000,320.000000,278.000000,42.000000,15.000000,0.000000,0.000000,0.000000,0.000000,0.000000,0.327501,0.414264,0.300892,0.107461,0.000000,320.000000,278.000000,42.000000,15.000000,0.000000,0.000000,0.000000,0.000000,0.000000;
#CREDIT:;
#NOTES:
00000000
00000000
00000000
00000000
,
00000000
00000000
00000000
00000000
,
00000000
00000000
00000000
00000000
,
00000000
00000000
00000000
00000000
,
00000000
00000000
00000000
00000000
,
00000000
00000000
00000000
00000000
,
00000000
00000000
00000000
00000000
,
00000000
00000000
00000000
00000000
,
00000000
00000000
00000000
00000000
,
00000000
00000000
00000000
00000000
,
00000000
00100000
00010000
00001000
,
00000000
00000100
00000000
00010000
,
00000000
00000010
00001000
00010000
,
00000000
00001000
00000000
00010000
,
00000000
00100000
01000000
10000000
,
00000000
00100000
00000000
00010000
,
00000000
00001000
00010000
00001000
,
00000000
00000100
00001000
00000100
,
00000000
00000010
00000010
00001000
,
00000000
00000100
00000000
00000001
,
00000000
00000100
00000100
00001000
,
00000000
00010000
00000000
00100000
,
00000000
00010000
01000000
10000000
,
00000000
00100000
00010000
00001000
,
00000000
00010000
00000000
00001000
,
00000000
00000100
00000000
00001000
,
00000000
00000010
00000100
00000001
,
00000000
00000100
00000000
00001000
,
00000000
00010000
01000000
10000000
,
00000000
00100000
00000000
00010000
,
00000000
00001000
00010000
00001000
,
00000000
00000100
00001000
00000100
,
00000000
00000010
00000000
00000100
,
00000000
00000001
00000000
00000100
,
00000000
00001100
00000000
00010000
,
00000000
00101000
00000000
00010000
,
00000000
01010000
00000000
10000000
,
00000000
00010000
00000000
00100000
,
00000000
00010000
00000000
00001000
,
00000000
00000100
00000000
00010000
,
00000000
00000010
00000010
00001000
,
00001000
00010000
00000000
00000000
,
00000000
00110000
00000000
01100000
,
00000000
10000000
01000000
00100000
,
00000000
00011000
00000000
00010100
,
00000000
00000100
00000010
00000001
,
00000000
00001010
00000000
00000101
,
00000000
00001000
00000000
00000100
,
00000000
00010000
00000000
00000000
,
00000000
00010000
00000000
01000000
,
00000000
20100000
00000000
30010000
,
00000000
00001000
00000010
00000100
,
00000000
00002001
00000000
00003001
,
00000000
00000000
00000010
00000100
,
00001000
00010000
00100000
01000000
,
00000000
10000000
00000000
00100000
,
00000000
00000000
00110000
00000000
00000000
00010000
00000000
00000000
,
00012000
00000000
00003000
00000000
,
00000000
00000000
00001100
00000000
00000000
00001000
00000000
00000000
,
00001020
00000000
00000030
00000000
,
00000000
00000000
00000101
00000000
00000000
00000100
00000000
00000000
,
00021000
00000000
00030000
00000000
,
00000000
00000000
00010000
00000000
00000000
01000000
00000000
10000000
,
00000000
00000000
00000000
00000000
,
00000000
00100000
00100000
00010000
,
00000000
00001000
00000100
00001000
,
00000000
00000010
00000010
00000100
,
00000000
00000001
00000100
00001000
,
00000000
00010000
00001000
00010000
,
00000000
00100000
01000000
00100000
,
00000000
01000000
10000000
00100000
,
00000000
00010000
00001000
00000010
,
00000000
00020000
00000000
00030200
,
00000000
00000310
00000000
00001000
,
00000000
00200000
00000000
02300000
,
00000000
13000000
00000000
01000000
,
00000000
00100000
00010000
00001000
,
00000100
00000001
00000100
00001000
,
00000000
00010000
01000000
10000000
,
00100000
00010000
00000000
00010000
,
00000000
00011000
00000000
00000100
,
00000000
00001100
00000000
00000010
,
00000000
00000110
00000000
00000001
,
00000000
00000101
00000000
00001000
,
00000000
00011000
00000000
00100000
,
00000000
00010000
00000000
01000000
,
00000000
00100000
00100000
00010000
,
00010000
00001000
00001000
00000010
,
00000010
00000001
00000001
00000010
,
00000100
00001000
00000000
00000000
,
00000000
00001010
00000000
00000101
,
00000000
00000010
00000100
00001000
,
00000000
00011000
00000000
00101000
,
00000000
00100000
10000000
01000000
,
00000000
00110000
00000000
11000000
,
00000000
00000000
00100000
00010000
,
00001000
00000100
00000010
00000000
,
00000000
00000010
00000000
00000001
,
00000000
00000102
00000000
00001003
,
00000000
00000100
00001000
00010000
,
00000000
00201000
00000000
00310000
,
00000000
00000000
00100000
10000000
,
01000000
00100000
00010000
00001000
,
00000000
00000100
00000000
00010000
,
00000000
00110000
00010000
00110000
,
00000000
00010000
00000000
01000000
,
00000000
10010000
10000000
10010000
,
00000000
00100000
00000000
00010000
,
00000000
00011000
00001000
00011000
,
00000000
00000100
00000000
00001000
,
00000000
00000010
00000100
00000001
,
00000000
00000010
00000100
00001000
,
00000000
00011000
00100000
00110000
,
00000000
00010000
00000000
01000000
,
00000000
01010000
10000000
11000000
,
00000000
00100000
00000000
00010000
,
00000000
00010000
00001000
00000100
,
00000000
00000010
00001000
00000100
,
00000000
00000000
00002000
00000000
00000000
00010000
00000000
00000000
,
00013000
00000000
00000000
01010000
,
00000000
00000000
00200000
00000000
00000000
01000000
00000000
00000000
,
01300000
00000000
00000000
01001000
,
00000000
00000000
00020000
00000000
00000000
00000100
00000000
00000000
,
00030100
00000000
00000000
00000010
,
00000000
00000000
00000100
00000000
00000000
00000001
00000000
00000000
,
00000020
00000000
00000000
00000000
,
00000000
00000000
00000000
00000000
,
00000000
00000000
00000000
00000000
,
00000000
00000000
00000030
00000000
;

//---------------dance-double - ----------------
#NOTEDATA:;
#CHARTNAME:;
#STEPSTYPE:dance-double;
#DESCRIPTION:;
#CHARTSTYLE:;
#DIFFICULTY:Hard;
#METER:13;
#RADARVALUES:0.514791,0.644410,0.444174,0.250743,0.000000,503.000000,441.000000,62.000000,35.000000,0.000000,0.000000,0.000000,0.000000,0.000000,0.514791,0.644410,0.444174,0.250743,0.000000,503.000000,441.000000,62.000000,35.000000,0.000000,0.000000,0.000000,0.000000,0.000000;
#CREDIT:;
#NOTES:
// measure 0
00000000
00000000
00000000
00000000
,  // measure 1
00000000
00000000
00000000
00000000
,  // measure 2
00000000
00000000
00000000
00000000
,  // measure 3
00000000
00000000
00000000
00000000
,  // measure 4
00000000
00000000
00000000
00000000
,  // measure 5
00000000
00000000
00000000
00000000
,  // measure 6
00000000
00000000
00000000
00000000
,  // measure 7
00000000
00000000
00000000
00000000
,  // measure 8
00000000
00000000
00000000
00000000
,  // measure 9
00000000
00000000
00000000
00000000
,  // measure 10
00000000
00001001
00001000
00010000
,  // measure 11
00100000
00010000
01000000
10000000
,  // measure 12
00100000
01000000
10000000
00100000
,  // measure 13
00010000
00001000
00000001
00001000
,  // measure 14
00000010
00011000
00001000
00000010
,  // measure 15
00000100
00000010
00001000
00001000
,  // measure 16
00000010
00000000
00000100
00001000
00000100
00000000
00000010
00001000
,  // measure 17
00000010
00000000
00000100
00000001
00000000
00000100
00000000
00000000
,  // measure 18
00001000
00000010
00000010
00001000
,  // measure 19
00001000
00010000
01000000
00100000
,  // measure 20
00010000
01000000
10000000
00100000
,  // measure 21
00010000
00000000
00001000
00000000
00010000
00000000
00001000
00010000
,  // measure 22
00000100
00001000
00000010
00000010
,  // measure 23
00000001
00000100
00001000
00000010
,  // measure 24
00000100
00000000
00001000
00000000
00010000
00000000
00001000
00100000
,  // measure 25
00001000
00000000
00010000
00000000
01000000
00000000
10000000
00100000
,  // measure 26
10000000
00000000
01000000
00000000
00100000
00010000
00000000
00001000
,  // measure 27
00000000
00000000
00010000
00000000
00000100
00010000
00000000
00000000
,  // measure 28
00001000
00000000
00000010
00000000
00001000
00000001
00000000
00000000
,  // measure 29
00000100
00000010
00001000
00001000
,  // measure 30
00000100
00001000
00010000
01000000
,  // measure 31
10000000
00100000
00010000
00001000
,  // measure 32
00000100
00000000
00000001
00000000
00000100
00000000
00001000
00010000
,  // measure 33
00001000
00100000
00010000
01000000
,  // measure 34
10000000
00100000
00000000
00000000
00010000
00000000
00001000
00000000
,  // measure 35
00000000
00011000
00000000
00000100
00001000
00000000
00000100
00000000
,  // measure 36
00000000
00001100
00000000
00000010
00000100
00000000
00000010
00000000
,  // measure 37
00000000
00000101
00000000
00001000
00000010
00000000
00001000
00000000
,  // measure 38
00000000
00011000
00000000
00010000
00100000
00000000
01000000
00000000
,  // measure 39
00000000
10010000
00000000
01000000
00100000
00000000
00010000
00000000
,  // measure 40
10000000
10010000
00110000
00010000
,  // measure 41
00001000
00010100
00000000
00000000
,  // measure 42
00000000
00002000
00103000
00020000
,  // measure 43
00031000
01000000
10000000
00100000
,  // measure 44
01000000
00020000
00031000
00000200
,  // measure 45
00010300
00001000
00000010
00000100
,  // measure 46
00000001
00000200
00001300
00020000
,  // measure 47
00130000
01000000
10000000
01000000
,  // measure 48
00100000
00101000
00101000
00000000
,  // measure 49
00010000
00001000
00010000
01000000
,  // measure 50
10000000
00200000
00310000
00002000
,  // measure 51
00003100
00000010
00001000
00000010
,  // measure 52
00000100
00000002
00000103
00002000
,  // measure 53
00013000
00100000
10000000
00010000
,  // measure 54
01000000
00100000
00100000
01000000
,  // measure 55
10000000
00010000
00010000
00001000
,  // measure 56
00000000
00000000
00011000
00000000
00000000
00010100
00000000
00000000
,  // measure 57
00220000
00000000
00330000
00010000
,  // measure 58
00000000
00000000
10010000
00000000
00000000
00110000
00000000
00000000
,  // measure 59
00002200
00000000
00003300
00000100
,  // measure 60
00000000
00000000
00001010
00000000
00000000
00000101
00000000
00000000
,  // measure 61
00012000
00000000
00103000
00010000
,  // measure 62
01000000
00000000
00100000
00000000
00000000
01000000
00000000
00200000
,  // measure 63
00000000
00000000
00000000
00000000
,  // measure 64
00300000
00000000
00010000
00001000
00010000
00000000
00000100
00001000
,  // measure 65
00000100
00000000
00000010
00001000
00000010
00000000
00000001
00000100
,  // measure 66
00000010
00000100
00001000
00010000
,  // measure 67
00001000
00100000
00100000
01000000
,  // measure 68
00100000
00000000
00010000
10000000
00100000
00000000
00010000
00001000
,  // measure 69
00000100
00000000
00000010
00000100
00001000
00000000
00010000
00001000
,  // measure 70
00010000
00000000
00000100
00000010
00001000
00000000
00000001
00000100
,  // measure 71
00001000
00000000
00000100
00000000
00000010
00000000
00000100
00001000
,  // measure 72
00000000
00000000
00002000
00000000
00000000
00023000
00000000
00000000
,  // measure 73
02030000
00000000
13000000
01000000
,  // measure 74
00100000
00000000
00020000
00000000
00000000
00032000
00000000
00000000
,  // measure 75
00003200
00000000
00001300
00000010
,  // measure 76
00001000
00000000
00000100
00001000
00000100
00000000
00000010
00001000
,  // measure 77
00000010
00000001
00000100
00000010
,  // measure 78
00001000
00000000
00010000
00001000
00100000
00001000
00010000
00000000
,  // measure 79
00100000
10000000
00010000
00100000
,  // measure 80
00000000
00011000
00000000
00000100
00000010
00000000
00000100
00000000
,  // measure 81
00000000
00001100
00000000
00001000
00000010
00000000
00000100
00000000
,  // measure 82
00000000
00001001
00000000
00001000
00000100
00000000
00010000
00000000
,  // measure 83
00000000
00011000
00000000
00010000
00100000
00000000
01000000
00000000
,  // measure 84
00000000
10010000
00000000
00010000
01000000
00000000
00100000
00000000
,  // measure 85
00000000
01100000
00000000
10000000
00010000
00000000
01000000
00000000
,  // measure 86
10000000
10010000
00110000
00010000
,  // measure 87
00011000
00010100
00001000
00000010
,  // measure 88
00000100
00000011
00001100
00001000
,  // measure 89
00011000
00101000
00000000
00000000
,  // measure 90
00000000
00200000
00301000
00002000
,  // measure 91
01003000
00001000
00000100
00000001
,  // measure 92
00000010
00000020
00001030
00000200
,  // measure 93
00010300
00001000
00010000
00100000
,  // measure 94
01000000
20000000
30010000
00200000
,  // measure 95
00301000
00010000
00001000
00000100
,  // measure 96
00000010
00001000
00010000
00000000
,  // measure 97
00000100
00001000
00000010
00000100
,  // measure 98
00000001
00000002
00000103
00002000
,  // measure 99
00013000
00100000
00010000
01000000
,  // measure 100
00010000
00200000
00310000
00020000
,  // measure 101
00031000
00000100
00001000
00000010
,  // measure 102
00001000
00110000
00100000
10000000
,  // measure 103
00010000
00001000
00011000
00011000
,  // measure 104
00000000
00001100
00001010
00001001
,  // measure 105
00001000
00010000
01000000
00010000
,  // measure 106
10000000
00110000
01010000
00101000
,  // measure 107
00001000
00000100
00010000
00010000
,  // measure 108
00000100
00001010
00001001
00011000
,  // measure 109
00100000
00010000
01000000
10000000
,  // measure 110
00010000
01000000
00010000
10000000
,  // measure 111
00100000
00010000
00001000
00000100
,  // measure 112
00010000
00011000
00101000
00001100
,  // measure 113
00000010
00000000
00001000
00000000
00000100
00001000
00000100
00000000
,  // measure 114
00000010
00011000
00101000
01100000
,  // measure 115
00010000
00000000
01000000
00000000
00100000
01000000
00100000
00000000
,  // measure 116
10000000
01000000
00010000
00001000
,  // measure 117
00010000
00000100
00000010
00001000
,  // measure 118
00000000
00000000
00001100
00000000
00000000
00010100
00000000
00000000
,  // measure 119
00021000
00000000
00000000
00031000
,  // measure 120
00000000
00000000
00110000
00000000
00000000
01010000
00000000
00000000
,  // measure 121
20010000
00000000
00000000
30100000
,  // measure 122
00000000
00000000
00011000
00000000
00000000
00001100
00000000
00000000
,  // measure 123
00000110
00000000
00001000
00000001
,  // measure 124
00000100
00000000
00000010
00000000
00000000
00001000
00000000
00000000
,  // measure 125
00000020
00000000
00000000
00000000
,  // measure 126
00000000
00000000
00000000
00000000
,  // measure 127
00000000
00000000
00000000
00000000
,  // measure 128
00000000
00000000
00000030
00000000
;
