#TITLE:山岡晃の「クイズ!家事都合!」;
#SUBTITLE:;
#ARTIST:AKIRA YAMAOKA feat.喜屋武ちあき;
#TITLETRANSLIT:Yamaoka Akira no "Quiz! Kajitsugou!";
#SUBTITLETRANSLIT:;
#ARTISTTRANSLIT:AKIRA YAMAOKA feat. Chiaki kyan;
#GENRE:beatmania IIDX;
#CREDIT:SAIKIO;
#BANNER:Yamaoka Akira no Quiz! Kajitsugou!-banner.png;
#BACKGROUND:bg.png;
#LYRICSPATH:;
#CDTITLE:IIDX.png;
#MUSIC:Yamaoka Akira no Quiz! Kajitsugou!.ogg;
#OFFSET:0.019000;
#SAMPLESTART:57.849991;
#SAMPLELENGTH:12.939984;
#SELECTABLE:YES;
#BPMS:0.000000=148.000000
;
#STOPS:
;
#BGCHANGES:0.500=Yamaoka Akira no Quiz! Kajitsugou!.avi=1.000=0=0=0=StretchNoLoop====,
99999=-nosongbg-=1.000=0=0=0 // don't automatically add -songbackground-
;
#KEYSOUNDS:;
#ATTACKS:;

//---------------dance-single - ----------------
#NOTES:
     dance-single:
     :
     Beginner:
     3:
     0.134382,0.173496,0.000000,0.000000,0.000000,98.000000,98.000000,0.000000,0.000000,0.000000,0.000000,0.134382,0.173496,0.000000,0.000000,0.000000,98.000000,98.000000,0.000000,0.000000,0.000000,0.000000:
0000
0000
0000
0000
,
0000
0000
0000
0000
,
0000
0000
0000
0000
,
0000
0000
0000
0000
,
0000
1000
0000
0000
,
0000
0100
0100
0000
,
0000
0010
0000
0000
,
0000
0001
0001
0000
,
0000
1000
0000
0000
,
0000
0010
0010
0000
,
0000
0100
0000
0000
,
0000
1000
1000
0000
,
0000
0010
0000
0000
,
0000
0100
0000
0010
,
0000
0001
0000
0000
,
0000
0010
0000
0100
,
0000
1000
0000
0000
,
0000
0001
0000
0100
,
0000
0010
0000
0000
,
0000
1000
0000
0010
,
0000
0010
0100
0000
,
0000
0001
0000
0010
,
0000
1000
0001
0000
,
0000
0010
0000
1000
,
0000
0001
0010
0000
,
0000
0100
0000
0001
,
0000
1000
0100
0000
,
0000
0010
0000
0000
,
0000
1000
0000
0001
,
0000
1000
0000
0000
,
0000
0010
0000
0100
,
0000
0010
0000
0000
,
0000
1000
1000
0000
,
0000
0001
0001
0000
,
0000
0010
0010
0010
,
0000
0100
0000
0000
,
0000
0001
0000
0010
,
0000
0001
0000
0100
,
0000
1000
0000
0100
,
0000
1000
0000
0000
,
0000
0010
0000
0100
,
0000
0000
0000
0100
,
0000
1000
0000
0100
,
0000
0010
0000
0000
,
0000
0010
0000
0100
,
0000
0010
0000
0100
,
0000
0001
0000
0100
,
0000
0001
0000
0100
,
0000
1000
0000
0010
,
0000
1000
0000
0010
,
0000
1000
0000
0000
,
0100
0100
0000
0000
,
0000
0001
0000
0100
,
0000
1000
1000
0000
,
0000
0010
0000
0100
,
0000
0001
0001
0000
,
0000
1000
0000
0100
,
0000
0010
0010
0000
,
0000
0001
0000
1000
,
0000
0100
0100
0000
,
0000
0010
0000
0000
;

//---------------dance-single - ----------------
#NOTES:
     dance-single:
     :
     Easy:
     5:
     0.226255,0.289160,0.067191,0.163178,0.000000,165.000000,158.000000,7.000000,17.000000,0.000000,0.000000,0.226255,0.289160,0.067191,0.163178,0.000000,165.000000,158.000000,7.000000,17.000000,0.000000,0.000000:
0000
0000
0000
0000
,
0000
0000
0000
0000
,
0000
0000
0000
0000
,
0000
0000
0000
0000
,
1000
0002
0000
0003
,
0000
0100
0010
0000
,
0001
0020
0000
0030
,
0000
0100
1000
0000
,
0010
0200
0000
0300
,
0000
0010
1000
1000
,
0100
0020
0000
0130
,
0000
0100
0010
0100
,
0000
0002
0000
0003
,
0000
1000
0100
0001
,
0000
0020
0000
0030
,
0000
0001
0100
1000
,
0000
2000
0000
3000
,
0000
0100
0010
0001
,
0000
0200
0000
0300
,
0000
0010
0100
1000
,
0000
0001
0001
0000
,
0000
0100
0001
0100
,
0010
1000
1000
0000
,
0000
0100
0010
1000
,
0100
0010
0010
0000
,
0000
0001
0100
1000
,
0010
0100
0100
0000
,
0000
0100
0010
1000
,
0000
1001
0100
1000
,
1000
0010
0100
0001
,
0000
1001
0010
0001
,
0001
1000
0100
0010
,
0000
0010
2000
3000
,
0000
0100
0002
0003
,
0000
0010
0100
0100
,
0010
0200
0300
0000
,
0000
0001
0100
1000
,
0100
0001
0010
1000
,
0010
0001
0000
0100
,
0010
1000
0000
0010
,
0100
0001
1000
0010
,
0001
0010
1000
0100
,
0001
0200
0000
0300
,
0010
0010
0000
0001
,
0100
1000
0100
1000
,
0010
0001
0010
0100
,
1000
0020
0000
0030
,
0100
0100
0000
0001
,
0100
0000
1000
0010
,
1000
0010
0001
0100
,
1000
0200
0000
0300
,
0010
0010
0000
0001
,
0100
2000
0000
3010
,
0100
0001
0101
0000
,
0010
0002
0000
0013
,
0100
1000
1100
0000
,
0010
0200
0000
0301
,
0100
0010
1001
0000
,
0100
0010
1010
0100
,
1000
0010
0010
0000
,
0000
1001
0000
0000
;

//---------------dance-single - ----------------
#NOTES:
     dance-single:
     :
     Medium:
     10:
     0.378462,0.433740,0.134382,0.335954,0.000000,276.000000,262.000000,14.000000,35.000000,0.000000,0.000000,0.378462,0.433740,0.134382,0.335954,0.000000,276.000000,262.000000,14.000000,35.000000,0.000000,0.000000:
0000
0000
0000
0000
,
0000
0000
0000
0000
,
0000
0000
0000
0000
,
0000
0000
0000
0000
,
1000
0001
2000
0000
3000
0000
0010
0010
,
0100
0000
0001
0100
0000
0010
0000
0000
,
0100
0001
0200
0000
0300
0000
0010
0010
,
1000
0000
0001
1000
0000
0100
0000
0000
,
0010
1000
0020
0000
0030
0000
1000
1000
,
0100
0000
0001
0000
0100
0001
0100
0000
,
0010
0000
1000
0000
1000
0000
0001
0100
,
0010
0000
0100
0000
0100
0010
0100
0000
,
0010
2000
3001
0000
,
0000
0000
0010
1000
0001
0000
1000
0001
,
0100
0020
0130
0000
,
0000
0000
0001
0100
1000
0000
1000
0010
,
0001
0200
0301
0000
,
0000
0000
0100
0010
0001
0000
0010
0100
,
1000
0002
0103
0000
,
0000
0000
0001
0100
1000
0000
0010
0000
,
0100
0000
1000
1000
0010
0000
0011
0000
,
0100
0000
0001
0100
1000
0100
1000
0010
,
0100
0000
0010
0010
0001
0000
1001
0000
,
1000
0000
0100
0001
0010
0001
0010
0100
,
1000
0000
0100
0100
0010
0000
1010
0000
,
0100
0000
1000
0001
0010
1000
0010
0001
,
0100
0000
0001
0001
0100
0000
0110
0000
,
0010
0000
0001
0100
1000
0100
0010
0001
,
0100
0002
0100
1000
,
0103
0000
1000
0010
1000
0000
0100
0000
,
1000
0020
1000
0001
,
1030
0000
0100
0010
0100
0000
0010
0000
,
1000
0000
1100
0000
0001
0100
1000
0000
,
0010
0000
1001
0000
0100
0010
0001
0000
,
1000
1000
0020
0000
0100
0000
0130
0000
,
0100
2002
3003
0100
,
0010
0100
2000
3002
,
0203
0320
2030
3200
,
0320
0032
0000
1003
,
1010
0000
1001
0000
1000
0000
0010
0100
,
0001
0010
0100
0000
0020
0000
0230
0000
,
0302
2003
3020
0032
,
0203
2300
0000
3000
,
0101
0110
1000
0100
,
0100
0000
0001
0000
1000
0100
1000
0000
,
0010
0001
0200
0000
0301
0000
0010
0000
,
0100
2000
0000
3010
,
1001
0000
0100
0000
0010
0000
0100
0001
,
1000
0000
0010
0000
1000
0001
1000
0000
,
0010
1000
0200
0000
0310
0000
1000
0000
,
1100
0020
0000
0000
,
0031
1000
0000
1000
,
0001
0100
0020
0000
1030
0000
0100
0100
,
0001
0100
0010
0100
0000
0010
0000
0000
,
1000
0001
2000
0000
3010
0000
0001
0001
,
0010
1000
0100
1000
0000
0100
0000
0000
,
0010
1000
0002
0000
0103
0000
0010
0010
,
1000
0010
1000
0100
0000
0001
0000
0000
,
0100
0100
0001
0000
0100
0000
0010
1000
,
0001
1000
0010
0000
0100
0000
0010
0000
,
0000
0110
0000
0000
;

//---------------dance-single - ----------------
#NOTES:
     dance-single:
     :
     Hard:
     13:
     0.548496,0.607237,0.191974,0.316756,0.211171,400.000000,380.000000,20.000000,33.000000,0.000000,0.000000,0.548496,0.607237,0.191974,0.316756,0.211171,400.000000,380.000000,20.000000,33.000000,0.000000,0.000000:
0000
0000
0000
0000
,
0000
0000
0000
0000
,
0000
0000
0000
0000
,
0000
0000
0000
0000
,
0001
1000
0002
0000
1003
0000
0100
0010
,
0100
0001
1000
1000
0000
1100
0000
0000
,
0010
0100
2000
0000
3010
0000
0001
1000
,
0100
0001
0010
0010
0000
0101
0000
0000
,
1000
0010
0200
0000
1300
0000
0010
0100
,
0001
0100
0100
0011
0000
0101
0000
0000
,
0001
0100
1000
0000
1000
0000
0001
0010
,
0001
1000
1000
0110
0000
1001
0000
0000
,
0000
0000
0000
0000
0010
0000
0000
0100
0000
0000
0001
0000
1000
0000
0000
0010
,
0000
0000
1000
0000
0100
0001
0100
0001
0100
0000
1000
0000
0010
1000
0010
1000
,
0010
0000
0100
0000
0001
0000
0000
0100
0000
0000
1000
0000
0100
0000
0000
0001
,
0000
0000
0100
0000
0001
1000
0001
1000
0001
0000
0100
0000
0010
0100
0010
0100
,
0010
0000
1000
0000
0100
0000
0000
0010
0000
0000
0001
0000
0010
0000
0000
0100
,
0000
0000
0010
0000
1000
0100
1000
0100
1000
0000
0010
0000
0100
0001
0100
0001
,
0100
0000
0010
0000
1000
0000
0000
0100
0000
0000
0001
0000
0100
0000
0000
0010
,
0000
0000
0100
0000
0001
0010
0001
0010
0001
0000
1000
0000
0100
1000
0100
1000
,
0100
0010
0100
1000
0001
0100
0010
0100
,
1000
0000
0100
0000
1000
0001
1000
0001
1000
0000
0010
0000
0100
0010
0100
0010
,
0100
0001
0100
0001
1000
0100
1000
0010
,
0100
0000
1000
0000
0010
0001
0010
0001
0010
0000
0100
0000
0001
1000
0001
1000
,
0001
0010
1000
0010
0100
1000
0100
0001
,
0010
0000
1000
0000
0100
1000
0100
1000
0100
0000
0001
0000
0010
0100
0010
0100
,
0010
1000
0100
0001
1000
0001
0100
0010
,
0100
0000
0010
0000
0001
1000
0001
1000
0001
0000
0010
0000
1000
0100
1000
0100
,
1000
0100
0002
0000
1003
0010
2000
0000
,
3100
0001
0020
0000
0130
0001
0100
0010
,
1000
1000
0200
0000
0301
1000
0020
0000
,
0130
1000
0002
0000
1003
0010
0100
0010
,
1000
0010
0200
0000
1300
0100
0010
0010
,
0000
0100
0001
0100
0001
0100
0010
1000
,
1000
1000
1010
0000
0101
0000
1100
0000
,
1001
0000
0000
0000
0220
0000
0000
0000
0000
0330
0000
0000
0001
0000
0000
0000
,
0100
0010
2010
3002
,
2003
3200
0320
0032
,
0203
0000
2300
0000
3100
0100
0010
0000
,
0010
0000
1100
0000
0010
0000
0100
0001
,
1000
0010
0100
0000
0102
0000
0023
0000
,
0230
2300
3002
0203
,
0310
2002
0000
3003
,
0100
0000
0100
0010
0100
0000
0000
0000
0001
0000
0000
0000
0100
0000
0000
0000
,
0010
0000
1000
0100
1000
0010
1000
0010
,
0100
0001
0100
0001
0010
0010
0100
0001
,
1000
0010
2000
0000
3010
0000
0100
0001
,
0100
0000
0110
0000
1000
0000
1000
0010
,
0001
0100
0001
0000
0100
0010
0100
1000
,
0010
1000
0010
0100
0001
0100
0001
1000
,
1000
0100
0020
0000
0000
0000
0031
0100
,
0010
0101
0010
0000
,
0001
0100
0020
0000
1030
0000
0100
0001
,
1000
0000
0010
0000
0100
1000
0100
0000
0010
0000
0100
0000
0010
0000
0000
0000
,
0100
0010
0200
0000
0301
0000
0100
0010
,
1000
0000
0100
0000
0001
0010
0001
0000
1000
0000
0010
0000
0100
0000
0000
0000
,
1000
0010
2000
0000
3001
0000
1000
0010
,
1000
0000
0001
0000
0100
0010
0100
0000
0001
0000
0100
0000
1000
0000
0000
0000
,
0100
0001
1010
0000
1001
0000
0100
1000
,
0010
1000
0001
0100
0000
0010
0000
0000
,
0000
0110
0000
0000
;

//---------------dance-double - ----------------
#NOTES:
     dance-double:
     :
     Easy:
     6:
     0.263278,0.318076,0.163178,0.220770,0.000000,192.000000,175.000000,17.000000,23.000000,0.000000,0.000000,0.263278,0.318076,0.163178,0.220770,0.000000,192.000000,175.000000,17.000000,23.000000,0.000000,0.000000:
00000000
00000000
00000000
00000000
,
00000000
00000000
00000000
00000000
,
00000000
00000000
00000000
00000000
,
00000000
00000000
00000000
00000000
,
00000001
00000200
00000300
00001000
,
00001000
00010000
00000000
00000000
,
00010000
00200000
00300000
00010000
,
00010000
00100000
01000000
00000000
,
10000000
02000000
03000000
00100000
,
00010000
00011000
00000100
00011000
,
00000000
00002000
00003100
00000010
,
00000001
00000110
00000100
00000110
,
00000000
00000020
00000030
00001000
,
00000000
00010000
01000000
10000000
,
00000000
00200000
00300000
00010000
,
00000000
00001000
00000100
00000001
,
00000000
00000020
00000030
00000001
,
00000000
00000100
00001000
00010000
,
00000000
00200000
00300000
01000000
,
00000000
00100000
01000000
10000000
,
00000000
01010000
01000000
00000000
,
00000000
00100000
00010000
00010000
,
00000000
00010100
00000100
00000000
,
00000000
00000100
00000010
00000010
,
00000000
00000101
00000100
00000000
,
00000000
00000010
00001000
00010000
,
00000000
01100000
00100000
00000000
,
00000000
10000000
01000000
00100000
,
00000000
00100000
00010000
00001000
,
00010000
00002000
00003100
00000100
,
00000000
00000010
00000100
00000010
,
00000001
00000020
00001030
00001000
,
00000000
00010100
00001000
00000000
,
00000000
00101000
00010000
00000000
,
00000000
00020000
00030000
01000000
,
00100000
01100000
00000000
10000000
,
00010000
00200000
00310000
00001000
,
00000100
00000020
00000031
00000100
,
00001000
00000020
00000000
00000030
,
00000001
00000100
00000000
00000010
,
00001000
00000100
00002000
00013000
,
01000000
10000000
00200000
01300000
,
00010000
02000000
00000000
03000000
,
00010000
01010000
00000000
00010000
,
00001000
00010000
00002000
00003100
,
00000001
00000010
00001000
00020000
,
01030000
20000000
00000000
30010000
,
00100000
01000000
00000000
00100000
,
00010000
01000000
20000000
31000000
,
00010000
00100000
00020000
00031000
,
00000010
00000002
00000000
00000003
,
00000100
00000010
00000000
00001000
,
00000100
00001100
00000010
00000100
,
00001000
00010000
00010000
00100000
,
00010000
01100000
10000000
00100000
,
00100000
01000000
00010000
00001000
,
00000100
00011000
00001000
00000010
,
00000001
00000100
00000100
00000010
,
00000001
00000100
00000110
00001000
,
00000100
00001000
00010000
00100000
,
00010000
00001100
00000000
00000000
;

//---------------dance-double - ----------------
#NOTES:
     dance-double:
     :
     Medium:
     10:
     0.378462,0.462656,0.143980,0.287960,0.000000,276.000000,261.000000,15.000000,30.000000,0.000000,0.000000,0.378462,0.462656,0.143980,0.287960,0.000000,276.000000,261.000000,15.000000,30.000000,0.000000,0.000000:
00000000
00000000
00000000
00000000
,
00000000
00000000
00000000
00000000
,
00000000
00000000
00000000
00000000
,
00000000
00000000
00000000
00000000
,
00010000
00001000
00020000
00000000
00030000
00000000
00001000
00001000
,
00000100
00000000
00000010
00000100
00000000
00000010
00000000
00000000
,
00000001
00001000
00000200
00000000
00000300
00000000
00000010
00001000
,
00000100
00000000
00010000
00001000
00000000
00010000
00000000
00000000
,
00010000
01000000
00200000
00000000
00300000
00000000
01000000
00100000
,
00010000
00000000
10000000
00000000
10000000
00010000
10000000
00000000
,
00100000
00010000
00100000
00000000
00010000
00000000
00001000
00010000
,
00001000
00000000
00000100
00000000
00001000
00000100
00001000
00000000
,
00000010
00000200
00000301
00000010
,
00000000
00000000
00000001
00000001
00000100
00000000
00000010
00000010
,
00001000
00020000
00031000
00100000
,
00000000
00000000
01000000
01000000
00010000
00000000
10000000
10000000
,
00010000
20000000
30010000
00100000
,
00000000
00000000
00010000
00001000
00010000
00000000
00000100
00001000
,
00000100
00000020
00000031
00000100
,
00000000
00000000
00000010
00000100
00000010
00000000
00001000
00000000
,
00000100
00000000
00001000
00010000
00100000
00000000
00010000
00000000
,
10000000
00000000
00100000
00010000
01000000
00010000
00100000
00010000
,
01000000
00000000
00010000
00001000
00010000
00000000
00000100
00000000
,
00001000
00000000
00000010
00001000
00000100
00000010
00001000
00000100
,
00000010
00000000
00000010
00000100
00000001
00000000
00000100
00000000
,
00000010
00000000
00000001
00000100
00001000
00000100
00000001
00000100
,
00001000
00000000
00000010
00001000
00000100
00000000
00010000
00000000
,
00000100
00000000
00001000
00010000
00001000
00100000
00001000
01000000
,
00010000
00200000
00310000
02000000
,
03010000
00000000
00001000
00010000
00001000
00000000
00000100
00000000
,
00001000
00000020
00000130
00000002
,
00000103
00000010
00001000
00000100
,
00000100
00011000
01000000
00100000
,
00010000
00000000
00100000
00010000
00001000
00000000
00010000
00000000
,
01000000
01010000
10010000
00110000
,
01000000
00100000
00000000
01000000
,
00010000
00000000
10000000
00000000
10000000
01000000
00100000
00000000
,
00010000
00000000
00001000
00000000
00010000
00001000
00000100
00000000
,
00000010
00000000
00000001
00000000
00000001
00000100
00001000
00000000
,
00010000
00000000
01000000
00000000
00100000
00000000
00010000
10000000
,
00010000
00100000
01010000
00011000
,
00001100
00001010
00000101
00001010
,
00101000
00020000
00000000
00030000
,
00001000
00010000
00000000
00100000
,
00010000
10000000
20000000
32000000
,
03020000
00032000
00003020
00000032
,
00000203
00002300
00000000
00003000
,
00001100
00000000
00001010
00000000
00000100
00000000
00000010
00000001
,
00000100
00000010
00000002
00000203
,
00002300
00023000
00230000
20300000
,
32000000
00000000
03200000
00000000
00000000
00000000
00000000
00300000
,
00010000
01010000
00000000
00010000
,
00100000
00010000
00001000
00000000
00000100
00000000
00000001
00001000
,
00000100
00000000
00010000
00001000
00000000
00010000
00000000
00000000
,
00100000
00010000
00100000
00000000
01000000
00000000
10000000
01000000
,
00100000
00000000
00010000
00001000
00000000
00000010
00000000
00000000
,
00000010
00000001
00002000
00000000
00003100
00000000
00010000
00100000
,
00010000
00000000
10000000
00010000
10000000
00010000
00100000
00000000
,
00010000
00001000
00020000
00000000
00031000
00000000
00010000
00000100
,
00010000
00000000
00001000
00000100
00001000
00000000
00000010
00000000
,
00000100
00000110
00000000
00000000
;

//---------------dance-double - ----------------
#NOTES:
     dance-double:
     :
     Hard:
     13:
     0.497760,0.520488,0.393546,0.220770,0.119983,363.000000,322.000000,41.000000,23.000000,0.000000,0.000000,0.497760,0.520488,0.393546,0.220770,0.119983,363.000000,322.000000,41.000000,23.000000,0.000000,0.000000:
// measure 0
00000000
00000000
00000000
00000000
,  // measure 1
00000000
00000000
00000000
00000000
,  // measure 2
00000000
00000000
00000000
00000000
,  // measure 3
00000000
00000000
00000000
00000000
,  // measure 4
00000001
00000100
00000020
00000000
00001030
00000000
00001000
00000100
,  // measure 5
00001000
00010000
00100000
00010000
00000000
00100000
00000000
00000000
,  // measure 6
00010000
01000000
00200000
00000000
01300000
00000000
10000000
00010000
,  // measure 7
10000000
00100000
00001000
00010000
00000000
00001000
00000000
00000000
,  // measure 8
00000100
00001000
00000020
00000000
00000130
00000000
00000100
00000001
,  // measure 9
00000100
00000010
00001010
00000000
00001000
00000100
00001100
00000000
,  // measure 10
00001100
00000000
00010000
00000000
00100000
00000000
00010000
10000000
,  // measure 11
00100000
00010000
01010000
00000000
01010000
00001000
00011000
00000000
,  // measure 12
00011000
00000000
00000000
00000000
00001000
00000000
00000000
00010000
00000000
00000000
00000100
00000000
00001000
00000000
00000000
00000010
,  // measure 13
00000000
00000000
00000000
00000000
00001000
00000100
00001000
00000100
00001000
00000000
00000000
00000000
00000100
00000010
00000100
00000010
,  // measure 14
00000100
00000000
00000000
00000000
00001000
00000000
00000000
00010000
00000000
00000000
00100000
00000000
10000000
00000000
00000000
00100000
,  // measure 15
00000000
00000000
00000000
00000000
00010000
00001000
00010000
00001000
00010000
00000000
00000000
00000000
00100000
00010000
00100000
00010000
,  // measure 16
00100000
00000000
00000000
00000000
00001000
00000000
00000000
00000100
00000000
00000000
00000001
00000000
00000100
00000000
00000000
00000010
,  // measure 17
00000000
00000000
00000000
00000000
00001000
00000010
00001000
00000010
00001000
00000000
00000000
00000000
00001000
00000001
00001000
00000001
,  // measure 18
00001000
00000000
00000000
00000000
00000100
00000000
00000000
00010000
00000000
00000000
01000000
00000000
00100000
00000000
00000000
01000000
,  // measure 19
00000000
00000000
00000000
00000000
00010000
01000000
00010000
01000000
00010000
00000000
00000000
00000000
10000000
00010000
10000000
00010000
,  // measure 20
10000000
00000000
00010000
00100000
10000000
01000000
00100000
00000000
,  // measure 21
00010000
00011000
00001010
00001001
,  // measure 22
00000101
00000000
00000010
00000001
00000010
00000100
00001000
00000000
,  // measure 23
00000100
00001100
00011000
00110000
,  // measure 24
01010000
00000000
10000000
00100000
00010000
01000000
00100000
00000000
,  // measure 25
00010000
00011000
00001100
00001010
,  // measure 26
00000110
00000000
00000001
00000100
00000010
00001000
00000100
00000000
,  // measure 27
00001000
00001100
00011000
00110000
,  // measure 28
01010000
00000000
20000000
00000000
30010000
00100000
00020000
00000000
,  // measure 29
00031000
00000100
00000020
00000000
00000031
00001000
00000200
00000000
,  // measure 30
00000310
00000001
00002000
00000000
00003010
00001000
00020000
00000000
,  // measure 31
00130000
01000000
20000000
00000000
31000000
00100000
00020000
00000000
,  // measure 32
01030000
00010000
01010000
00000000
00100000
00010000
10000000
00010000
,  // measure 33
00000000
00000000
00100000
00010000
00001000
00000100
00010000
00001000
,  // measure 34
00010000
00001010
00001010
00000000
00000100
00000000
00000010
00000000
,  // measure 35
00000001
00000100
00000010
00000000
00000000
00000000
00000100
00000000
,  // measure 36
00001000
00000100
00002000
00003001
,  // measure 37
00000200
00010300
00200000
10300000
,  // measure 38
00020000
00000000
00100000
00000000
00130000
00000000
10000000
01000000
,  // measure 39
00100000
00000000
01010000
00000000
00100000
00000000
01000000
00010000
,  // measure 40
00100000
00010000
01000000
00000000
20000000
00000000
30010000
00000000
,  // measure 41
00200000
00301000
00000200
00000301
,  // measure 42
00000010
00000020
00000100
00000130
,  // measure 43
00000001
00000000
00000001
00000010
00000001
00000000
00000000
00000000
00000010
00000000
00000000
00000000
00001000
00000000
00000000
00000000
,  // measure 44
00000100
00000000
00001100
00000000
00001000
00010000
00100000
10000000
,  // measure 45
00010000
01000000
00010000
10000000
00100000
00001000
00100000
00001000
,  // measure 46
00010000
00000100
00002000
00000000
00003100
00001000
00000010
00000000
,  // measure 47
00001010
00000000
00000100
00000000
00000001
00000000
00000100
00000010
,  // measure 48
00000001
00000000
00000001
00000100
00001000
00000100
00010000
00001000
,  // measure 49
00010000
00001000
00100000
00010000
01000000
10000000
01000000
00010000
,  // measure 50
10000000
02000000
00000000
03000000
,  // measure 51
00110000
01010000
00100000
00000000
,  // measure 52
00001000
00000100
00020000
00000000
00031000
00000000
00001000
00000100
,  // measure 53
00000010
00001000
00001010
00000100
00000000
00000101
00000000
00000000
,  // measure 54
00001000
00100000
00002000
00000000
00013000
00000000
00100000
00010000
,  // measure 55
10000000
00100000
10000000
10010000
00000000
01100000
00000000
00000000
,  // measure 56
10000000
00010000
00100000
00001000
00010000
00000100
00010000
00000010
,  // measure 57
00000001
00000010
00001001
00000000
00000100
00000010
00001100
00000000
,  // measure 58
00000010
00000100
00000101
00000000
00000101
00000000
00000010
00001000
,  // measure 59
00000110
00000000
00001000
00010000
00100000
10000000
00010000
00000000
,  // measure 60
00100000
01100000
00000000
00000000
;
