#VERSION:0.83;
#TITLE:UP & DOWN;
#SUBTITLE:;
#ARTIST:EXID;
#TITLETRANSLIT:;
#SUBTITLETRANSLIT:;
#ARTISTTRANSLIT:;
#GENRE:K-POP;
#ORIGIN:;
#CREDIT:Saikio;
#BANNER:UP & DOWN-banner.png;
#BACKGROUND:BG.png;
#PREVIEWVID:;
#JACKET:UP & DOWN-jacket.png;
#CDIMAGE:;
#DISCIMAGE:;
#LYRICSPATH:;
#CDTITLE:Saikio Simfiles.png;
#MUSIC:UP & DOWN.ogg;
#OFFSET:0.120000;
#SAMPLESTART:50.767597;
#SAMPLELENGTH:16.536261;
#SELECTABLE:YES;
#BPMS:0.000=111.900;
#STOPS:;
#DELAYS:;
#WARPS:;
#TIMESIGNATURES:0.000=4=4;
#TICKCOUNTS:0.000=4;
#COMBOS:0.000=1;
#SPEEDS:0.000=1.000=0.000=0;
#SCROLLS:0.000=1.000;
#FAKES:;
#LABELS:0.000=Song Start;
#BGCHANGES:0.000=UP & DOWN.avi=1.000=0=0=0=StretchNoLoop====,
99999=-nosongbg-=1.000=0=0=0 // don't automatically add -songbackground-
;
#KEYSOUNDS:;
#ATTACKS:
;

//---------------dance-single - ----------------
#NOTEDATA:;
#CHARTNAME:;
#STEPSTYPE:dance-single;
#DESCRIPTION:;
#CHARTSTYLE:;
#DIFFICULTY:Beginner;
#METER:3;
#RADARVALUES:0.162059,0.184342,0.017725,0.008863,0.000000,128.000000,126.000000,2.000000,1.000000,0.000000,0.000000,0.000000,0.000000,0.000000,0.162059,0.184342,0.017725,0.008863,0.000000,128.000000,126.000000,2.000000,1.000000,0.000000,0.000000,0.000000,0.000000,0.000000;
#CREDIT:;
#NOTES:
0000
0000
0000
0000
,
0000
0000
0000
0000
,
0000
0000
0000
0000
,
0000
0020
0000
0030
,
0000
0010
0000
0100
,
0000
0010
0000
0100
,
0000
0010
0000
0100
,
0000
0100
0100
0100
,
0000
1000
1000
0000
,
0001
0000
0001
0001
,
1000
0000
0100
0000
,
0010
1000
1000
1000
,
0000
0100
0010
0100
,
0000
0001
0100
0000
,
1000
0010
0000
1000
,
0000
0010
0010
0010
,
0000
0001
0100
0000
,
1000
1000
0100
0000
,
0000
1000
0100
0000
,
0001
0001
0100
0000
,
0000
0010
0100
1000
,
0000
0100
0010
0001
,
0000
1000
0000
0001
,
0001
0000
0000
0000
,
0001
0000
1000
0001
,
1000
1000
0000
0010
,
0100
0100
0010
0100
,
0100
0000
0000
0000
,
1000
0000
0001
0010
,
0001
0001
0000
0100
,
1000
1000
0100
1000
,
1000
0000
0000
0000
,
0000
0001
0001
0100
,
0000
1000
1000
0010
,
0000
1000
0001
0100
,
0000
0001
1000
0010
,
0000
0100
1000
1000
,
0100
0010
0010
0000
,
0000
0100
1001
0000
,
0000
0010
1001
0000
,
1000
0000
0010
1000
,
0001
1000
0000
0010
,
1000
1000
0010
1000
,
1000
0000
0000
0000
,
0001
0000
0001
0010
,
0100
0010
0000
0001
,
0100
0100
0001
0100
,
0100
0000
0000
0000
,
0000
0010
0000
0100
,
0000
0010
0000
0100
,
0000
0010
0000
0100
,
0000
0010
0010
0000
,
0100
0000
0000
0000
;

//---------------dance-single - ----------------
#NOTEDATA:;
#CHARTNAME:;
#STEPSTYPE:dance-single;
#DESCRIPTION:;
#CHARTSTYLE:;
#DIFFICULTY:Easy;
#METER:5;
#RADARVALUES:0.206371,0.299555,0.053175,0.053175,0.000000,163.000000,157.000000,6.000000,6.000000,0.000000,0.000000,0.000000,0.000000,0.000000,0.206371,0.299555,0.053175,0.053175,0.000000,163.000000,157.000000,6.000000,6.000000,0.000000,0.000000,0.000000,0.000000,0.000000;
#CREDIT:;
#NOTES:
0000
0000
0000
0000
,
0000
0000
0000
0000
,
0000
0000
0000
0000
,
0000
0020
0000
0000
,
0030
0010
0100
0010
,
0000
1000
0001
1000
,
0000
0010
0100
0010
,
0000
0100
0100
0100
,
0000
0001
0001
1000
,
0000
0100
0100
1000
,
0000
0010
0100
0001
,
0000
1000
0100
0001
,
0010
0000
0001
0001
,
0010
0000
0100
1000
,
0100
0100
0010
0010
,
0000
0100
0010
0100
,
0000
1000
0100
0010
,
0001
1000
1000
1000
,
0010
0001
0010
0100
,
1000
0001
0001
0001
,
0100
0010
0000
0010
,
0010
0100
0000
0100
,
0000
0010
0100
0010
,
0000
0001
0000
0000
,
1000
0010
0010
1000
,
0100
0010
0000
0100
,
1000
0100
0001
0100
,
1000
0200
0000
0300
,
0010
0000
0100
0010
,
0100
0100
0000
0010
,
1000
0010
0001
0010
,
1000
0020
0000
0030
,
0000
1000
0100
0001
,
1001
1000
0100
0010
,
0100
0001
0010
1000
,
1000
0100
0001
0010
,
0110
0000
0010
0100
,
0001
0100
1000
0010
,
0001
0010
0110
0100
,
0110
1000
1001
0001
,
1001
0020
0130
0100
,
0001
2000
3000
0100
,
0001
0100
0010
1000
,
0010
0100
0100
0000
,
0010
0000
0002
0013
,
1000
0100
0000
0010
,
0001
0010
1000
0100
,
1000
0100
0100
0000
,
0000
0010
0100
0010
,
0000
1000
0001
1000
,
0000
0010
0100
0010
,
0000
0100
0010
0000
,
0100
0000
0000
0000
;

//---------------dance-single - ----------------
#NOTEDATA:;
#CHARTNAME:;
#STEPSTYPE:dance-single;
#DESCRIPTION:;
#CHARTSTYLE:;
#DIFFICULTY:Medium;
#METER:10;
#RADARVALUES:0.331714,0.369126,0.115213,0.035450,0.013294,262.000000,249.000000,13.000000,4.000000,0.000000,0.000000,0.000000,0.000000,0.000000,0.331714,0.369126,0.115213,0.035450,0.013294,262.000000,249.000000,13.000000,4.000000,0.000000,0.000000,0.000000,0.000000,0.000000;
#CREDIT:;
#NOTES:
0000
0000
0000
0000
,
0000
0000
0000
0000
,
0000
0000
0000
0000
,
0000
0020
0000
0000
,
0030
0000
0010
0000
0100
0000
0010
0010
,
0100
0000
0001
0000
1000
0000
0001
0001
,
1000
0000
0010
0000
0100
0000
0010
0010
,
1000
0000
0200
0000
0000
0010
0000
0310
,
0000
0000
0100
0100
0010
1000
0001
0000
,
0100
0000
1000
0000
0100
0000
0010
0010
,
0001
0100
0010
1000
,
0001
0000
0100
0000
0100
0000
0010
0010
,
0010
0000
0100
0000
1000
0000
0100
0010
,
0000
0001
0000
0000
0100
0000
0010
0000
,
0100
0000
0100
0010
0100
0000
0100
0010
,
0000
0000
1000
0000
0100
0000
0010
0010
,
0001
0000
0100
0000
0100
0010
1000
0001
,
0100
0010
0010
0010
,
0100
0100
0010
0000
1000
0001
0100
0010
,
1000
0100
0100
0100
,
0010
0000
0100
0100
0010
0000
1000
1000
,
0100
0000
0001
0001
0010
0000
0100
0000
,
0010
0000
1000
0000
0100
0000
0010
0010
,
0100
0000
0000
0000
0001
0000
0100
0000
0000
0010
0000
0000
0000
0000
0100
0000
,
0010
0100
0000
1000
0100
0001
0100
1000
,
0010
0000
0100
0000
0010
0000
1000
0100
,
0010
0001
0000
0001
0010
0100
0000
1000
,
0100
0020
0000
0000
0030
0000
0000
1000
,
0001
1000
0000
0001
0010
1000
0010
0001
,
1000
0000
0001
0000
0000
0000
0001
0010
,
0100
1000
0000
1000
0100
0010
0000
0001
,
0010
0200
0000
0000
0000
0300
0000
0100
,
0000
0000
0010
0010
0100
0100
0010
1000
,
0100
0000
0001
0001
1000
1000
0100
0001
,
0010
0000
0110
0000
1001
0000
0001
0100
,
1000
0000
1000
1000
0001
0000
0010
0010
,
0100
0000
1001
0000
1100
0000
0100
0001
,
0100
0000
1001
0000
0101
0000
0010
1000
,
0010
0000
0100
0000
0110
0000
0010
0010
,
0110
0000
0001
0000
1001
0000
1000
1000
,
1001
0010
0000
1000
0100
0001
0100
1000
,
0010
0000
0100
0000
1000
0000
0010
0001
,
0010
1000
0000
1000
0100
0001
0000
0010
,
0100
1000
0100
0010
0100
0000
0000
0010
,
1000
0100
0000
0010
1000
0010
0001
0000
,
1000
0000
0010
0000
0000
0000
0100
1000
,
0100
0001
0000
0001
0010
1000
0000
0100
,
0010
0001
0010
0100
0010
0000
0100
0000
,
0000
0000
0110
0000
1000
0000
0001
0100
,
0010
0000
0100
0000
1001
0000
0010
0100
,
0010
0000
0100
0000
0101
0000
1000
0010
,
0001
0000
0000
0000
0010
0000
0010
0000
0000
0100
0000
0000
0000
0000
0010
0000
,
0000
0100
0000
0000
0000
0000
0000
0000
0000
0000
0000
0000
0000
0000
0000
0000
;

//---------------dance-single - ----------------
#NOTEDATA:;
#CHARTNAME:;
#STEPSTYPE:dance-single;
#DESCRIPTION:;
#CHARTSTYLE:;
#DIFFICULTY:Hard;
#METER:12;
#RADARVALUES:0.430468,0.599830,0.159526,0.186114,0.248152,340.000000,322.000000,18.000000,21.000000,0.000000,0.000000,0.000000,0.000000,0.000000,0.430468,0.599830,0.159526,0.186114,0.248152,340.000000,322.000000,18.000000,21.000000,0.000000,0.000000,0.000000,0.000000,0.000000;
#CREDIT:;
#NOTES:
0000
0000
0000
0000
,
0000
0000
0000
0000
,
0000
0000
0000
0000
,
0000
0020
0000
0000
,
0000
0030
0000
0000
0010
0000
0000
0000
0100
0000
0000
0010
0000
0000
1000
0000
,
0001
0000
0000
0000
1000
0000
0000
0000
0001
0000
0000
1000
0000
0000
0010
0000
,
0100
0000
0000
0000
0001
0000
0000
0000
1000
0000
0000
0010
0000
0000
0001
0000
,
0100
0000
0000
0000
0010
0000
0000
0010
0000
0000
0100
0000
0000
0100
0000
0000
,
0200
0000
0000
0300
0000
0000
1000
0000
0010
0000
0200
0000
0300
0000
0001
0000
,
1000
0020
0030
1000
0010
0002
0003
1000
,
0001
0100
0000
0010
0001
0100
0010
0000
,
0001
0000
0100
0000
0001
0010
1000
0001
0100
0010
1000
0001
0100
0010
1000
0001
,
0100
0000
0010
0000
0000
0000
0000
0000
0010
0000
0000
1000
0000
0000
0001
0000
,
0000
0000
0100
0000
0000
0000
0100
0000
0010
0000
0100
0001
0000
0000
0100
0000
,
0010
0000
1000
0100
0000
0000
0100
0000
0010
0000
0100
0001
0000
0000
1000
0000
,
0000
0000
0000
0000
0010
0000
0000
0010
0000
0000
0100
0000
0000
0000
0100
0000
,
0100
0010
1000
0001
1000
0001
0010
1000
,
0010
0000
0001
0000
0100
0000
0000
0001
0100
0000
0000
0010
0100
0000
0001
0000
,
1000
1000
0001
0100
0010
0100
0010
0001
,
1000
0000
0001
0000
0100
0000
0000
1000
0010
0000
0000
0100
0010
0000
0100
0000
,
0100
0010
1000
1000
0010
0000
0100
0100
,
0001
0000
0100
0010
0100
0000
0001
0000
1000
0000
1000
0000
0010
0000
0000
0000
,
0100
0000
0000
0000
1010
0000
0000
0000
0101
0000
0000
0010
0000
0000
0100
0000
,
1010
0000
0000
0000
1000
0000
1000
0000
0000
0010
0000
0000
0000
0000
0100
0000
,
0010
1010
0000
1000
0100
0001
0100
1000
,
0010
0001
1010
0000
0100
0000
1000
0010
,
0100
0002
0003
0010
0100
2000
3000
0001
,
1000
0002
0000
0103
0100
0000
0010
1000
,
0001
0101
0000
0001
0010
1000
0010
0001
,
1000
0010
0101
0000
0100
0000
0100
0010
,
1000
0200
0300
0001
1000
0020
0030
0100
,
0001
0200
0000
0000
0310
0010
0000
2000
,
3000
0000
0010
0000
0010
0000
0010
1000
0001
0000
0001
0000
0100
0000
0100
0001
,
0100
0000
0010
0000
1000
0001
1000
0000
0010
0000
0001
0000
0100
0000
0010
0000
,
0100
0000
0000
0000
1000
0001
1000
0001
0010
0000
0100
0000
1000
0010
1000
0000
,
0001
0100
0001
0000
0100
1000
0010
1000
0010
0000
0001
0010
0001
0000
0010
0100
,
0001
1000
0001
0000
2000
0000
0000
0000
3010
0000
0000
1000
0000
1000
0000
0000
,
0001
0000
0100
0000
0020
0000
0000
0000
1030
0000
0000
0010
0000
0010
0000
0000
,
0100
0000
0001
0000
0010
0000
0000
0000
0010
0100
0000
1001
0000
0000
0110
0000
,
1000
0001
0000
0000
1010
0000
0000
0000
1000
0010
0000
0101
0000
0000
1100
0000
,
0001
0100
0000
0000
0000
0000
0001
0000
0100
0000
1000
0000
0010
0000
0001
0000
,
0100
1000
1001
0000
0100
0000
0010
0100
,
0001
0200
0300
1000
0010
0002
0003
0100
,
1000
2000
0000
0000
3001
0001
0000
0010
,
0100
0010
0000
1000
0010
0001
0100
1000
,
0010
0001
0110
0000
0100
0000
0010
0001
,
1000
0020
0030
0100
0010
2000
3000
0100
,
0001
0002
0000
0000
1003
1000
0000
0200
,
0300
0000
0000
0000
1000
0000
0000
0000
0010
1000
0000
0100
0000
0000
0100
0000
,
0010
0001
0000
0000
1001
0000
0000
0000
0110
0001
0000
1000
0000
0000
1000
0000
,
0010
0001
0000
0000
0011
0000
0000
0000
1100
0001
0000
0010
0000
0000
0010
0000
,
0100
1000
0000
0000
0010
0000
0100
0000
0000
0010
0000
0000
0000
0000
0010
0000
,
0000
0100
0000
0000
0000
0000
0000
0000
0000
0000
0000
0000
0000
0000
0000
0000
;

//---------------dance-single - ----------------
#NOTEDATA:;
#CHARTNAME:;
#STEPSTYPE:dance-single;
#DESCRIPTION:;
#CHARTSTYLE:;
#DIFFICULTY:Challenge;
#METER:13;
#RADARVALUES:0.454524,0.530619,0.381091,0.194977,0.203839,359.000000,316.000000,43.000000,22.000000,52.000000,0.000000,0.000000,0.000000,0.000000,0.454524,0.530619,0.381091,0.194977,0.203839,359.000000,316.000000,43.000000,22.000000,52.000000,0.000000,0.000000,0.000000,0.000000;
#CREDIT:;
#NOTES:
0000
0000
0000
0000
,
0000
0000
0000
0000
,
0000
0000
0000
0000
,
0000
0020
0000
0000
,
0030
0000
0000
0000
0100
0000
0000
0000
0101
0010
0000
1010
0000
0000
0100
0000
,
1010
0000
0000
0000
0010
0000
0000
0000
1001
0010
0000
1100
0000
0000
0010
0000
,
0101
0000
0000
0000
0010
0000
0000
0000
1100
0010
0000
1001
0000
0000
0010
0000
,
1001
0000
0000
0000
0100
0000
0000
0100
0000
0000
0100
0000
0100
0000
0100
0000
,
0000
0000
0000
0010
1000
0010
1000
0100
,
1000
0100
0000
0010
0001
0010
0001
0010
,
1000
0000
0100
0000
0000
0000
0001
0000
0001
0000
0100
0000
0000
0100
0000
0000
,
1000
0000
0100
0000
0010
0001
1000
0010
1000
0001
1000
0001
1000
0001
0100
0010
,
0100
1001
0000
0000
2000
3010
0100
0000
,
0100
0001
0000
0000
0010
1000
0100
0000
,
0100
0000
1000
0010
0000
0000
0001
0000
0100
0000
1000
0001
0000
0000
0100
0000
,
0000
0000
0010
0000
1100
0000
0000
1100
0000
0000
2200
0000
0000
0000
0000
0000
,
0000
3300
0001
0010
0001
0100
0100
0001
,
1000
0100
0020
0000
0230
0000
0320
0000
,
0031
1000
0001
0100
0100
0010
0010
1000
,
0100
0010
0002
0000
2003
0000
3002
0000
,
0013
0100
1000
1000
0100
0010
0001
0001
,
0010
0100
0001
1000
0001
0100
0020
0000
,
0130
0000
0000
0000
1001
0000
0000
0000
1001
0010
0000
1100
0000
0000
0001
0000
,
1001
0000
0000
0000
0010
0000
0010
0000
0000
0010
0000
0000
0000
0000
1000
0000
,
0100
0010
0000
0001
0010
1000
0100
0001
,
1000
0100
0002
0000
1003
0000
0010
0010
,
0001
MMMM
0000
1000
0100
MMMM
0000
0001
,
0010
MMMM
0100
1000
0010
0001
0000
0010
,
0001
0100
0000
0001
0100
1000
0100
0001
,
0010
0100
0020
0000
0130
0000
1000
0010
,
0001
MMMM
0000
0001
0010
MMMM
0000
1000
,
0100
MMMM
0010
0100
0001
1000
0010
0100
,
0001
0000
0000
0000
0100
0000
1000
0010
1000
0010
0000
0010
0000
0010
0000
1000
,
1000
0000
0010
0000
1000
0001
0100
0001
0010
0100
0000
0100
0000
0100
0000
0001
,
0001
0100
0010
0001
1000
0100
1000
1010
,
0001
0000
1100
0000
0001
0010
0100
1000
0010
0000
0001
0010
0100
0000
0001
0000
,
0100
0000
0110
0000
1000
0000
0002
0000
1003
0000
0000
0100
0000
0100
0000
0000
,
0010
0000
0001
0000
0020
0000
1030
0000
0100
0000
0000
0001
0000
0001
0000
0000
,
1000
0001
1010
MMMM
0101
MMMM
1001
MMMM
,
0110
MMMM
1001
MMMM
0011
MMMM
1100
MMMM
,
0110
0020
0000
0030
1001
1000
0100
0011
,
1000
1000
0101
0000
0010
0000
0001
1000
,
0001
0020
0031
0100
0010
2000
3100
0001
,
0100
0020
0100
1000
0100
1030
0000
0010
,
0100
1010
0000
0100
0010
0001
1001
1000
,
0010
0001
0110
0000
0010
0000
0100
1000
,
0100
0002
0013
1000
0001
0200
1300
0001
,
0100
2000
0010
0100
3001
0100
0001
0000
,
1000
0000
0000
0000
0011
0000
0000
0000
1010
0100
0000
0001
0000
0000
0001
0000
,
0110
0000
0000
0000
1100
0000
0000
0000
0101
0010
0000
0100
0000
0000
0100
0000
,
1001
0000
0000
0000
0001
0000
0000
0000
0110
1000
0000
1100
0000
0000
0100
0000
,
1001
0000
0000
0000
0010
0000
0100
0000
0000
0001
0000
0000
0000
0000
0010
0000
,
0000
0100
0000
0000
0000
0000
0000
0000
0000
0000
0000
0000
0000
0000
0000
0000
;

//---------------dance-double - ----------------
#NOTEDATA:;
#CHARTNAME:;
#STEPSTYPE:dance-double;
#DESCRIPTION:;
#CHARTSTYLE:;
#DIFFICULTY:Easy;
#METER:5;
#RADARVALUES:0.215234,0.276512,0.088626,0.044313,0.000000,170.000000,160.000000,10.000000,5.000000,0.000000,0.000000,0.000000,0.000000,0.000000,0.215234,0.276512,0.088626,0.044313,0.000000,170.000000,160.000000,10.000000,5.000000,0.000000,0.000000,0.000000,0.000000,0.000000;
#CREDIT:;
#NOTES:
00000000
00000000
00000000
00000000
,
00000000
00000000
00000000
00000000
,
00000000
00000000
00000000
00000000
,
00000000
00000020
00000000
00000000
,
00000030
00001000
00000100
00001000
,
00000000
00010000
01000000
00010000
,
00000000
00010000
00000100
00010000
,
00000000
01000000
01000000
01000000
,
00010000
10000000
00010000
01000000
,
01000000
00000000
00010000
00001000
,
00000100
00000000
00000001
00000100
,
00000010
00001000
00001000
00000100
,
00000100
00000000
00000010
00001000
,
00000000
00000000
00010000
00100000
,
00010000
00000100
00001000
00100000
,
00000000
00000100
00000100
00010000
,
00010000
10000000
00010000
00000000
,
01000000
01000000
00000000
00100000
,
00000000
00001000
00010000
00000100
,
00000010
00000010
00000000
00000100
,
00000000
00010000
00100000
10000000
,
00100000
00010000
00000010
00001000
,
00000000
00010000
01000000
00010000
,
00010000
00001000
00000000
00000000
,
00010000
00110000
01000000
10000000
,
01000000
00100000
00000000
00001000
,
00001000
00000100
00000001
00000010
,
00001000
00000200
00000300
00000000
,
00001000
00001100
00000010
00000001
,
00000010
00000100
00000000
00010000
,
00010000
01000000
10000000
00100000
,
00010000
02000000
00000000
03000000
,
00000000
10000000
00010000
00100000
,
00010000
00010000
00000100
00000010
,
00001001
00000100
00001000
10010000
,
10010000
01000000
01000000
00010000
,
00001000
00010000
00010000
00000100
,
00000010
00010000
00100000
00001000
,
00000010
00010000
01000000
10000000
,
00010000
00001000
00000100
00001000
,
00000001
00000000
10010000
00100000
,
00010000
00001000
00000000
00000010
,
00000001
00000100
00010000
01000000
,
10000000
00200000
00300000
00000000
,
00001000
00000110
00001000
00000100
,
00000010
00010000
00000000
00100000
,
10000000
01000000
00001000
00000100
,
00000001
00000020
00000000
00000030
,
00000000
00001000
00001000
00010000
,
10010000
00100000
00100000
00010000
,
00010100
00000010
00000010
00000001
,
00001001
00001000
00000000
00100000
,
01000000
00000000
00000000
00000000
;

//---------------dance-double - ----------------
#NOTEDATA:;
#CHARTNAME:;
#STEPSTYPE:dance-double;
#DESCRIPTION:;
#CHARTSTYLE:;
#DIFFICULTY:Medium;
#METER:10;
#RADARVALUES:0.330447,0.346056,0.035450,0.008863,0.013294,261.000000,257.000000,4.000000,1.000000,0.000000,0.000000,0.000000,0.000000,0.000000,0.330447,0.346056,0.035450,0.008863,0.013294,261.000000,257.000000,4.000000,1.000000,0.000000,0.000000,0.000000,0.000000,0.000000;
#CREDIT:;
#NOTES:
00000000
00000000
00000000
00000000
,
00000000
00000000
00000000
00000000
,
00000000
00000000
00000000
00000000
,
00000000
00200000
00000000
00000000
,
00300000
00000000
00010000
00000000
00001000
00000000
00010000
00010000
,
00010000
00000000
00001000
00000000
00100000
00000000
00001000
00001000
,
00001000
00000000
01000000
00000000
00001000
00000000
00010000
00010000
,
00010000
01000000
01000000
01000000
,
10000000
00000000
00010000
00100000
00010000
00000000
10000000
00000000
,
00100000
00000000
01000000
00000000
01000000
00100000
00010000
00000000
,
01000000
00010000
00000100
00000010
,
00000001
00000001
00001000
00000100
00010000
00100000
01000000
00000000
,
00100000
00000000
00010000
00100000
,
00001000
00000000
00000010
00001000
,
00010000
00100000
00010000
00000000
00001000
00000010
00000100
00000000
,
00000000
00000000
00010000
00010000
00100000
00000000
00001000
00001000
,
00010000
00000000
00100000
10000000
00100000
10000000
00100000
10000000
,
01000000
10000000
00100000
00000000
00100000
00000000
00100000
00000000
,
00010000
00000000
00001000
00000100
00001000
00000100
00001000
00000100
,
00001000
00000010
00000100
00000000
00000100
00000000
00000100
00000000
,
00010000
00010000
00100000
00000000
00010000
00000000
10000000
10000000
,
01000000
00000000
00100000
00010000
00001000
00000100
00000010
00000000
,
00000001
00000000
00001000
00000000
00010000
00000000
00100000
00100000
,
00010000
00000000
00000000
00000000
00000010
00000000
00000100
00000000
00000000
00001000
00000000
00000000
00000000
00000000
00010000
00000000
,
00010000
00100000
00000000
00010000
10000000
00010000
00100000
01000000
,
00100000
00000000
01000000
00000000
00010000
00000000
00000100
00001000
,
00000100
00000001
00000000
00000001
00000100
00001000
00000000
00010000
,
00001000
00010000
00000000
00010000
00000000
00000000
00000000
00001000
,
00001000
00000100
00000000
00001000
00000010
00000100
00000010
00001000
,
00000001
00001000
00000100
00000000
00000000
00000000
00100000
00010000
,
00100000
10000000
00000000
10000000
00100000
00010000
00000000
00010000
,
00001000
00010000
00001000
00000000
00001000
00000000
00100000
00000000
,
00100000
00000000
00010000
00010000
00001000
00000000
00000001
00000001
,
00000100
00000000
00010000
00001000
00010000
00001000
00100000
00010000
,
00100000
00000000
00010000
01000000
10000000
00000000
00010000
00001000
,
00000100
00000000
00000010
00000010
00000100
00000100
00000001
00000100
,
00000010
00000000
00010000
00000000
00100000
00000000
10000000
10000000
,
01000000
00000000
00001000
00000000
00000100
00000000
00000010
00000010
,
00000100
00001000
00001100
00010000
,
00110000
10000000
10010000
00001000
,
00001001
00000000
00000000
00001000
00010000
00001000
00100000
01000000
,
00100000
01000000
00001000
00000000
00010000
00000000
00001000
00010000
,
00100000
01000000
00000000
10000000
01000000
00010000
00000000
00001000
,
00000100
00000010
00000000
00000010
00000000
00000000
00000000
00001000
,
00010000
00000100
00000000
00010000
00001000
00010000
00000010
00000100
,
00000010
00000100
00010000
00000000
00001000
00000000
00010000
00001000
,
00000100
00000010
00000000
00000001
00000010
00001000
00000000
00010000
,
00100000
01000000
00000000
01000000
00000000
00000000
00000000
00000000
,
00010000
00000000
00001000
00000000
00000010
00000000
00000100
00000100
,
00000100
00000000
00010000
00000000
10000000
00000000
00100000
00100000
,
00100000
00000000
01000000
00000000
00010000
00000000
00000100
00000100
,
00000100
00000000
00000000
00000000
00001000
00000000
00000100
00000000
00000000
00001000
00000000
00000000
00000000
00000000
00100000
00000000
,
00000000
01000000
00000000
00000000
00000000
00000000
00000000
00000000
00000000
00000000
00000000
00000000
00000000
00000000
00000000
00000000
;

//---------------dance-double - ----------------
#NOTEDATA:;
#CHARTNAME:;
#STEPSTYPE:dance-double;
#DESCRIPTION:;
#CHARTSTYLE:;
#DIFFICULTY:Hard;
#METER:12;
#RADARVALUES:0.388687,0.415267,0.212702,0.150664,0.128507,307.000000,283.000000,24.000000,17.000000,0.000000,0.000000,0.000000,0.000000,0.000000,0.388687,0.415267,0.212702,0.150664,0.128507,307.000000,283.000000,24.000000,17.000000,0.000000,0.000000,0.000000,0.000000,0.000000;
#CREDIT:;
#NOTES:
00000000
00000000
00000000
00000000
,
00000000
00000000
00000000
00000000
,
00000000
00000000
00000000
00000000
,
00000000
00000020
00000000
00000000
,
00000030
00000000
00000000
00000000
00010000
00000000
00000000
00000000
00001000
00000000
00000000
01000000
00000000
00000000
01000000
00000000
,
00100000
00000000
00000000
00000000
10000000
00000000
00000000
00000000
00010000
00000000
00000000
00001000
00000000
00000000
00001000
00000000
,
00000010
00000000
00000000
00000000
00000100
00000000
00000000
00000000
00000001
00000000
00000000
00000010
00000000
00000000
00000010
00000000
,
00010000
00000000
00000000
00000000
01000000
00000000
00000000
01000000
00000000
00000000
01000000
00000000
00000000
00000000
00100000
00000000
,
00100000
10000000
00100000
00010000
00001000
00000100
00000010
00001000
,
00000100
00001000
00000000
00000100
00000010
00001000
00010000
00001000
,
00100000
01000000
00000000
00010000
00100000
00100000
00010000
00000000
,
00001000
00000000
00000000
00000000
00000100
00000010
00000100
00000000
00001000
00000000
00001000
00000000
00000001
00000100
00000001
00000100
,
00000001
00000100
00000000
00000000
00001000
00100000
00000000
00010000
,
00000000
00001000
00000000
00010000
00010000
10000000
00100000
00000000
,
00010000
00010000
00100000
00001000
00010000
00000010
00010000
00000100
,
00000000
00000000
00000000
00000000
00001000
00000000
00000000
00000100
00000000
00000000
00001000
00000000
00000000
00000000
00000000
00000000
,
00010000
00000000
10000000
00000000
00100000
00000000
00000000
00100000
00000000
00000000
01000000
00000000
00010000
00000000
10000000
00010000
,
00100000
00010000
00002000
00000000
00003020
00000000
00000032
00000000
,
00000003
00000000
00000000
00000000
00001000
00000000
00000000
00001000
00000000
00000000
00000100
00000000
00000001
00000000
00001000
00000001
,
00000010
00001000
00020000
00000000
00230000
00000000
20300000
00000000
,
30100000
00010000
00001000
00000100
00000010
00000001
00000001
00000010
,
00000100
00001000
00010000
00100000
01000000
10000000
00010000
00000000
,
00010000
00000000
00000000
00000000
00010000
00000000
00000000
00000000
01100000
00000000
00000000
00001000
00000000
00000000
00001000
00000000
,
00010000
00000000
00000000
00000000
00000010
00000000
00001000
00000000
00000000
00000100
00000000
00000000
00000000
00000000
00010000
00000000
,
00010000
00100000
00000000
00010000
00000100
00000001
00000100
00000010
,
00001000
00000010
00000100
00000000
00000100
00000000
00001000
00100000
,
01000000
01010000
00000000
00010000
00000100
00001100
00000000
00001000
,
00010000
00022000
00000000
00000000
00000000
00033000
00000000
00001000
,
00001000
00000100
00000000
00001000
00100000
00010000
00100000
01000000
,
10000000
01000000
00100000
00000000
00100000
00000000
00010000
00000100
,
00000010
00001010
00000000
00001000
00100000
00110000
00000000
00010000
,
00001000
00022000
00000000
00000000
00000000
00033000
00000000
00010000
,
00000000
00000000
00000000
00000000
00010000
00000000
10000000
00010000
10000000
00000000
00100000
00000000
01000000
00000000
00001000
00100000
,
00001000
00100000
00001000
00000100
00000010
00000001
00000010
00000010
,
00001000
00000000
00000000
00000000
00000100
00000000
00000001
00000000
00000100
00000000
00001000
00000000
00000010
00001000
00000010
00000000
,
00010000
00001000
00010000
00000000
00100000
00000000
00010000
00000000
01000000
00000000
10000000
00000000
01000000
00000000
00010000
00000000
,
00100000
00000000
00000000
00000000
00020000
00000000
00000000
00000000
00031000
00000000
00000000
00000100
00000000
00000100
00000000
00000000
,
00000020
00000000
00000000
00000000
00010030
00000000
00000000
00000000
00100000
00000000
00000000
01000000
00000000
01000000
00000000
00000000
,
00001000
00000000
01000000
00000000
00100000
00000000
00000000
00000000
10010000
00000000
00000000
00100000
00000000
00000000
01000000
00000000
,
00011000
00000000
00000000
00000000
00000100
00000000
00000000
00000000
00000101
00000000
00000000
00000010
00000000
00000000
00010100
00000000
,
01001000
00000000
00000000
00001000
00010000
00001000
00000100
00010000
,
00100000
00010000
01000000
00000000
00001000
00000000
00010000
00000100
,
00010000
00101000
00000000
00010000
00000010
00000101
00000000
00000010
,
00001000
00022000
00000000
00000000
00000000
00033000
00000000
00001000
,
00001000
00100000
00000000
00010000
00001000
00010000
01000000
00001000
,
00000010
00001000
00000100
00000000
00010000
00000000
00001000
00000010
,
00001000
00010100
00000000
00001000
01000000
10100000
00000000
01000000
,
00010000
00022000
00000000
00000000
00000000
00033000
00000000
00001000
,
00001000
00000000
00000000
00000000
00010000
00000000
00000000
00000000
00101000
00000000
00000000
00001000
00000000
00000000
00000100
00000000
,
00000110
00000000
00000000
00000000
00000001
00000000
00000000
00000000
00010010
00000000
00000000
00010000
00000000
00000000
00100000
00000000
,
01100000
00000000
00000000
00000000
10000000
00000000
00000000
00000000
01010000
00000000
00000000
00010000
00000000
00000000
00001000
00000000
,
00011000
00000000
00000000
00000000
00001000
00000000
00001000
00000000
00000000
01000000
00000000
00000000
00000000
00000000
00100000
00000000
,
00000000
01000000
00000000
00000000
00000000
00000000
00000000
00000000
00000000
00000000
00000000
00000000
00000000
00000000
00000000
00000000
;

//---------------dance-double - ----------------
#NOTEDATA:;
#CHARTNAME:;
#STEPSTYPE:dance-double;
#DESCRIPTION:;
#CHARTSTYLE:;
#DIFFICULTY:Challenge;
#METER:14;
#RADARVALUES:0.441863,0.553689,0.301328,0.150664,0.181683,349.000000,315.000000,34.000000,17.000000,104.000000,0.000000,0.000000,0.000000,0.000000,0.441863,0.553689,0.301328,0.150664,0.181683,349.000000,315.000000,34.000000,17.000000,104.000000,0.000000,0.000000,0.000000,0.000000;
#CREDIT:;
#NOTES:
// measure 0
00000000
00000000
00000000
00000000
,  // measure 1
00000000
00000000
00000000
00000000
,  // measure 2
00000000
00000000
00000000
00000000
,  // measure 3
00000000
00200000
00000000
00000000
,  // measure 4
00300000
00000000
00000000
00000000
01001000
00000000
00000000
00000000
00001000
00010000
00000000
00000010
00000000
00000000
00001000
00000000
,  // measure 5
00000110
00000000
00000000
00000000
00101000
00000000
00000000
00000000
00010000
00001000
00000000
01000000
00000000
00000000
00010000
00000000
,  // measure 6
01100000
00000000
00000000
00000000
00001000
00000000
00000000
00000000
00001000
00100000
00000000
00010000
00000000
00000000
00000100
00000000
,  // measure 7
00011000
00000000
00000000
00000000
00000100
00000000
00000000
00000100
00000000
00000000
00000200
00000000
00000000
00000000
00000300
00000000
,  // measure 8
00001000
00001000
00010000
00001000
00100000
01000000
10000000
01000000
,  // measure 9
00100000
00010000
00000000
00001000
00010000
00001000
00000100
00000010
,  // measure 10
00000001
00000000
00000100
00000000
00000000
00000000
00001000
00000000
00001000
00000000
00100000
00000000
00000000
00100000
00000000
00000000
,  // measure 11
00010000
00000000
01000000
00000000
00200000
00000000
10000000
00300000
10000000
00000000
02000000
00000000
03001000
00010000
00001000
00100000
,  // measure 12
00010000
01010000
00000000
00000000
10000000
01000000
00100000
00000000
,  // measure 13
00000000
00001000
00000000
00001000
00000010
00000001
00000100
00000000
,  // measure 14
00000100
00000000
00001000
00000010
00000000
00000000
00010000
00000000
01000000
00000000
00100000
00010000
00000000
00000000
01000000
00000000
,  // measure 15
00000000
00000000
00100000
00000000
01000000
00000000
00000000
00010000
00000000
00000000
00000200
00000000
00000000
00000000
00000000
00000000
,  // measure 16
00000000
00000300
00010000
00001000
00000010
00000100
00000100
00000010
,  // measure 17
00000001
00000000
00000100
00000000
00010000
00000000
00000000
00100000
00001000
00000000
00000000
01000000
00100000
00000000
00000000
00000000
,  // measure 18
01000000
00010000
01000000
10000000
10000000
01000000
00010000
00001000
,  // measure 19
00000010
00000000
00000100
00000000
00010000
00000000
00000000
00001000
00000100
00000000
00000000
00000001
00000010
00000000
00000000
00000000
,  // measure 20
00000100
00001000
00000100
00010000
01000000
00100000
10000000
01000000
,  // measure 21
00010000
00001000
00000010
00000100
00000001
00001000
00000200
00000000
,  // measure 22
00001300
00000000
00000000
00000000
00011000
00000000
00000000
00000000
00010100
00001000
00000000
00101000
00000000
00000000
00010000
00000000
,  // measure 23
01000000
00000000
00000000
00000000
00001000
00000000
00001000
00000000
00000000
00001000
00000000
00000000
00000000
00000000
00010000
00000000
,  // measure 24
00010000
00100000
00000000
10000000
00100000
10000000
00010000
00001000
,  // measure 25
00000100
00010000
00020000
00000000
00030100
00000000
00001000
00010000
,  // measure 26
00100000
MMMMMMMM
00000000
00100000
01000000
MMMMMMMM
00000000
00010000
,  // measure 27
00000100
MMMMMMMM
00010000
00001000
00010000
00000100
00000000
00000010
,  // measure 28
00000010
00000001
00000000
00001000
00000100
00010000
00000010
00010000
,  // measure 29
00000100
00001000
00002000
00000000
00013000
00000000
00100000
00010000
,  // measure 30
00001000
MMMMMMMM
00000000
00001000
00000010
MMMMMMMM
00000000
00001000
,  // measure 31
01000000
MMMMMMMM
00100000
01000000
01000000
00010000
10000000
01000000
,  // measure 32
00000000
00000000
00000000
00000000
00001000
00000000
00010000
00000100
00010000
00000100
00000000
00000000
00000010
00000000
00001000
00000001
,  // measure 33
00000100
00000001
00000000
00000000
00001000
00000000
00010000
00000000
00100000
00000000
01000000
10000000
01000000
00000000
00100000
00000000
,  // measure 34
00001000
00000000
00010000
00000000
00001000
00000000
00000100
00000000
00000001
00000000
00000100
00000000
00100000
00001000
00010000
00000000
,  // measure 35
01000000
00010000
00100000
00000000
00010000
00100000
01000000
10000000
00100000
00000000
01000000
00000000
00010000
00000000
00001000
00000000
,  // measure 36
00000100
00000000
00101000
00000000
00000100
00000000
00002000
00000000
00003100
00000000
00000000
00000010
00000000
00000010
00000000
00000000
,  // measure 37
00001000
00000000
00010000
00000000
00200000
00000000
00301000
00000000
00001000
00000000
00000000
00010000
00000000
00010000
00000000
00000000
,  // measure 38
00100000
00010000
00101000
MMMMMMMM
00011000
MMMMMMMM
00010100
MMMMMMMM
,  // measure 39
00001001
MMMMMMMM
00010100
MMMMMMMM
00011000
MMMMMMMM
01100000
MMMMMMMM
,  // measure 40
10010000
00200000
00000000
00300000
00010000
00001000
00000100
00010000
,  // measure 41
00100000
01000000
11000000
00000000
00100000
00000000
00010000
00100000
,  // measure 42
00010000
00002000
00003010
00000001
00000100
00000002
00000103
00010000
,  // measure 43
00100000
02000000
00010000
00010000
00001000
03001000
00000000
00010000
,  // measure 44
00001000
00010000
00000000
00001000
00010000
00100000
00001000
00000100
,  // measure 45
00000010
00000001
00000101
00000000
00001000
00000000
00000100
00010000
,  // measure 46
00000100
00200000
01300000
10000000
00010000
02000000
03100000
10000000
,  // measure 47
01000000
00002000
00100000
00100000
00013000
00010000
00001000
00000000
,  // measure 48
00000010
00000000
00000000
00000000
00001100
00000000
00000000
00000000
00001010
00000100
00000000
00011000
00000000
00000000
00110000
00000000
,  // measure 49
10010000
00000000
00000000
00000000
11000000
00000000
00000000
00000000
01010000
00100000
00000000
00011000
00000000
00000000
00001100
00000000
,  // measure 50
00000110
00000000
00000000
00000000
00001001
00000000
00000000
00000000
00011000
00000100
00000000
01010000
00000000
00000000
00001000
00000000
,  // measure 51
00110000
00000000
00000000
00000000
00100000
00000000
00010000
00000000
00000000
00001000
00000000
00000000
00000000
00000000
00100000
00000000
,  // measure 52
00000000
01000000
00000000
00000000
00000000
00000000
00000000
00000000
00000000
00000000
00000000
00000000
00000000
00000000
00000000
00000000
;
