#VERSION:0.83;
#TITLE:U.A.D;
#SUBTITLE:;
#ARTIST:HAYAKO;
#TITLETRANSLIT:U.A.D;
#SUBTITLETRANSLIT:;
#ARTISTTRANSLIT:HAYAKO;
#GENRE:DJMAX;
#ORIGIN:;
#CREDIT:SAIKIO;
#BANNER:U.A.D-banner.png;
#BACKGROUND:BG.png;
#PREVIEWVID:;
#JACKET:U.A.D-jacket.png;
#CDIMAGE:;
#DISCIMAGE:;
#LYRICSPATH:;
#CDTITLE:DJMAX RESPECT.png;
#MUSIC:U.A.D.ogg;
#OFFSET:0.155000;
#SAMPLESTART:35.975048;
#SAMPLELENGTH:16.699970;
#SELECTABLE:YES;
#DISPLAYBPM:129.000000;
#BPMS:0.000=129.000;
#STOPS:;
#DELAYS:;
#WARPS:;
#TIMESIGNATURES:0.000=4=4;
#TICKCOUNTS:0.000=4;
#COMBOS:0.000=1;
#SPEEDS:0.000=1.000=0.000=0;
#SCROLLS:0.000=1.000;
#FAKES:;
#LABELS:0.000=Song Start;
#BGCHANGES:0.000=U.A.D.avi=1.000=0=0=0=StretchNoLoop====,
99999=-nosongbg-=1.000=0=0=0 // don't automatically add -songbackground-
;
#KEYSOUNDS:;
#ATTACKS:
;

//---------------dance-single - ----------------
#NOTEDATA:;
#CHARTNAME:;
#STEPSTYPE:dance-single;
#DESCRIPTION:;
#CHARTSTYLE:;
#DIFFICULTY:Beginner;
#METER:4;
#RADARVALUES:0.142107,0.208734,0.048922,0.024461,0.000000,122.000000,116.000000,6.000000,3.000000,0.000000,0.000000,0.000000,0.000000,0.000000,0.142107,0.208734,0.048922,0.024461,0.000000,122.000000,116.000000,6.000000,3.000000,0.000000,0.000000,0.000000,0.000000,0.000000;
#CREDIT:;
#DISPLAYBPM:129.000000;
#NOTES:
0000
0000
0000
0000
,
0000
0000
0000
0000
,
0000
0000
0000
0000
,
0000
1000
0000
0000
,
0000
0001
0000
0000
,
0000
0100
0000
0000
,
0000
0010
0000
0000
,
0000
0001
0000
0000
,
0000
0010
0000
0010
,
0000
0001
0000
0001
,
0000
1000
0000
1000
,
0000
0010
0000
0010
,
0000
0200
0000
0000
,
0300
0000
0000
0010
,
0000
0000
0020
0000
,
0000
0030
0000
0000
,
0000
0001
0000
1000
,
0000
0001
0000
1000
,
0000
0200
0000
0000
,
0000
0300
0000
0000
,
0000
0100
0000
0100
,
0000
0001
0000
1000
,
0000
0001
0000
0010
,
0000
0100
0100
0100
,
0000
0010
0000
0100
,
0000
0001
0000
1000
,
0000
0010
0000
0100
,
0000
0100
0100
0100
,
0000
0010
0010
0000
,
0000
0001
0001
0000
,
0000
0010
0010
0000
,
0000
1000
1000
0000
,
0000
0100
0100
0001
,
0000
1000
1000
0001
,
0000
0010
0010
0001
,
0000
0100
0000
0010
,
0000
0100
0000
0100
,
0000
0010
0000
0010
,
0000
0001
0000
0001
,
0000
1000
0000
1000
,
0000
1001
0000
0000
,
0000
1001
0000
0000
,
0000
0110
0000
0000
,
0000
0110
0000
0000
,
0000
0010
0000
0010
,
0000
0100
0000
0100
,
0000
0001
0000
0001
,
0000
1000
0000
1000
,
0000
0100
0100
0100
,
0000
0010
0010
0010
,
0000
0001
0001
0001
,
0000
1000
1000
0001
,
0000
1001
0000
0100
,
0010
0000
1000
0000
,
0000
1001
0000
0010
,
0100
0000
0001
0000
,
0000
0010
0010
0000
,
0000
1000
0001
1000
,
0000
0010
0000
0100
,
0000
0001
0000
1000
,
0000
0010
0010
0000
,
0100
0100
0000
0001
,
0001
0000
1000
0000
,
0001
0000
0000
0000
,
0100
0000
0000
0000
;

//---------------dance-single - ----------------
#NOTEDATA:;
#CHARTNAME:;
#STEPSTYPE:dance-single;
#DESCRIPTION:;
#CHARTSTYLE:;
#DIFFICULTY:Easy;
#METER:6;
#RADARVALUES:0.241116,0.286449,0.105998,0.171227,0.000000,207.000000,194.000000,13.000000,21.000000,0.000000,0.000000,0.000000,0.000000,0.000000,0.241116,0.286449,0.105998,0.171227,0.000000,207.000000,194.000000,13.000000,21.000000,0.000000,0.000000,0.000000,0.000000,0.000000;
#CREDIT:;
#DISPLAYBPM:129.000000;
#NOTES:
0000
0000
0000
0000
,
0000
0000
0000
0000
,
0000
0000
0000
0000
,
0000
1000
0001
1000
,
0000
0001
0000
0001
,
0000
0010
0000
0010
,
0000
1000
0000
1000
,
0000
0100
0000
0100
,
0000
1000
0100
0001
,
0000
0010
0100
0001
,
0000
0001
0010
1000
,
0000
0100
0010
1000
,
0000
0010
2000
3000
,
0001
0000
0010
0001
,
0100
0000
0200
0300
,
0010
0100
1000
0100
,
1000
0000
0020
0030
,
0100
0001
0100
0010
,
0000
0200
0000
0000
,
0300
0010
0010
0010
,
0000
1001
0100
0010
,
1000
0001
0001
1000
,
1000
0010
0100
0001
,
0010
1100
0100
0011
,
0100
0010
0001
0100
,
1000
0010
0001
0001
,
1000
1000
0010
0100
,
0001
0101
1000
1010
,
0100
0010
0100
0001
,
0000
1000
0100
0001
,
0000
0010
0100
0001
,
0000
0010
1000
0001
,
0000
2000
3010
0001
,
0000
0200
1300
0001
,
0000
0020
0130
0001
,
0000
0200
0300
0010
,
0000
2002
3003
0100
,
0010
2200
3300
0010
,
1000
0202
0303
0010
,
1000
0220
0330
0001
,
0100
2000
0001
3100
,
0010
0002
1000
0013
,
0100
0020
0001
0130
,
1000
0100
0100
0010
,
0010
0100
0000
0001
,
0100
0010
0000
1000
,
0000
0001
0000
0100
,
0000
0010
0100
1000
,
0000
1001
0100
0100
,
0001
0010
0100
1000
,
0001
0110
1000
0001
,
0100
0010
0010
0100
,
0100
0101
1000
0010
,
1000
0000
0001
0100
,
0010
1100
0100
0010
,
0001
0100
0100
1000
,
0000
0100
1000
0010
,
0100
0001
0001
1000
,
1000
0010
0001
0100
,
1000
0010
0001
0100
,
0000
0020
0130
0000
,
0002
1003
0000
1000
,
0010
0100
0100
0001
,
0100
0000
0000
0000
0010
0000
0000
0100
;

//---------------dance-single - ----------------
#NOTEDATA:;
#CHARTNAME:;
#STEPSTYPE:dance-single;
#DESCRIPTION:;
#CHARTSTYLE:;
#DIFFICULTY:Medium;
#METER:9;
#RADARVALUES:0.311005,0.390612,0.171227,0.252764,0.008154,267.000000,246.000000,21.000000,31.000000,0.000000,0.000000,0.000000,0.000000,0.000000,0.311005,0.390612,0.171227,0.252764,0.008154,267.000000,246.000000,21.000000,31.000000,0.000000,0.000000,0.000000,0.000000,0.000000;
#CREDIT:;
#DISPLAYBPM:129.000000;
#NOTES:
0000
0000
0000
0000
,
0000
0000
0000
0000
,
0000
0000
0000
0000
,
0000
1000
0001
1000
,
0000
0010
0100
0001
,
0001
0100
0010
1000
,
1000
0001
0100
1000
,
0001
0000
0100
0000
,
0100
0001
0100
0002
,
0003
0001
1000
0020
,
0030
0100
1000
2000
,
3000
0010
0001
0200
,
0300
1000
2000
3000
,
0001
0002
0000
0000
0003
0000
0100
0000
,
0010
0000
0000
0000
0010
0200
0000
0300
,
0010
0001
0100
1000
,
0010
0000
0000
0000
0100
0020
0000
0030
,
1000
0100
0010
1000
,
0000
0200
0000
0010
,
0300
0010
0100
0010
,
0110
0000
1000
0000
0001
0100
1000
0000
,
0010
0000
0100
0000
0001
0100
0001
0000
,
1000
0100
1000
0000
0010
0010
0100
0000
,
0001
1010
0101
0011
,
1100
0000
0110
0000
0001
1000
0010
0000
,
0100
0000
0001
0001
0100
0000
1000
1000
,
0010
0000
0100
0000
0001
0100
1000
0000
,
0010
1001
0101
1100
,
0011
0110
1000
0002
,
0003
0100
1000
0002
,
0003
0100
0010
0002
,
0003
1000
0100
0002
,
0003
0000
1000
0100
0010
0000
0002
0000
,
0003
0000
0010
0100
1000
0000
0002
0000
,
0003
0000
0100
1000
0100
0000
0002
0000
,
0003
0200
0300
0010
,
0000
0000
2020
0000
0000
3030
0100
0001
,
0100
0000
2002
0000
0000
3003
0010
0100
,
0001
0000
0202
0000
0000
0303
0010
1000
,
0100
0000
0022
0000
0000
0033
0100
0001
,
1000
0000
0210
0000
0010
0300
0001
0100
,
1000
0000
2001
0000
0001
3000
0100
0001
,
0010
0000
2100
0000
0100
3000
0010
0100
,
0001
0000
0100
0100
0100
0000
0010
0000
,
0100
0001
0100
1000
,
0010
0001
0100
1000
,
0000
1000
0100
0001
,
0000
1000
0010
0100
,
0000
1100
0001
0100
,
1000
0010
1000
0100
,
0001
0020
0030
0100
,
1000
0000
0100
0000
0100
0000
0010
0010
,
0010
0000
0101
0000
1000
0000
0100
1000
,
0010
0100
0001
0100
,
0100
0000
0110
0000
0001
0010
0100
0000
,
0100
0000
1000
0100
0010
0000
0010
0000
,
0100
0000
0001
0000
0001
1000
0100
0000
,
1000
0000
0001
1000
0001
0100
1000
0001
,
1000
0200
0310
0001
,
0100
0020
0130
0001
,
0100
0000
0010
0010
0100
0000
0001
0000
,
1000
1000
0100
0000
0010
0000
0001
0001
,
1000
0000
0010
0000
0100
0000
0100
0000
0010
0000
0000
0000
0100
0000
0000
0001
,
0000
0000
0100
0000
0000
1000
0000
0000
0100
0000
0000
0000
0010
0000
0100
0000
;

//---------------dance-single - ----------------
#NOTEDATA:;
#CHARTNAME:;
#STEPSTYPE:dance-single;
#DESCRIPTION:;
#CHARTSTYLE:;
#DIFFICULTY:Hard;
#METER:12;
#RADARVALUES:0.497375,0.651020,0.334301,0.171227,0.211996,427.000000,386.000000,41.000000,21.000000,0.000000,0.000000,0.000000,0.000000,0.000000,0.497375,0.651020,0.334301,0.171227,0.211996,427.000000,386.000000,41.000000,21.000000,0.000000,0.000000,0.000000,0.000000,0.000000;
#CREDIT:;
#DISPLAYBPM:129.000000;
#NOTES:
0000
0000
0000
0000
,
0000
0000
0000
0000
,
0000
0000
0000
0000
,
0000
2000
3002
2003
,
3001
0000
0100
0000
0010
0100
0001
0000
,
0100
0000
0010
1000
0001
1000
0100
0000
,
1000
0000
0010
0000
0100
0001
0100
0000
,
0010
0000
0100
0100
0001
0000
0100
0000
,
0010
0000
0001
0100
0001
0010
0100
0000
,
0101
0000
0010
0100
0010
1000
0100
0000
,
1010
0000
1000
0100
0001
0100
0010
0000
,
1001
0000
0010
0001
0100
0001
0010
0000
,
0110
0000
1000
0000
0010
2000
0000
0000
,
3001
0002
0000
0000
0103
1000
0010
0010
,
0100
0001
0000
0000
0100
0020
0000
0000
,
0130
0000
0002
0000
0103
1000
0010
0000
,
0100
0100
0000
0000
1000
0020
0000
0000
,
0130
0001
0200
0000
0310
1000
0100
0000
,
1000
0210
0000
0320
,
0000
0030
0100
1000
0100
0010
0001
0000
,
0100
0000
1100
0000
0010
1000
0001
1000
,
0100
0000
1000
0000
0010
0000
0010
0000
0001
0100
0001
0000
0010
0000
1000
0100
,
0000
1000
0000
0100
0010
0000
0000
0000
0001
0000
0100
0000
0010
0000
0100
0000
,
0001
1000
1100
0000
0011
0000
1010
0000
,
0110
0000
0101
0000
0010
0100
0001
0010
,
0100
0010
0100
0000
0100
0000
1000
0000
0001
0000
0001
0000
0100
0000
0010
0000
,
1000
0100
1000
0100
1000
0000
0001
0000
0010
0000
0100
0000
0100
0000
0001
0000
,
0100
0010
0011
0000
1100
0000
1001
0000
,
0101
0110
0001
0102
,
1003
0000
0010
0100
0001
0000
1002
0000
,
0103
0000
1000
0100
0010
0000
0012
0000
,
0013
0000
0100
0001
0010
0000
0102
0000
,
0103
0000
0010
1000
0010
0000
0201
0000
,
1300
0000
0100
0010
0100
0000
2001
0000
,
3010
0000
0100
0010
0001
0000
0021
0000
,
0130
0200
0000
0302
,
0000
0003
0010
1000
0100
1000
0010
0010
,
0100
0100
0010
0001
0010
0100
1000
1000
,
0001
0001
0010
1000
0010
0100
0001
0001
,
0100
0100
1000
0100
0001
0010
1000
1000
,
0010
0000
0010
0000
1000
0001
1000
0001
1000
0001
0100
0000
0010
0000
0100
0000
,
0001
0000
0010
0000
1000
0100
1000
0100
1000
0100
0010
0000
0001
0000
1000
0000
,
0001
0000
0010
0000
0100
0010
0100
0010
0100
0010
0100
0000
1000
0000
0100
0000
,
0010
0100
0001
0010
1000
0010
0001
0100
,
0010
0000
0001
0000
0010
0000
0000
0000
1000
0000
1000
0000
0001
0100
0000
1000
,
0000
0100
0000
0010
0000
0000
0100
0000
0001
0000
0100
0000
0010
0001
0000
1000
,
0000
0001
0000
0000
0010
0000
0000
0000
0100
0000
0010
0000
0001
1000
0000
0010
,
0000
1000
0000
0000
0100
0000
0000
0000
0010
0000
0000
0000
0100
0000
0000
0000
,
0001
0000
0101
0000
0011
0000
1000
0010
,
1000
0000
0110
0000
1100
0001
0100
1000
,
0010
0000
1000
1000
0001
0001
0100
0100
,
0010
0000
0010
0000
1000
0001
1000
0001
1000
0001
1000
0001
0100
0010
0100
0010
,
0100
0010
0100
0000
1001
0000
0000
0000
0001
0000
0000
0100
0000
0000
0010
0000
,
0000
1100
0000
0000
0001
0000
0001
0000
0010
0000
0100
0000
0001
0000
0000
0100
,
0000
0000
0010
0000
0110
0000
0000
0000
1001
0000
0000
1100
0000
0000
0010
0000
,
0100
0000
0001
0000
1000
0000
0000
1000
0000
0000
0010
0000
0100
0000
0000
0100
,
0000
0001
0100
0010
1000
0001
1000
0100
,
1000
0010
0001
0001
0100
0100
1000
1000
,
0100
0000
0100
0000
0010
0000
0000
0000
1000
0000
0100
0000
0010
0100
0000
1000
,
0000
0100
0000
0010
0000
0000
0001
0000
0001
0000
1000
0000
0001
0010
0000
0100
,
0000
0001
0000
0000
0110
0000
0000
0101
0000
0000
1010
0000
0000
0000
0000
0000
,
0011
0000
0000
0110
0000
0000
1100
0000
0000
0000
0000
0000
1010
0000
0000
0011
,
0000
0000
0110
0000
0000
0000
0001
0000
0100
0000
0000
0010
0000
0000
0100
0000
,
0000
0001
0000
0000
1000
0000
0000
0200
0000
0000
0000
0300
0010
0000
0100
0000
;

//---------------dance-double - ----------------
#NOTEDATA:;
#CHARTNAME:;
#STEPSTYPE:dance-double;
#DESCRIPTION:;
#CHARTSTYLE:;
#DIFFICULTY:Easy;
#METER:6;
#RADARVALUES:0.259753,0.364571,0.228303,0.146766,0.000000,223.000000,195.000000,28.000000,18.000000,0.000000,0.000000,0.000000,0.000000,0.000000,0.259753,0.364571,0.228303,0.146766,0.000000,223.000000,195.000000,28.000000,18.000000,0.000000,0.000000,0.000000,0.000000,0.000000;
#CREDIT:;
#DISPLAYBPM:129.000000;
#NOTES:
00000000
00000000
00000000
00000000
,
00000000
00000000
00000000
00000000
,
00000000
00000000
00000000
00000000
,
00000000
00010000
00001000
00010000
,
00000000
00001000
00000100
00000010
,
00000000
00000001
00000010
00000100
,
00000000
00001000
00010000
00100000
,
00000000
01000000
01000000
10000000
,
00000000
10000000
01000000
00100000
,
00100000
00010000
00001000
00000010
,
00000010
00000100
00000001
00000010
,
00000010
00001000
00010000
00100000
,
00000000
10000000
02000000
03000000
,
00200000
00300000
00010000
00001000
,
00000100
00000000
00000020
00000030
,
00000200
00000300
00000001
00000100
,
00001000
00000000
00020000
00030000
,
02000000
03000000
00100000
10000000
,
01000000
00200000
00000000
00302000
,
00003000
00010000
00010000
00001000
,
00011000
00100000
00010000
01000000
,
01000000
00000000
00010000
00010000
,
10000000
10000000
00010000
00001000
,
00000100
00000101
00001010
00011000
,
00110000
01010000
10000000
01000000
,
00100000
00010000
00010000
10000000
,
10000000
01000000
00010000
00000100
,
00000010
00000011
00000110
00001100
,
00011000
00110000
00001000
00000001
,
00000000
00001000
00000100
00000001
,
00000000
00010000
00000010
00000001
,
00000000
00000100
00001000
00000001
,
00000000
00010000
00001000
00000001
,
00000000
00000010
00000100
00000001
,
00000000
00000100
00000010
00000001
,
00000000
00011000
00000000
00110000
,
00000000
20000000
30000000
01000000
,
00100000
00002000
00003000
00000100
,
00000010
00000002
00000003
00000100
,
00000010
00002000
00003000
00010000
,
00100000
02020000
03030000
00100000
,
00010000
00022000
00033000
00000100
,
00001000
00002020
00003030
00000100
,
00000001
00000010
00000010
00001000
,
00001000
00010000
00000000
01000000
,
00000000
10000000
00000000
01000000
,
00000000
00100000
00000000
00010000
,
00000000
00001000
00001000
00000100
,
00000100
00001010
00000100
00000001
,
00000100
00011000
00100000
00010000
,
01000000
10010000
00100000
00010000
,
00001000
00010000
00010000
00001000
,
00001000
00011000
00000000
00001100
,
00000000
00010010
00000000
01001000
,
00000000
00010000
00001000
00000100
,
00000001
00000010
00000100
00001000
,
00000000
00010000
01000000
10000000
,
00100000
00010000
00010000
00001000
,
00001000
00001100
00000010
00000100
,
00000001
00000101
00000010
00001000
,
00000000
00011000
00100000
00000000
,
01010000
10000000
00000000
00110000
,
00001000
00000000
00000100
00001000
,
00010000
00000000
00100000
00000000
00000000
00000000
00010000
01000000
;

//---------------dance-double - ----------------
#NOTEDATA:;
#CHARTNAME:;
#STEPSTYPE:dance-double;
#DESCRIPTION:;
#CHARTSTYLE:;
#DIFFICULTY:Medium;
#METER:10;
#RADARVALUES:0.341290,0.416653,0.301686,0.179381,0.012231,293.000000,256.000000,37.000000,22.000000,0.000000,0.000000,0.000000,0.000000,0.000000,0.341290,0.416653,0.301686,0.179381,0.012231,293.000000,256.000000,37.000000,22.000000,0.000000,0.000000,0.000000,0.000000,0.000000;
#CREDIT:;
#DISPLAYBPM:129.000000;
#NOTES:
00000000
00000000
00000000
00000000
,
00000000
00000000
00000000
00000000
,
00000000
00000000
00000000
00000000
,
00000000
00010000
00001000
00010000
,
00000000
00001000
00000100
00000010
,
00000010
00000001
00000100
00000010
,
00000010
00001000
00010000
00010000
,
00100000
00000000
00010000
10000000
00010000
00000000
00100000
00000000
,
00010000
00000000
01000000
00000000
01010000
00000000
00001000
00010000
,
00001000
00000000
00000100
00000000
00001100
00000000
00000010
00000001
,
00000100
00000000
00000010
00000000
00001001
00000000
00000100
00001000
,
00010000
00000000
00100000
00000000
00110000
00000000
00010000
01000000
,
10000000
00000000
00100000
00000000
00010000
00002000
00000000
00003000
,
00010000
00000200
00000000
00000300
00001000
00000000
00000010
00000000
,
00000100
00000100
00000000
00000000
00000001
00000200
00000000
00000300
,
00000010
00001000
00010000
01000000
,
00100000
00000000
00000000
00000000
10000000
00020000
00000000
00030000
,
00100000
00000000
00010000
00000000
00001000
00010000
00001000
00000000
,
00000100
00000200
00000000
00000000
,
00000300
00000010
00001000
00000100
,
00010000
00100000
10010000
10010000
,
00100000
00000000
00010000
10000000
00100000
00000000
10000000
00010000
,
01000000
00010000
00001000
00011000
,
00000100
00011000
00110000
00011000
,
00001100
00000000
00001010
00000000
00000001
00000100
00001000
00000000
,
00000010
00000000
00000100
00000000
00010000
00010000
00001000
00000000
,
00001000
00001000
00010000
00000000
00110000
00000000
01010000
00000000
,
00100000
10010000
00100000
00011000
,
00001001
00002000
00003000
00000001
,
00000000
00000220
00000330
00000001
,
00000000
00001000
00000100
00000001
,
00000000
00000000
00000010
00000100
00001000
00000000
00000001
00000000
,
00000000
00002100
00003010
00000001
,
00000000
00000000
00000010
00000100
00001000
00000000
00000001
00000000
,
00000000
00001020
00000130
00000001
,
00000000
00002000
00003000
02000000
,
03000000
00000000
00100000
00010000
00001000
00000000
00000100
00000000
,
00010000
00000000
00000010
00001000
00010000
00000000
00100000
00000000
,
00010000
00000000
10000000
00010000
10000000
00000000
00100000
00000000
,
00010000
00000000
00100000
00010000
00001000
00000000
00000100
00000000
,
00010000
00000000
00002020
00000000
00003030
00000000
00000100
00000001
,
00000100
00000000
00022000
00000000
00033000
00000000
00100000
00010000
,
00100000
00000000
20020000
00000000
30030000
00000000
00100000
00010000
,
00001000
00000000
00010000
00010000
00001000
00000000
01000000
00000000
,
00010000
10000000
01000000
00010000
,
00100000
00010000
00001000
00000100
,
00000001
00000010
00000100
00001000
,
00010000
01000000
10000000
00100000
,
00010000
00110000
00110000
00001000
,
00010000
00001100
00001100
00000010
,
00000001
00000101
00000101
00000010
,
00001000
00010000
00100000
10010000
,
10010000
00000000
00220000
00000000
00330000
00000000
00001000
00010000
,
00000100
00001000
00000100
00000010
,
00001000
00000000
00002002
00000000
00003003
00000000
00000100
00000010
,
00001000
00000000
00000100
00010000
00100000
00000000
00010000
10000000
,
00100000
00000000
00010000
00010000
00001000
00000000
00010000
00000000
,
00100000
00000000
00010000
00001000
00010000
00001000
00010000
00000000
,
00001000
00001100
00001010
00000100
,
00000001
00000000
00000011
00000000
00001100
00000000
00001000
00010000
,
00100000
00000000
00010000
00010000
01000000
00000000
00100000
00000000
,
10000000
10000000
00010000
00000000
00100000
00000000
00001000
00001000
,
00010000
00000000
00000000
00000000
00000100
00000000
00000000
00000000
00001000
00000000
00000000
00000100
00000000
00000000
00000100
00000000
,
00000000
00001000
00000000
00000000
00001000
00000000
00000000
00001000
00000000
00000000
00000000
00000000
00010000
00000000
01000000
00000000
;

//---------------dance-double - ----------------
#NOTEDATA:;
#CHARTNAME:;
#STEPSTYPE:dance-double;
#DESCRIPTION:;
#CHARTSTYLE:;
#DIFFICULTY:Hard;
#METER:13;
#RADARVALUES:0.492715,0.578504,0.456606,0.179381,0.138613,423.000000,367.000000,56.000000,22.000000,0.000000,0.000000,0.000000,0.000000,0.000000,0.492715,0.578504,0.456606,0.179381,0.138613,423.000000,367.000000,56.000000,22.000000,0.000000,0.000000,0.000000,0.000000,0.000000;
#CREDIT:;
#DISPLAYBPM:129.000000;
#NOTES:
// measure 0
00000000
00000000
00000000
00000000
,  // measure 1
00000000
00000000
00000000
00000000
,  // measure 2
00000000
00000000
00000000
00000000
,  // measure 3
00000000
00020000
00032000
00023000
,  // measure 4
00031000
00000000
00000100
00000000
00001000
00000010
00001000
00000000
,  // measure 5
00000001
00000000
00000101
00000000
00000010
00000100
00000010
00001000
,  // measure 6
00010000
00000000
00110000
00000000
01000000
00000000
00100000
00010000
,  // measure 7
00001000
00000000
00010000
10000000
01000000
00010000
01000000
00100000
,  // measure 8
00010000
00000000
00110000
00000000
00011000
00000000
00001000
00000100
,  // measure 9
00000010
00000000
00000011
00000000
00000110
00000000
00000010
00000100
,  // measure 10
00001000
00000000
00011000
00000000
00110000
00000000
00010000
01000000
,  // measure 11
10000000
00000000
00110000
00000000
00011000
00000000
00001000
00000100
,  // measure 12
00000010
00000000
00000001
00000000
00000010
00002000
00000000
00000000
,  // measure 13
00003100
00020000
00000000
00000000
00030000
10000000
00100000
10000000
,  // measure 14
01000000
00100000
00000000
00000000
00100000
00002000
00000000
00000000
,  // measure 15
00003010
00000000
00000001
00000000
00000100
00000000
00000000
00001000
00000000
00000000
00000010
00000000
00000100
00000000
00000000
00000000
,  // measure 16
00000001
00000010
00000100
00000000
00001100
00000000
00001000
00000000
,  // measure 17
00110000
00000000
01000000
00000000
10010000
00000000
01000000
00010000
,  // measure 18
00100000
00000000
02000000
00000000
00000000
03001000
00020000
00000000
,  // measure 19
00000000
00030000
00001000
00000100
00001000
00000000
00000010
00000000
,  // measure 20
00001001
00000000
00001000
00000000
00010000
00010000
00100000
00010000
,  // measure 21
01000000
00000000
10000000
00000000
00100000
00000000
01000000
00000000
00010000
01000000
00010000
00000000
00100000
00000000
10000000
00100000
,  // measure 22
00000000
10000000
00000000
01000000
00100000
00000000
00000000
00000000
00100000
00000000
00010000
00000000
00001000
00000000
00010000
00000000
,  // measure 23
00000100
00001000
00000101
00000000
00000110
00000000
00001001
00000000
,  // measure 24
00001100
00000000
00101000
00000000
01000000
10000000
01000000
01000000
,  // measure 25
00010000
00100000
00010000
00000000
10000000
00000000
00100000
00000000
01000000
00001000
01000000
00000000
00001000
00000000
00100000
00000000
,  // measure 26
00010000
01000000
00010000
01000000
00100000
00000000
00000000
00000000
00001000
00000000
00000100
00000000
00000010
00000000
00000100
00000000
,  // measure 27
00000001
00000010
00001001
00000000
00001100
00000000
00101000
00000000
,  // measure 28
00110000
00020000
00031000
00000011
,  // measure 29
00000000
00000200
00010300
00001001
,  // measure 30
00000000
00002000
00003100
00000101
,  // measure 31
00000000
00000010
00001000
00000100
00000010
00001000
00000101
00000000
,  // measure 32
00000010
00000000
00001000
00000100
00000010
00000000
00000011
00000000
,  // measure 33
00000100
00000000
00000010
00000100
00001000
00000000
00001001
00000000
,  // measure 34
00000100
00000000
00000010
00001000
00000100
00000000
00000011
00000000
,  // measure 35
00000100
00002000
00003000
02000000
,  // measure 36
00000000
03000000
00000000
00000000
00100000
00000000
00010000
00000000
00001000
00000000
00000100
00000000
00000010
00000000
00000001
00000000
,  // measure 37
00000010
00000100
00001000
00010000
00100000
00010000
01000000
10000000
,  // measure 38
01000000
00100000
00001000
00010000
00000010
00000100
00001000
00000010
,  // measure 39
00000001
00000010
00000100
00001000
00000001
00000100
00001000
00010000
,  // measure 40
00100000
00000000
00010000
00000000
10000000
00010000
10000000
00010000
10000000
00000000
01000000
00000000
00100000
00000000
00010000
00000000
,  // measure 41
10000000
00000000
00100000
00000000
00001000
00010000
00001000
00010000
00001000
00000000
00000100
00000000
00000010
00000000
00000001
00000000
,  // measure 42
00000100
00000000
00000010
00000000
00000100
00000010
00000100
00000010
00000100
00000000
00000001
00000000
00000100
00000000
00000010
00000000
,  // measure 43
00001000
00000100
00010000
00010000
00001000
00001000
00100000
00100000
,  // measure 44
01000000
01000000
20000000
00000000
30010000
01000000
00100000
00010000
,  // measure 45
00001000
00000000
00001100
00000000
00001010
00000000
00000010
00000001
,  // measure 46
00000100
00000000
00000020
00000000
00000130
00000000
00000001
00000100
,  // measure 47
00001000
00000000
00001000
00001000
00010000
00010000
00100000
00100000
,  // measure 48
00010000
10010000
10010000
00011000
,  // measure 49
00001100
00001001
00001010
00000110
,  // measure 50
00011000
00110000
10010000
01100000
,  // measure 51
10100000
00000000
00010000
01000000
10000000
00100000
00010000
00001000
,  // measure 52
00010000
00000000
00001000
00000000
00011000
00000000
00000000
00000000
00000100
00000000
00000000
00001000
00000000
00000000
00000010
00000000
,  // measure 53
00000000
00000001
00000000
00000000
00000000
00000000
00000100
00000000
00001010
00000000
00000000
00000000
00000100
00000000
00000000
00010000
,  // measure 54
00000000
00001000
00010000
00100000
00010000
10000000
00100000
00010000
,  // measure 55
00001000
00000100
00000010
00000001
00000100
00000010
00001000
00000100
,  // measure 56
00010000
00100000
00010000
00001000
00010000
00010000
01000000
00100000
,  // measure 57
00010000
00000000
10000000
00000000
10000000
00010000
10000000
00100000
00010000
00000000
01000000
00000000
00010000
00001000
00010000
00000100
,  // measure 58
00010000
00000000
00000010
00000000
00000110
00000000
00000000
00000000
00000001
00000000
00000010
00000000
00000100
00000000
00000000
00000100
,  // measure 59
00000000
00000010
00000000
00000001
00000000
00000000
00000100
00000000
00000010
00000000
00001000
00000000
00000100
00001000
00000000
00000100
,  // measure 60
00000000
00001000
00000000
00000000
00001010
00000000
00000000
00001100
00000000
00000000
00002020
00000000
00000000
00000000
00003030
00000000
,  // measure 61
00011000
00000000
00000000
00110000
00000000
00000000
02020000
00000000
00000000
00000000
03030000
00000000
10010000
00000000
00000000
00011000
,  // measure 62
00000000
00000000
00001100
00000000
00000010
00000000
00000100
00000000
00002000
00000000
00000000
00003002
00000000
00000000
00000013
00000000
,  // measure 63
00000000
00000100
00000000
00000000
00001000
00000000
00000000
00010000
00000000
00000000
00000000
00000000
00100000
00000000
02000000
00000000
,  // measure 64
00000000
00000000
03000000
00000000
;
