#VERSION:0.83;
#TITLE:The Sign Of Collapse;
#SUBTITLE:;
#ARTIST:Akino;
#TITLETRANSLIT:The Sign Of Collapse;
#SUBTITLETRANSLIT:;
#ARTISTTRANSLIT:Akino;
#GENRE:pop'n music;
#ORIGIN:;
#CREDIT:SAIKIO;
#BANNER:The Sign Of Collapse-banner.png;
#BACKGROUND:The Sign Of Collapse-bg.png;
#PREVIEWVID:;
#JACKET:The Sign Of Collapse-jacket.png;
#CDIMAGE:;
#DISCIMAGE:;
#LYRICSPATH:;
#CDTITLE:popnmusic.png;
#MUSIC:The Sign Of Collapse.ogg;
#OFFSET:0.070000;
#SAMPLESTART:16.584040;
#SAMPLELENGTH:13.480029;
#SELECTABLE:YES;
#BPMS:0.000=126.000;
#STOPS:;
#DELAYS:;
#WARPS:;
#TIMESIGNATURES:0.000=4=4;
#TICKCOUNTS:0.000=4;
#COMBOS:0.000=1;
#SPEEDS:0.000=1.000=0.000=0;
#SCROLLS:0.000=1.000;
#FAKES:;
#LABELS:0.000=Song Start;
#BGCHANGES:0.000=The Sign Of Collapse.avi=1.000=1=0=0=StretchNoLoop==CrossFade==,
99999=-nosongbg-=1.000=0=0=0 // don't automatically add -songbackground-
;
#KEYSOUNDS:;
#ATTACKS:
;

//---------------dance-single - ----------------
#NOTEDATA:;
#CHARTNAME:;
#STEPSTYPE:dance-single;
#DESCRIPTION:;
#CHARTSTYLE:;
#DIFFICULTY:Beginner;
#METER:2;
#RADARVALUES:0.125145,0.181235,0.007424,0.000000,0.000000,118.000000,117.000000,1.000000,0.000000,0.000000,0.000000,0.000000,0.000000,0.000000,0.125145,0.181235,0.007424,0.000000,0.000000,118.000000,117.000000,1.000000,0.000000,0.000000,0.000000,0.000000,0.000000,0.000000;
#CREDIT:;
#NOTES:
0000
0000
0000
0000
,
0000
0000
0000
0000
,
0000
0000
0000
0000
,
0000
0000
0000
0000
,
0000
0000
0000
0000
,
0000
0000
0000
0000
,
0000
0000
0000
0010
,
0010
0000
0000
0000
,
0000
0000
0000
0100
,
0000
0000
0100
0000
,
0000
0001
0000
1000
,
0000
0000
1000
0000
,
0000
0100
0000
0010
,
0000
0000
0010
0000
,
0000
0100
0000
0001
,
0000
0000
0000
1000
,
0000
0000
0000
0001
,
0000
0000
0000
1000
,
0000
0000
0000
0010
,
0010
0000
0000
0100
,
0100
0000
0000
0001
,
0001
0000
0000
1000
,
1000
1000
0000
0100
,
0000
0010
0000
0100
,
0000
0000
0000
0001
,
0000
0100
0000
1000
,
0000
0000
0000
0010
,
0000
1000
0000
0100
,
0000
0010
0000
0001
,
0000
0001
0000
0001
,
0000
0000
0000
0100
,
0000
1000
0000
0010
,
0000
0100
0000
1000
,
0000
1000
0000
0100
,
0100
0100
0000
0010
,
0000
0100
0000
0001
,
0000
0000
0000
0100
,
0000
1000
0000
0010
,
0000
0000
0000
1000
,
1000
0000
0000
0010
,
0010
0000
0000
0001
,
0001
0000
0000
0100
,
0100
0000
0000
0010
,
0000
1000
0000
0100
,
0000
0010
0000
0001
,
0000
0100
0000
0010
,
0000
1000
0000
0100
,
0000
0000
0000
0010
,
0000
0000
0000
0001
,
0000
0000
0000
1000
,
0000
0000
0000
0001
,
0001
0000
0000
0100
,
0100
0000
0000
0010
,
0000
1000
0000
0010
,
0010
0100
0000
0001
,
0000
0100
0000
1000
,
0000
0100
0000
0010
,
0000
0001
0000
0010
,
0000
0100
0000
1000
,
0000
0100
0000
0010
,
0000
1000
0000
0001
,
0001
1000
0000
1000
,
0000
0001
0000
0100
,
0100
0100
0000
0010
,
0000
0100
0000
0001
,
0001
0001
0000
0010
,
0000
0100
0000
1000
,
1000
0001
0000
0001
,
0001
1000
0000
0010
,
0000
0100
0000
0110
;

//---------------dance-single - ----------------
#NOTEDATA:;
#CHARTNAME:;
#STEPSTYPE:dance-single;
#DESCRIPTION:;
#CHARTSTYLE:;
#DIFFICULTY:Easy;
#METER:5;
#RADARVALUES:0.230139,0.310688,0.148477,0.126205,0.000000,217.000000,197.000000,20.000000,17.000000,0.000000,0.000000,0.000000,0.000000,0.000000,0.230139,0.310688,0.148477,0.126205,0.000000,217.000000,197.000000,20.000000,17.000000,0.000000,0.000000,0.000000,0.000000,0.000000;
#CREDIT:;
#NOTES:
0000
0000
0000
0000
,
0000
0000
0000
0000
,
0000
0000
0000
0000
,
0000
0000
0000
0000
,
0000
0000
0000
0000
,
0000
0000
0000
0000
,
0010
0010
0010
0010
,
0020
0030
0000
0000
,
0000
0000
0000
1000
,
0100
1000
1000
0100
,
1000
0100
0000
0001
,
0010
0001
0001
0010
,
0001
0010
0000
0100
,
0100
0010
0001
0001
,
0100
0010
1000
0100
,
0000
0100
0010
0001
,
0000
0001
0100
0010
,
0000
0010
1000
0100
,
0100
1000
0000
1001
,
0100
1000
0000
0010
,
0001
0100
0000
0110
,
1000
0100
0000
0010
,
0010
0100
0000
0011
,
0100
0001
0000
1000
,
0100
0010
0000
1100
,
0010
1000
0000
0001
,
0100
1000
0010
1000
,
1000
0100
0000
0001
,
0001
0010
0100
2000
,
3001
0020
0030
0200
,
0000
0310
0001
0110
,
0100
0010
1000
0100
,
0100
1000
0010
1001
,
0100
0001
1000
0200
,
0300
0010
0000
0001
,
0001
0100
1000
0100
,
0100
1000
0000
0010
,
0010
1000
0100
0100
,
0010
0001
0000
0002
,
0100
0103
0010
2000
,
0010
3010
0100
1100
,
1100
0010
0100
0002
,
0013
0100
1000
1001
,
0100
1000
1000
0010
,
0001
0100
1000
0001
,
0001
0100
1000
0210
,
0300
0002
0003
0010
,
0000
0010
0000
0100
,
0000
0100
0000
0002
,
0000
1000
0000
2003
,
0000
3100
0000
1001
,
0100
0100
0010
1000
,
0100
1000
0001
0200
,
0300
0020
0030
1000
,
0100
1001
1001
1100
,
0000
0001
0000
0010
,
0000
1000
0000
1001
,
0000
0100
0000
1000
,
0000
0010
0000
0110
,
0000
0001
0000
0100
,
0000
1000
0000
1001
,
0000
1000
0000
0200
,
0000
0000
0300
0010
,
0010
0100
0001
0100
,
0001
1000
0000
0100
,
0100
1000
0010
0010
,
0100
0001
0000
0010
,
0001
0200
0300
0010
,
1000
0200
0300
1010
,
0100
0101
0010
1001
;

//---------------dance-single - ----------------
#NOTEDATA:;
#CHARTNAME:;
#STEPSTYPE:dance-single;
#DESCRIPTION:;
#CHARTSTYLE:;
#DIFFICULTY:Medium;
#METER:9;
#RADARVALUES:0.317104,0.414251,0.163325,0.185596,0.000000,299.000000,277.000000,22.000000,25.000000,0.000000,0.000000,0.000000,0.000000,0.000000,0.317104,0.414251,0.163325,0.185596,0.000000,299.000000,277.000000,22.000000,25.000000,0.000000,0.000000,0.000000,0.000000,0.000000;
#CREDIT:;
#NOTES:
0000
0000
0000
0000
,
0000
0000
0000
0000
,
0000
0000
0000
0000
,
0000
0000
0000
0000
,
0000
0000
0000
0000
,
0000
0000
0000
0000
,
0010
0000
0010
0000
0010
0000
0000
0010
,
0010
0000
0000
0000
,
0000
0000
0000
0010
,
1000
0100
0001
0010
,
0100
0000
0010
0100
0010
0000
0001
0000
,
0010
1000
0010
0100
,
1000
0000
0100
0001
0100
0000
0010
0000
,
1000
0100
0001
0010
,
0100
0000
0001
0100
1000
0000
0010
0010
,
0010
0000
1000
0000
0100
0000
1000
1000
,
1000
0000
0100
0000
0010
0000
0001
0001
,
0001
0000
0010
0000
0100
0000
1000
0100
,
1000
0000
0010
0100
0001
0000
0010
0001
,
0100
0000
1000
1000
0001
0000
0100
0000
,
0010
0000
0001
0100
1000
0000
0010
0000
,
0001
0000
1000
0100
1000
0000
1010
0000
,
0001
1100
0010
1001
,
0010
0000
0100
0001
1000
0000
0100
0000
,
0010
0000
0001
0100
0010
0000
1001
0000
,
0100
0000
1000
1000
0010
0000
0100
0001
,
0100
0010
1000
0002
,
0203
2300
3200
0302
,
0023
0000
0230
0000
0310
0000
0001
0100
,
0001
0100
0001
1000
0010
0000
1000
0100
,
1000
0100
0010
0000
0100
0100
0110
0000
,
0001
0000
1000
0000
0100
0010
0001
0000
,
0100
0010
1000
2010
,
0001
0100
3010
0101
,
0101
1000
0100
1001
,
0100
1000
0010
0000
0001
0000
0100
0000
,
0010
0000
0001
0100
1000
0000
0010
0001
,
1000
0100
0010
0001
,
0100
0000
0010
1000
0100
0000
1001
0001
,
0001
0000
0010
0000
0001
0000
1000
1000
,
0100
0000
0100
0000
0001
0000
1000
0001
,
1000
0000
0100
0010
0001
0000
0010
0100
,
1000
0001
1000
0000
0100
0000
0011
0000
,
0100
0000
0101
0000
1000
0000
0100
0010
,
0001
0000
0100
0100
0010
0000
1000
0001
,
1000
0000
0010
0100
0001
0000
1000
0100
,
0010
0001
0100
0220
,
0000
0000
0000
0330
,
0000
0100
0010
2000
,
0000
3002
0003
0202
,
0000
0303
0010
1001
,
0100
1000
0001
0000
0010
0010
0100
0000
,
0001
0100
0010
1100
,
0010
0101
0010
2000
,
3100
0000
1001
0000
0100
1000
0020
0000
,
0000
0230
0000
0302
,
0000
2003
0000
3020
,
0000
0032
0000
0013
,
0100
0100
0010
1100
,
0010
1000
0001
0000
1000
0000
0100
0010
,
0001
0000
0100
0000
0010
0000
1000
1000
,
0001
0001
1000
1000
0010
0010
2000
0000
,
0000
3001
0000
1001
,
0100
0010
0001
0100
,
1000
0010
1000
1100
,
0010
0001
0100
1000
,
0100
0020
0030
0200
,
0000
0310
0000
0020
,
0000
0000
0130
0000
0000
0000
0001
0100
,
1000
0000
0100
0010
0001
0000
0110
0000
;

//---------------dance-single - ----------------
#NOTEDATA:;
#CHARTNAME:;
#STEPSTYPE:dance-single;
#DESCRIPTION:;
#CHARTSTYLE:;
#DIFFICULTY:Hard;
#METER:13;
#RADARVALUES:0.494216,0.647267,0.215292,0.193020,0.211580,466.000000,437.000000,29.000000,26.000000,0.000000,0.000000,0.000000,0.000000,0.000000,0.494216,0.647267,0.215292,0.193020,0.211580,466.000000,437.000000,29.000000,26.000000,0.000000,0.000000,0.000000,0.000000,0.000000;
#CREDIT:;
#NOTES:
// measure 0
0000
0000
0000
0000
,  // measure 1
0000
0000
0000
0000
,  // measure 2
0000
0000
0000
0000
,  // measure 3
0000
0000
0000
0000
,  // measure 4
0000
0000
0000
0000
,  // measure 5
0000
0000
0000
0000
,  // measure 6
0000
0010
0000
0010
0000
0100
0000
0100
0000
0010
0000
0010
0000
0100
0000
0100
,  // measure 7
0000
0020
0000
0000
0000
0000
0000
0000
0000
0000
0000
0000
0000
0000
0000
0000
,  // measure 8
0030
0000
0000
0000
0000
0000
0001
0100
,  // measure 9
0001
0100
0001
0000
1000
0100
1000
0100
,  // measure 10
1000
0000
0010
0010
0100
0000
0001
0010
,  // measure 11
1000
0010
1000
0000
0010
0001
0100
0001
,  // measure 12
0100
0000
1000
1000
0001
0000
0001
0100
,  // measure 13
1000
0010
0100
0000
1000
0100
0001
0010
,  // measure 14
0100
0000
0000
0000
1000
0000
0001
0000
0100
0000
0010
0000
1000
0001
0000
1000
,  // measure 15
0001
0000
1000
0001
0000
0100
0010
0000
1000
0000
0100
0000
0010
0001
0000
0010
,  // measure 16
0001
0000
0010
0001
0000
0100
0010
0000
1000
0000
0100
0000
1000
0100
0000
1000
,  // measure 17
0100
0000
0001
0100
0000
0010
0001
0000
1000
0000
0100
0000
0010
0000
0010
0000
,  // measure 18
0001
0000
0001
0000
0100
0000
0100
0000
0010
0000
0010
0000
1000
0100
0000
0010
,  // measure 19
0000
0000
0100
0000
0001
0000
0010
0000
0100
0000
1000
0000
0100
0010
0000
0100
,  // measure 20
0000
0000
0001
0000
0100
0000
0001
0000
1000
0000
0010
0000
1010
0000
0000
0001
,  // measure 21
0000
0100
0010
0000
0010
0000
0100
0000
1000
0000
0100
0000
0011
0000
0011
0000
,  // measure 22
0100
0000
0010
0000
1100
0000
1100
0000
0010
0000
1000
0000
0001
1000
0000
0010
,  // measure 23
0000
0000
0100
0000
0010
0000
0001
0000
0100
0000
0010
0000
1000
0100
0000
0001
,  // measure 24
0000
0000
0100
0000
0001
0000
0100
0000
0010
0000
0001
0000
0101
0000
0000
0010
,  // measure 25
0000
1000
0100
0000
0010
0000
0001
0000
0100
0000
0100
0000
0010
0000
0010
0000
,  // measure 26
0001
0010
0100
1000
0100
0020
0000
0031
,  // measure 27
0100
0010
2000
0000
3100
0010
1000
1000
,  // measure 28
0100
0100
0010
0001
0100
0000
0020
0000
,  // measure 29
2030
3200
0320
0032
,  // measure 30
0203
0000
0310
0000
1000
0100
1100
0010
,  // measure 31
0100
0001
1010
0000
0100
0001
1000
1000
,  // measure 32
0100
0100
0010
0001
0100
0000
0120
0000
,  // measure 33
2000
0030
0000
0000
3200
0000
0000
0000
0301
0000
0000
0000
0110
0000
0000
0000
,  // measure 34
1100
0000
0001
0000
0100
0000
0010
1000
,  // measure 35
0100
1000
0001
0100
0010
0100
0001
0010
,  // measure 36
0100
1000
0010
0010
0110
0000
1000
0001
,  // measure 37
0100
0001
0010
1000
0001
0100
0010
1000
,  // measure 38
0100
0000
0010
0000
0001
0000
0001
0000
1001
0000
0000
0000
0010
0001
0100
0001
,  // measure 39
0100
0000
0001
0000
0100
0000
1000
0000
0010
0000
0100
0000
0001
1000
0001
1000
,  // measure 40
0010
0100
1000
0100
0010
1000
0001
0001
,  // measure 41
0100
0000
0100
0000
0010
0000
0010
0000
1000
0000
0100
1000
0010
0000
0100
0000
,  // measure 42
0001
0000
0100
0000
0010
0000
0010
0000
0100
0000
0001
0000
1000
0100
0010
0001
,  // measure 43
0100
0000
0010
0001
1000
0010
1000
0000
0100
0000
0100
0000
0001
1000
0010
1000
,  // measure 44
0001
0000
0010
0001
0100
0000
0100
0010
1000
0000
0100
0010
0000
0001
0010
0000
,  // measure 45
0001
0000
0100
0000
1000
0010
1000
0000
0001
0000
0001
0000
0100
0010
0100
0001
,  // measure 46
0100
0000
0010
0000
1000
0100
1000
0000
0010
0000
1000
0000
1100
0000
0000
0000
,  // measure 47
0010
0000
0101
0000
0010
1000
0001
0001
,  // measure 48
0100
0000
0010
1000
0001
0000
2000
0000
,  // measure 49
3200
0302
0023
0230
,  // measure 50
2300
0000
3020
0000
0130
0000
1010
0001
,  // measure 51
0100
0010
1100
0000
0001
0010
0100
0001
,  // measure 52
0101
0000
0010
1000
0100
0000
1000
1000
,  // measure 53
0010
0010
0100
0100
0001
0001
1010
0000
,  // measure 54
0101
0000
0000
0000
0010
0000
0000
1100
0000
0000
0011
0000
0210
0000
0000
0000
,  // measure 55
0010
0001
1300
0010
,  // measure 56
1000
0100
1000
0000
0020
0000
0032
0000
,  // measure 57
1000
0000
0100
0000
0103
0000
0001
1000
,  // measure 58
0001
1000
0010
0010
1000
0000
1100
0000
,  // measure 59
0010
0000
1000
0001
1000
0000
0110
0000
,  // measure 60
1001
0000
0100
1000
0010
0000
1000
1000
,  // measure 61
0001
0001
0100
0100
0010
0010
0200
0000
,  // measure 62
0000
0000
0320
0000
0030
0000
0100
0100
,  // measure 63
0001
1000
0100
0000
0010
0001
0100
0010
,  // measure 64
0100
0000
1000
0000
0100
0000
0010
1000
,  // measure 65
0001
1000
0100
0000
0010
0001
1000
0001
,  // measure 66
0100
0001
0100
0120
,  // measure 67
1030
0100
0010
0000
0001
0000
0210
0000
,  // measure 68
0301
0000
0100
0000
1000
0000
0000
0000
0010
0000
0000
0000
1000
0100
0000
0010
,  // measure 69
0001
0000
0100
0010
0000
1000
0001
0000
0100
0000
0010
0000
0110
0000
0000
0000
;

//---------------dance-double - ----------------
#NOTEDATA:;
#CHARTNAME:;
#STEPSTYPE:dance-double;
#DESCRIPTION:;
#CHARTSTYLE:;
#DIFFICULTY:Easy;
#METER:6;
#RADARVALUES:0.237563,0.336579,0.118782,0.170749,0.000000,224.000000,208.000000,16.000000,23.000000,0.000000,0.000000,0.000000,0.000000,0.000000,0.237563,0.336579,0.118782,0.170749,0.000000,224.000000,208.000000,16.000000,23.000000,0.000000,0.000000,0.000000,0.000000,0.000000;
#CREDIT:;
#NOTES:
00000000
00000000
00000000
00000000
,
00000000
00000000
00000000
00000000
,
00000000
00000000
00000000
00000000
,
00000000
00000000
00000000
00000000
,
00000000
00000000
00000000
00000000
,
00000000
00000000
00000000
00000000
,
00010000
00010000
00001000
00001000
,
00020000
00030000
00000000
00000000
,
00000000
00000000
00000000
00010000
,
01000000
10000000
01000000
00010000
,
00100000
01000000
00000000
00001000
,
00000100
00000001
00000100
00001000
,
00000100
00000010
00000000
00000001
,
00000010
00001000
00000100
00010000
,
01000000
10000000
00100000
02000000
,
00000000
00000000
03000000
00020000
,
00000000
00000000
00030000
00002000
,
00000000
00000000
00003000
00000010
,
00000010
00000001
00000000
00001001
,
00000100
00001000
00010000
01000000
,
10000000
01000000
00000000
10010000
,
00010000
00001000
00000100
00001000
,
00000001
00000010
00000000
00001001
,
00000100
00001000
00010000
01000000
,
00100000
00010000
00000000
10010000
,
00010000
00001000
00000100
00001000
,
00001000
00000010
00000100
00000002
,
00000003
00000020
00000030
00001000
,
00000100
00010000
00001000
00200000
,
00010000
00000000
01300000
02000000
,
03000000
00010000
10000000
10010000
,
00100000
00010000
01000000
00100000
,
00010000
00001000
00000100
00001001
,
00000100
00001000
00000010
00000010
,
00000100
00000001
00000000
00000001
,
00000100
00001000
00000010
00001000
,
00000100
00000010
00000000
00010000
,
01000000
10000000
00100000
10000000
,
01000000
00100000
00000000
00020000
,
00031000
00002000
00003100
00000010
,
00000011
00000000
00000100
00000000
00001100
00000000
00010000
00010000
,
00010000
00000000
01000000
01000000
01000000
00000000
00020000
00000000
,
00031000
00000010
00000100
00010000
,
00100000
00010000
00001000
00001001
,
00000010
00001000
00010000
00000100
,
00001000
00001000
00000100
00000200
,
00000300
00002000
00003000
00011000
,
00000000
00010000
00000000
01000000
,
00000000
00100000
00010000
20000000
,
00000000
30020000
00000000
20030000
,
30000000
00010000
00100000
00110000
,
00001000
00010000
00000100
00001000
,
00001000
00000010
00000100
00000101
,
00000010
00000100
00001000
00001001
,
00010000
00001000
00000100
00000200
,
00000300
00000020
00000030
00001000
,
00001000
00010000
00200000
00000000
,
00320000
00000000
00031000
00000100
,
00000100
00001000
00000100
00000110
,
00000001
00000100
00001000
00000010
,
00001000
00010000
00100000
01100000
,
00010000
01000000
10000000
00200000
,
00300000
00010000
00000000
00010000
,
01000000
10000000
00000000
00010000
,
00001000
00000100
00000000
00000001
,
00000100
00001000
00000000
00010000
,
00100000
00010000
00000000
02000000
,
00000000
03010000
00000000
00002000
,
00000000
00003100
00000000
00000010
,
00000001
00000100
00001000
00011000
;

//---------------dance-double - ----------------
#NOTEDATA:;
#CHARTNAME:;
#STEPSTYPE:dance-double;
#DESCRIPTION:;
#CHARTSTYLE:;
#DIFFICULTY:Medium;
#METER:10;
#RADARVALUES:0.316044,0.362469,0.096510,0.215292,0.003712,298.000000,285.000000,13.000000,29.000000,0.000000,0.000000,0.000000,0.000000,0.000000,0.316044,0.362469,0.096510,0.215292,0.003712,298.000000,285.000000,13.000000,29.000000,0.000000,0.000000,0.000000,0.000000,0.000000;
#CREDIT:;
#NOTES:
00000000
00000000
00000000
00000000
,
00000000
00000000
00000000
00000000
,
00000000
00000000
00000000
00000000
,
00000000
00000000
00000000
00000000
,
00000000
00000000
00000000
00000000
,
00000000
00000000
00000000
00000000
,
00001000
00000000
00001000
00000000
00010000
00000000
00000000
00010000
,
00010000
00000000
00000000
00000000
,
00000000
00000000
00000000
00010000
,
01000000
10000000
00100000
00010000
,
00001000
00000000
00010000
00001000
00010000
00000000
00001000
00000000
,
00000100
00000001
00000010
00000100
,
00001000
00000000
00010000
00001000
00010000
00000000
00100000
00000000
,
00010000
01000000
10000000
00010000
,
00100000
00000000
00010000
00001000
00010000
00000000
00000200
00000000
,
00001000
00001300
00000100
00000020
,
00000001
00000000
00000001
00000030
00000100
00000000
00002000
00000000
,
00010000
00000000
00013000
00000000
00100000
00000000
00010000
10000000
,
00010000
00000000
00100000
00100000
00010000
00000000
01010000
00000000
,
00010000
00000000
00001000
00010000
00000100
00000000
00001000
00000000
,
00000010
00000100
00000010
00000011
,
00000001
00000100
00001000
00000000
00000100
00000000
00001000
00001000
,
00010000
00000000
00010000
00010000
01000000
00000000
00010000
00000000
,
00100000
01000000
10000000
00000000
00100000
00000000
00010000
00000000
,
01000000
00000000
00100000
00010000
00001000
00000000
00011000
00000000
,
00000100
00000000
00001000
00000000
00000010
00000000
00000100
00000100
,
00000001
00000010
00001000
00000200
,
00020300
00000000
00031000
00000000
00100000
00010000
01000000
00000000
,
10000000
00010000
00100000
00200000
,
00320000
00032000
00003200
00000302
,
00000023
00000130
00000001
00000101
,
00000010
00001000
00000100
00000000
00010000
00010000
00001000
00000000
,
00100000
00010000
01000000
20000000
,
30020000
00230000
00310000
00001000
,
00000010
00000000
00000001
00000000
00000000
00000000
00000100
00001000
,
00010000
00000000
00001000
00000000
00100000
00010000
00001000
00000000
,
00000100
00000000
00001000
00000000
00001100
00000000
00000010
00000001
,
00000100
00000000
00000010
00000000
00001000
00000100
00010000
00000000
,
00001000
00000000
00010000
00000000
00110000
00000000
00100000
01000000
,
10000000
00010000
00100000
00000000
00010000
00000000
00001000
00010000
,
00001000
00000100
00001000
00000000
00010000
00000000
10000000
10000000
,
01000000
00000000
00010000
00010000
00001000
00000000
00000100
00000000
,
00000101
00000000
00001000
00000000
00011000
00000000
00010000
00010000
,
00010000
00000000
00100000
00000000
00010000
00000000
01000000
01000000
,
01000000
00000000
00100000
00000000
00010000
00000000
00001000
00000100
,
00000001
00000000
00001000
00000000
00000010
00000000
00001000
00010000
,
00000100
00010000
00001000
00000000
00010000
00000000
00000200
00000000
,
00000000
00000300
00001000
00000000
00000100
00000000
00000010
00000000
,
00000000
00000001
00000100
00002000
,
00000000
00023000
00000000
00230000
,
00000000
00310000
01000000
01010000
,
00001000
00010000
00001000
00000000
00000100
00000000
00001000
00001000
,
00000010
00000100
00000001
00000020
,
00000130
00002000
00003100
00010000
,
00001000
00000000
00000000
00000000
00100000
00000000
00000000
00100000
00000000
00000000
00100000
00000000
01100000
00000000
00000000
00000000
,
00010000
10000000
00010000
00200000
,
00000000
00320000
00000000
00000000
00032000
00000000
00010000
00000000
,
00013000
00000000
00000100
00000000
00001000
00000010
00000100
00000000
,
00000001
00000001
00000100
00000000
00000010
00000000
00001100
00000000
,
00001000
00000000
00010000
00100000
00010000
00000000
20000000
00000000
,
00010000
00000000
30010000
00000000
01000000
00000000
00010000
00010000
,
00001000
00001000
00000010
00000010
00000100
00001000
00000020
00000000
,
00000000
00000000
00000130
00000000
00000000
00000000
00000001
00000100
,
00001000
00000000
00010000
00000000
00010000
01000000
10000000
00000000
,
00100000
00000000
00010000
00000000
00100000
00000000
10000000
00100000
,
00010000
00000000
00001000
00000000
00001000
00000010
00000001
00000000
,
00000100
00000110
00001000
00000200
,
00000310
00000020
00000030
00002000
,
00013000
00000000
00020000
00000000
00030000
00000000
00010000
10000000
,
00010000
00100000
00010000
00000000
00001000
00000000
00011000
00000000
;

//---------------dance-double - ----------------
#NOTEDATA:;
#CHARTNAME:;
#STEPSTYPE:dance-double;
#DESCRIPTION:;
#CHARTSTYLE:;
#DIFFICULTY:Hard;
#METER:13;
#RADARVALUES:0.458158,0.543704,0.081662,0.215292,0.178172,432.000000,421.000000,11.000000,29.000000,0.000000,0.000000,0.000000,0.000000,0.000000,0.458158,0.543704,0.081662,0.215292,0.178172,432.000000,421.000000,11.000000,29.000000,0.000000,0.000000,0.000000,0.000000,0.000000;
#CREDIT:;
#NOTES:
00000000
00000000
00000000
00000000
,
00000000
00000000
00000000
00000000
,
00000000
00000000
00000000
00000000
,
00000000
00000000
00000000
00000000
,
00000000
00000000
00000000
00000000
,
00000000
00000000
00000000
00000000
,
00000000
00001000
00000000
00001000
00000000
00010000
00000000
00010000
00000000
00001000
00000000
00001000
00000000
00010000
00000000
00001000
,
00000000
00020000
00000000
00000000
00000000
00000000
00000000
00000000
00000000
00000000
00000000
00000000
00000000
00000000
00000000
00000000
,
00030000
00000000
00000000
00000000
00000000
00000000
01000000
00010000
,
01000000
00000000
00001000
00000000
00010000
00001000
00010000
00000000
,
00000100
00000000
00001000
00001000
00000010
00000000
00000010
00000001
,
00000100
00000010
00001000
00000000
00000100
00001000
00010000
00001000
,
00100000
00000000
00010000
00010000
01000000
00000000
10000000
00010000
,
00100000
00010000
00001000
00000000
00010000
00001000
00000100
00000001
,
00000010
00000000
00000000
00000000
00000100
00000000
00001000
00000000
00000010
00000000
00000100
00000000
00000010
00001000
00000000
00000010
,
00001000
00000000
00000010
00001000
00000000
00000100
00001000
00000000
00010000
00000000
00001000
00000000
00010000
00001000
00000000
00010000
,
00001000
00000000
00010000
00001000
00000000
00100000
00010000
00000000
01000000
00000000
10000000
00000000
01000000
00010000
00000000
01000000
,
00010000
00000000
01000000
00010000
00000000
00100000
00010000
00000000
10000000
00000000
00010000
00000000
00100000
00000000
00100000
00000000
,
00010000
00000000
00001000
00000000
00010000
00000000
00001000
00000000
00000100
00000000
00001000
00000000
00000010
00001000
00000000
00000100
,
00000000
00000000
00000010
00000000
00000001
00000000
00000100
00000000
00000010
00000000
00001000
00000000
00000100
00010000
00000000
00001000
,
00000000
00000000
00010000
00000000
00100000
00000000
00010000
00000000
10000000
00000000
00100000
00000000
00100000
00010000
00000000
01000000
,
00000000
01000000
00010000
00001000
00010000
00000010
00000100
00000100
,
00001000
00000000
00001000
00000000
00000010
00000000
00000010
00000000
00000100
00000000
00000001
00000000
00000010
00000001
00000000
00000010
,
00000000
00000000
00000100
00000000
00001000
00000000
00000010
00000000
00000100
00000000
00001000
00000000
00010000
00001000
00000000
00010000
,
00000000
00000000
00100000
00000000
00010000
00000000
01000000
00000000
10000000
00000000
00100000
00000000
00001000
00010000
00000000
00001000
,
00000000
00000100
00001000
00000010
00000100
00000001
00000010
00000010
,
00000100
00001000
00000100
00010000
00001000
00020000
00000000
00031000
,
00100000
00010000
02000000
00000000
03010000
10000000
00100000
00100000
,
00010000
00010000
00001000
00010000
00000100
00000000
00002000
00000000
,
00003200
00000302
00000023
00002030
,
00023000
00000000
00130000
00000000
01000000
00010000
00110000
00010000
,
10000000
00100000
00010000
00000000
00001000
00010000
00000100
00000100
,
00001000
00000000
00000010
00000100
00000001
00000000
00002000
00000000
,
00023000
00000000
02030000
00000000
23000000
00000000
30100000
00010000
,
00100000
00000000
00010000
00000000
00001000
00000000
00010000
00001000
,
00000100
00000010
00000001
00000000
00000010
00000100
00001000
00010000
,
00000100
00000000
00010000
00010000
00100000
00000000
00010000
01000000
,
10000000
00100000
00010000
00000000
00001000
00010000
00000100
00000010
,
00001000
00000000
00000000
00000000
00000001
00000000
00000001
00000000
00000100
00000000
00000000
00000000
00001000
00010000
00001000
00010000
,
00000100
00000000
00001000
00000000
00000010
00000000
00000100
00000000
00000001
00000000
00000000
00000000
00000010
00001000
00000010
00001000
,
00000001
00000100
00001000
00010000
00100000
00000000
01000000
00100000
,
01100000
10000000
00010000
00110000
00001000
00000100
00000001
00000010
,
00000100
00000000
00001000
00000000
00010000
00000000
00001000
00000000
00010000
00000000
00000000
00000000
00010000
01000000
00010000
10000000
,
00100000
00000000
00100000
01000000
00010000
00100000
00001000
00000000
00010000
00000000
00010000
00000000
00000100
00000000
00001000
00000000
,
00000100
00000001
00000010
00000100
00001000
00100000
00010000
10000000
,
00100000
00000000
01000000
00000000
00010000
00000000
00100000
00000000
00001000
00000000
00010000
00000000
00000010
00000100
00000010
00000000
,
00001000
00000000
00000001
00000000
00000100
00000001
00001000
00000000
00010000
00000000
00010000
00000000
00011000
00000000
00000000
00000000
,
00100000
00000000
00110000
00000000
00010000
10000000
00100000
00100000
,
00100000
00000000
00010000
00001000
00010000
00000000
00000200
00000000
,
00002300
00003020
00000230
00020300
,
00230000
00000000
00300000
00000000
01000000
00010000
01010000
00000000
,
00010000
00100000
00010000
00000000
00001000
00010000
00000100
00000010
,
00001000
00000000
00000010
00000001
00000100
00000000
00000002
00000000
,
00000203
00000000
00002300
00000000
00013000
00000000
00100000
00010000
,
01000000
00000000
00000000
00000000
00100000
00000000
00000000
11000000
00000000
00000000
00100000
00000000
01100000
00000000
00000000
00000000
,
00010000
00100000
00010000
00000000
00001000
00000000
00020000
00000000
,
00000000
00032000
00000000
00000000
00013000
00000000
00110000
00000000
,
00010000
00001000
00000100
00001000
00010000
00000000
01000000
10000000
,
00100000
00010000
00001000
00000010
00001000
00000000
00001100
00000000
,
00001000
00000010
00000001
00000100
00000010
00000000
00000100
00000000
,
00001000
00100000
00010000
01000000
10000000
00000000
00010000
00010000
,
01000000
01000000
10000000
10000000
00100000
00010000
00200000
00000000
,
00000000
00000000
00310000
00000000
00000000
00000000
00001000
00010000
,
00000100
00001000
00000010
00000000
00000010
00000001
00000100
00000010
,
00001000
00000000
00000100
00000100
00010000
00010000
00001000
00100000
,
00010000
01000000
10000000
00000000
00100000
00010000
00001000
00000100
,
00010000
00000000
00001000
00001000
00000100
00000100
00002000
00000000
,
00003010
00002000
00000000
00000000
00003100
00000000
00020000
00000000
,
00001000
00030000
00020000
00000000
00000000
00000000
00000000
00000000
01030000
00000000
00000000
00000000
01000000
00100000
00000000
00010000
,
00100000
00000000
00001000
00100000
00000000
00001000
00010000
00000000
00000100
00000000
00001000
00000000
00011000
00000000
00000000
00000000
;
