#VERSION:0.83;
#TITLE:低温火傷;
#SUBTITLE:;
#ARTIST:つばきファクトリー;
#TITLETRANSLIT:Teion Yakedo;
#SUBTITLETRANSLIT:;
#ARTISTTRANSLIT:Tsubaki Factory;
#GENRE:Hello! Project;
#ORIGIN:;
#CREDIT:SAIKIO;
#BANNER:Teion Yakedo-banner.png;
#BACKGROUND:bg.png;
#PREVIEWVID:;
#JACKET:Teion Yakedo-jacket.png;
#CDIMAGE:;
#DISCIMAGE:;
#LYRICSPATH:;
#CDTITLE:Saikio Hello! Project.png;
#MUSIC:Teion Yakedo.ogg;
#OFFSET:0.090000;
#SAMPLESTART:46.375000;
#SAMPLELENGTH:13.199986;
#SELECTABLE:YES;
#BPMS:0.000=138.010;
#STOPS:173.000=0.435;
#DELAYS:;
#WARPS:;
#TIMESIGNATURES:0.000=4=4;
#TICKCOUNTS:0.000=4;
#COMBOS:0.000=1;
#SPEEDS:0.000=1.000=0.000=0;
#SCROLLS:0.000=1.000;
#FAKES:;
#LABELS:0.000=Song Start;
#BGCHANGES:0.000=Teion Yakedo.avi=1.000=0=0=0=StretchNoLoop====,
99999=-nosongbg-=1.000=0=0=0 // don't automatically add -songbackground-
;
#KEYSOUNDS:;
#ATTACKS:
;

//---------------dance-single - ----------------
#NOTEDATA:;
#CHARTNAME:;
#STEPSTYPE:dance-single;
#DESCRIPTION:;
#CHARTSTYLE:;
#DIFFICULTY:Beginner;
#METER:2;
#RADARVALUES:0.143365,0.191503,0.000000,0.000000,0.000000,94.000000,94.000000,0.000000,0.000000,0.000000,0.000000,0.000000,0.000000,0.000000,0.143365,0.191503,0.000000,0.000000,0.000000,94.000000,94.000000,0.000000,0.000000,0.000000,0.000000,0.000000,0.000000,0.000000;
#CREDIT:;
#NOTES:
0000
0000
0000
0000
,
0000
0000
0000
0000
,
0000
0000
0000
0000
,
0000
0000
0000
0000
,
0000
0000
0000
0001
,
0000
0001
0100
0000
,
0000
1000
0010
0000
,
0000
0001
1000
1000
,
0000
0100
0000
0000
,
0000
0000
0000
0001
,
0000
1000
0000
0100
,
0000
0000
0010
0000
,
1000
0000
0100
0000
,
0000
0000
0001
0000
,
0010
0000
0100
0000
,
0000
0000
1000
0000
,
0010
0000
0100
0100
,
0000
0000
0000
0010
,
0000
0000
0000
1000
,
0000
0000
0000
0100
,
0000
0000
0000
0001
,
0000
0000
0000
1000
,
1000
0000
0000
0100
,
0001
0000
0000
1000
,
0000
0010
0000
0100
,
0000
0100
0000
0010
,
0000
0000
0000
0001
,
0001
1000
0000
0001
,
0010
0000
0000
1000
,
1000
0001
0000
0100
,
1000
0000
0100
0100
,
0000
0000
0010
0010
,
0000
0000
1000
0001
,
0000
0000
0001
0001
,
0000
0100
0000
0010
,
0100
0010
0000
0001
,
0100
0000
0000
1000
,
0001
1000
0000
0100
,
1000
0000
0010
0010
,
0000
0100
0001
0001
,
0000
1000
1000
0010
,
0000
0010
0000
0100
,
0100
0000
0000
0000
,
0000
0000
0010
0000
,
0100
0010
0000
0000
,
1000
0001
0000
0000
,
0001
0001
0100
0000
,
1000
0000
0100
0000
,
0100
1000
0000
0000
,
0100
0001
0000
0000
,
0001
0001
0010
0000
,
0100
0100
0000
0000
;

//---------------dance-single - ----------------
#NOTEDATA:;
#CHARTNAME:;
#STEPSTYPE:dance-single;
#DESCRIPTION:;
#CHARTSTYLE:;
#DIFFICULTY:Easy;
#METER:5;
#RADARVALUES:0.198271,0.305337,0.053381,0.181494,0.000000,130.000000,125.000000,5.000000,17.000000,0.000000,0.000000,0.000000,0.000000,0.000000,0.198271,0.305337,0.053381,0.181494,0.000000,130.000000,125.000000,5.000000,17.000000,0.000000,0.000000,0.000000,0.000000,0.000000;
#CREDIT:;
#NOTES:
0000
0000
0000
0000
,
0000
0000
0000
0000
,
0000
0000
0000
0000
,
0000
0000
0000
0000
,
0000
0000
0000
0002
,
0003
0100
0010
2000
,
3000
0010
0010
0200
,
0300
1000
1000
0010
,
0001
0100
0010
0000
,
0000
0000
0000
1000
,
0100
0000
0000
0010
,
0001
0000
0100
0000
,
0010
0000
1000
0100
,
1000
0000
0001
0100
,
1000
0000
1000
0010
,
0001
0000
1000
0000
,
0001
0000
0010
0100
,
0100
0000
0000
0020
,
0000
0030
0000
2000
,
0000
3000
0000
0200
,
0000
0300
0000
0002
,
0000
0003
0000
0001
,
1001
0000
0000
1000
,
1001
0000
0000
0100
,
0000
0010
1000
0200
,
0300
0001
0000
0020
,
0000
0000
0030
1000
,
1000
0100
0100
0001
,
0100
1000
0000
0001
,
0001
0010
0010
0100
,
1000
0000
0001
2000
,
3000
0010
0100
0002
,
0003
0100
0010
0200
,
0300
1000
0001
0100
,
0000
1000
0100
1100
,
1100
0010
0100
0001
,
0010
1000
0100
0010
,
0101
0010
0001
0100
,
1000
0010
0001
0002
,
0003
0010
1000
0001
,
0000
0010
0000
0010
,
0000
0000
0000
0010
,
0200
0000
0000
0300
,
0000
0000
0001
0001
,
0100
0100
0010
0000
,
1000
1000
0010
0000
,
1000
0100
0010
0000
,
0001
0100
0002
0100
,
1000
0103
0020
1000
,
0001
1030
0100
0000
,
1000
1000
0010
0100
,
0001
0200
0000
0000
,
0300
0000
0000
0000
;

//---------------dance-single - ----------------
#NOTEDATA:;
#CHARTNAME:;
#STEPSTYPE:dance-single;
#DESCRIPTION:;
#CHARTSTYLE:;
#DIFFICULTY:Medium;
#METER:8;
#RADARVALUES:0.300456,0.416369,0.064057,0.202846,0.000000,197.000000,191.000000,6.000000,19.000000,0.000000,0.000000,0.000000,0.000000,0.000000,0.300456,0.416369,0.064057,0.202846,0.000000,197.000000,191.000000,6.000000,19.000000,0.000000,0.000000,0.000000,0.000000,0.000000;
#CREDIT:;
#NOTES:
0000
0000
0000
0000
,
0000
0000
0000
0000
,
0000
0000
0000
0000
,
0000
0000
0000
0000
,
0000
0000
0000
0002
,
0103
0010
0001
2000
,
3010
0100
0010
0200
,
0301
0010
1000
0010
,
0000
0100
0100
0000
0010
0000
0000
0000
,
0000
0000
0000
0002
,
0103
0010
1000
2000
,
3010
0000
0001
0000
0010
0100
0000
0000
,
1000
1000
0010
1000
,
0001
0001
0000
0000
0100
0000
0010
1000
,
0100
0000
0001
0000
0001
0000
0010
0100
,
1000
0000
1000
0000
0001
1000
0000
0000
,
0001
0000
0001
0000
0010
0000
0100
0100
,
0000
1000
0100
0000
0000
0000
0020
0000
,
0130
0000
0000
0000
1000
0100
1000
0000
,
0010
0000
1000
0100
,
0000
0010
0100
0000
0001
0000
1000
0000
,
1000
0010
0000
0000
0001
0000
0001
0100
,
0001
0000
0100
0000
1000
0000
0010
0001
,
0100
1000
0010
0020
,
0030
0000
0100
0000
0001
1000
0100
0000
,
0000
0010
0100
0000
0000
0000
0020
0000
,
0000
0000
0000
0000
0030
0000
1000
0001
,
1000
0000
0100
0000
1100
0000
0001
0010
,
0100
0000
0010
0000
1000
0000
0001
1000
,
0001
0000
0100
0000
0101
0000
0010
1000
,
0100
0000
1000
0000
0010
0010
2000
0000
,
0000
3000
0001
0000
0010
0001
0020
0000
,
0000
0030
0000
1000
0010
1000
0200
0000
,
0000
0300
0000
0010
0001
0000
0100
0000
,
0010
0000
1000
1000
0000
0000
0001
1000
,
0100
0000
1000
0001
0100
0000
0010
0000
,
1100
0000
0101
0000
1100
0000
0010
1000
,
0001
0000
0010
0100
1000
0000
0001
0000
,
0011
0000
1000
0000
0010
0010
2000
0000
,
3000
0000
0010
0000
0100
0001
0200
0000
,
0300
0001
0100
0000
0001
0000
0010
0000
,
0010
0000
1000
0000
0000
0100
0001
0000
,
0200
0000
0000
0300
,
0000
0000
0002
0103
,
1000
0010
1000
0000
0200
0000
0301
0000
,
0010
0100
0010
0000
1000
0000
1000
0000
,
0001
0000
0010
0001
0100
0000
0010
0000
,
1000
0100
0002
0100
,
0010
1003
0020
1000
,
0100
0000
0031
0000
0100
1000
0001
0000
,
1000
0100
0001
0001
,
0010
0010
0000
0200
0000
0000
0000
0000
,
0300
0000
0000
0000
;

//---------------dance-single - ----------------
#NOTEDATA:;
#CHARTNAME:;
#STEPSTYPE:dance-single;
#DESCRIPTION:;
#CHARTSTYLE:;
#DIFFICULTY:Hard;
#METER:11;
#RADARVALUES:0.401117,0.499642,0.106761,0.245551,0.165480,263.000000,253.000000,10.000000,23.000000,0.000000,0.000000,0.000000,0.000000,0.000000,0.401117,0.499642,0.106761,0.245551,0.165480,263.000000,253.000000,10.000000,23.000000,0.000000,0.000000,0.000000,0.000000,0.000000;
#CREDIT:;
#NOTES:
0000
0000
0000
0000
,
0000
0000
0000
0000
,
0000
0000
0000
0000
,
0000
0000
0000
0000
,
0000
0000
0000
0002
,
0103
0000
0100
0010
1000
0100
2000
0000
,
3010
0000
0100
0001
0010
0100
0020
0000
,
0030
0000
0100
0000
0100
0000
0000
0001
0000
0000
0010
0000
1000
0000
0000
0100
,
0000
0000
0001
0000
0100
0000
0000
1000
0000
0000
0020
0000
0000
0000
0000
0000
,
0000
0000
0000
0030
0000
0000
0010
1000
,
0100
0000
1000
0000
0010
0000
0001
0100
,
0010
0000
0000
0000
0001
0000
0000
0000
0100
0000
0100
0010
0000
0000
0000
0000
,
0001
0000
0001
1000
0000
0000
0010
0000
0100
0000
0010
0000
1000
0000
0000
0000
,
0001
0000
0000
0001
0000
0000
0010
0000
0100
0000
1000
0000
0100
0000
0000
0000
,
0010
0000
1100
0000
0001
0100
0010
0000
,
0001
0000
0000
0000
0101
0000
0000
0000
1000
0000
0010
0100
0000
0000
0000
0000
,
0100
0000
0001
0010
0000
0000
0100
0000
0100
0000
0001
0000
0100
0000
0000
0100
,
0000
0020
0000
0030
0100
0001
0200
0000
,
0010
0000
0310
0000
1000
0100
2000
0000
,
0001
0000
3001
0000
0010
0100
0001
0000
,
0000
0100
0100
0000
0010
0000
1000
0100
,
0001
0100
0000
0000
0010
0010
0001
0100
,
1000
0000
0010
0000
1000
0000
1000
0010
,
0001
0000
0100
0000
0001
1000
1000
0000
,
0001
0000
0100
0010
0100
0000
0001
0100
,
0001
1000
0010
1000
0001
0100
0020
0000
,
0000
0000
0000
0000
0030
0000
1000
0001
,
1010
0000
0000
0000
0001
0000
0100
0000
0110
0000
0000
0000
0001
0000
1000
0001
,
0000
1000
0000
0100
0000
0000
0000
0000
0001
0000
0000
0000
0100
0000
0010
0000
,
1001
0000
0000
0000
0001
0000
0100
0000
1100
0000
0000
0000
0010
0000
0001
0100
,
0000
0001
0000
1000
0000
0000
0100
0000
0001
0000
0100
0000
0020
0000
0000
0000
,
1030
0000
0100
0001
1000
0100
0002
0000
,
0103
0000
0010
1000
0100
0001
2000
0000
,
3001
0000
0000
0001
1000
0001
0100
0000
,
1000
0000
0000
0000
1100
0000
0000
1100
0000
0000
0010
0000
0100
0000
0100
0000
,
1000
0000
0010
0000
0100
0001
0000
0100
0000
0000
0001
0000
0100
0000
1000
0000
,
0010
0000
0011
0000
1010
0000
0001
0100
,
0001
0000
0010
0000
1000
0000
0100
1000
0000
0000
0001
0000
1000
0000
0001
0010
,
0000
0001
0000
1000
0000
0000
0100
0000
0100
0000
0001
0000
0200
0000
0000
0000
,
0310
0000
0000
0000
0001
0000
0000
1000
0000
0000
0100
0000
2000
0000
0000
0000
,
3001
0000
0000
0000
0100
0000
0000
0100
0000
0000
0001
0000
0100
0000
0001
0020
,
0000
0000
0000
0000
0000
0000
0030
0000
0000
0000
1000
0001
0100
0000
0000
0000
,
0200
0000
0000
0300
,
0000
0000
0002
0103
,
0010
1000
0100
0001
0020
0000
1030
0000
,
0100
0001
0010
0100
2000
0000
3100
0000
,
0001
0000
0000
0001
0000
0000
1000
0000
0200
0000
0000
0000
0310
0000
0000
0000
,
0001
0000
0000
1000
0000
0000
0100
0000
0002
0000
0000
0000
0100
0000
0000
0000
,
0013
1000
0100
1000
0020
0000
1000
0000
,
0130
0001
0100
0010
2000
0000
3010
0000
,
0001
0000
0000
0100
0000
0000
1000
0000
0100
0000
0000
0001
0000
0000
0010
0000
,
1000
0000
0000
0010
0000
0000
0200
0000
0000
0000
0000
0000
0000
0000
0000
0000
,
0300
0000
0000
0000
;

//---------------dance-double - ----------------
#NOTEDATA:;
#CHARTNAME:;
#STEPSTYPE:dance-double;
#DESCRIPTION:;
#CHARTSTYLE:;
#DIFFICULTY:Easy;
#METER:5;
#RADARVALUES:0.221148,0.305337,0.064057,0.117437,0.000000,145.000000,139.000000,6.000000,11.000000,0.000000,0.000000,0.000000,0.000000,0.000000,0.221148,0.305337,0.064057,0.117437,0.000000,145.000000,139.000000,6.000000,11.000000,0.000000,0.000000,0.000000,0.000000,0.000000;
#CREDIT:;
#NOTES:
00000000
00000000
00000000
00000000
,
00000000
00000000
00000000
00000000
,
00000000
00000000
00000000
00000000
,
00000000
00000000
00000000
00000000
,
00000000
00000000
00000000
00000002
,
00000003
00001000
00010000
02000000
,
03000000
00100000
00001000
00000020
,
00000030
00001000
00000010
00000001
,
00000001
00000100
00000110
00000000
,
00000000
00000000
00000000
00001000
,
00010000
00000000
00000000
00100000
,
01000000
00000000
00100000
00000000
,
10000000
00100000
00010000
01000000
,
00010000
00000000
00001000
01000000
,
00000000
00000000
00010000
00001000
,
00000000
00000000
00000010
00000000
,
00000001
00000100
00000010
00000100
,
00000100
00000000
00010000
02000000
,
03000000
00100000
00010000
00002000
,
00003000
00001000
00000100
00000010
,
00000000
00000001
00001000
00000100
,
00010000
00000000
00000010
00000100
,
00001000
00000000
00010000
01000000
,
10000000
00000000
00000000
00100000
,
00000000
00010000
00010000
00200000
,
00300000
00010000
00000000
00000020
,
00000000
00000000
00000030
00000100
,
00001000
00010000
00100000
00010000
,
01000000
01000000
00100000
00001000
,
01000000
00001000
00100000
00010000
,
10000000
00100000
00010000
01010000
,
00000000
00100000
00010000
00011000
,
00000000
00000100
00000010
00000101
,
00000000
00000010
00000100
00002000
,
00003000
00110000
00110000
01000000
,
00010000
00001000
00000010
00001000
,
00000100
00000100
00000010
00000001
,
00000100
00000010
00000100
00001000
,
00001000
00000000
00010000
00200000
,
00300000
00010000
01000000
01000000
,
00000000
10000000
01000000
00100000
,
00000000
00010000
00000000
00001000
,
02000000
00000000
00000000
03000000
,
00000000
00000000
00001000
00000100
,
00000001
00000100
00001000
00010000
,
01000000
10000000
00100000
00000000
,
00010000
00010000
00001000
00000000
,
00000100
00001000
00000010
00000001
,
00000100
00001000
00010000
00100000
,
10000000
01000000
00100000
00000000
,
00010000
00001000
00010000
00100000
,
00001000
02000000
00000000
00000000
,
03000000
00000000
00000000
00000000
;

//---------------dance-double - ----------------
#NOTEDATA:;
#CHARTNAME:;
#STEPSTYPE:dance-double;
#DESCRIPTION:;
#CHARTSTYLE:;
#DIFFICULTY:Medium;
#METER:9;
#RADARVALUES:0.292831,0.388611,0.064057,0.202846,0.010676,192.000000,186.000000,6.000000,19.000000,0.000000,0.000000,0.000000,0.000000,0.000000,0.292831,0.388611,0.064057,0.202846,0.010676,192.000000,186.000000,6.000000,19.000000,0.000000,0.000000,0.000000,0.000000,0.000000;
#CREDIT:;
#NOTES:
00000000
00000000
00000000
00000000
,
00000000
00000000
00000000
00000000
,
00000000
00000000
00000000
00000000
,
00000000
00000000
00000000
00000000
,
00000000
00000000
00000000
00000002
,
00000013
00000000
00000100
00001000
00010000
00000000
02000000
00000000
,
03100000
00000000
10000000
01000000
00100000
00000000
00200000
00000000
,
00300000
00000000
01000000
00000000
00010000
00000000
00001000
00100000
,
00000000
00001000
00000100
00000000
00011000
00000000
00000000
00000000
,
00000000
00000000
00000010
00000100
,
00001000
00000000
00010000
00100000
,
01000000
00000000
00000000
00000000
01000000
00100000
00000000
00000000
,
10000000
01000000
00010000
00000100
,
00000010
00000000
00000001
00000100
,
00000010
00000000
00001000
00010000
,
00100000
00000000
00000000
00000000
00010000
01000000
00000000
00000000
,
00100000
10000000
01000000
00100000
,
01000000
01000000
00000000
00000000
00010000
00000000
00000200
00000000
,
00000300
00001000
00100000
20000000
,
30000000
00010000
00100000
00010000
,
00000000
01000000
00100000
10000000
,
10000000
01000000
00000000
00000000
00100000
00000000
00100000
00010000
,
00001000
00000000
00000100
00000000
00001000
00000000
00001000
00000010
,
00000001
00000100
00000100
00000010
,
00000000
00000010
00000100
00000000
00001000
00000000
00020000
00000000
,
00030000
01000000
00100000
00000000
00000000
00000000
00200000
00000000
,
00000000
00000000
00000000
00000000
00300000
00000000
00001000
00010000
,
00001000
00000000
01000000
00000000
00010000
00000000
01000000
00100000
,
00010000
00000000
11000000
00000000
11000000
00000000
00100000
00010000
,
00001000
00000010
00000100
00000001
,
00000010
00000000
00001000
00000000
00000010
00000010
00000100
00000000
,
00001000
00000000
00010000
00000000
00100000
00100000
00010000
00000000
,
01000000
00000000
00100000
00000000
10000000
10000000
00010000
00000000
,
00100000
00000000
00010000
00000000
00001000
00010000
00001000
00000000
,
00010000
00000000
00001100
00000000
00001100
00000000
00100000
00010000
,
00100000
00000000
00001000
00010000
00000100
00000000
00000010
00000000
,
00000100
00000001
00000100
00000000
00000010
00000000
00001000
00010000
,
00100000
00000000
00010000
00000000
01000000
00000000
00100000
00100000
,
01000000
00000000
10000000
00000000
00010000
01000000
00200000
00000000
,
00300000
00000000
00010000
00000000
00001000
00000010
00000200
00000000
,
00000300
00000000
00000010
00000000
00001000
00000000
00000100
00000020
,
00000000
00000000
00000000
00000030
00000000
00000100
00001000
00000000
,
02000000
00000000
00000000
00000000
,
00000000
03000000
00000000
00000000
00000002
00000000
00000003
00000000
,
00000100
00001000
00010000
00100000
02000000
00000000
03000000
00000000
,
10000000
01000000
00100000
00010000
00002000
00000000
00003000
00000010
,
00000010
00000100
00000010
00000000
,
00000001
00000000
00000100
00000000
00000020
00000000
00000030
00001000
,
00010000
00001000
00000100
00000000
00020000
00000000
00030000
00100000
,
00001000
00100000
00010000
00000000
00000200
00000000
00000300
00000000
,
00000010
00000000
00000000
00000000
00000001
00000000
00000000
00000000
00001000
00000000
00000000
00010000
00000000
00000000
00001000
00000000
,
00010000
00000000
00000000
00001000
00000000
00000000
00022000
00000000
00000000
00000000
00000000
00000000
00000000
00000000
00000000
00000000
,
00033000
00000000
00000000
00000000
;

//---------------dance-double - ----------------
#NOTEDATA:;
#CHARTNAME:;
#STEPSTYPE:dance-double;
#DESCRIPTION:;
#CHARTSTYLE:;
#DIFFICULTY:Hard;
#METER:11;
#RADARVALUES:0.405693,0.527400,0.224198,0.266903,0.144128,266.000000,245.000000,21.000000,25.000000,0.000000,0.000000,0.000000,0.000000,0.000000,0.405693,0.527400,0.224198,0.266903,0.144128,266.000000,245.000000,21.000000,25.000000,0.000000,0.000000,0.000000,0.000000,0.000000;
#CREDIT:;
#NOTES:
00000000
00000000
00000000
00000000
,
00000000
00000000
00000000
00000000
,
00000000
00000000
00000000
00000000
,
00000000
00000000
00000000
00000000
,
00000000
00000000
00000000
00000002
,
00000000
00000013
00000001
00000100
00000010
00001000
00020000
00000000
,
00000000
01030000
00100000
10000000
00100000
01000000
00002000
00000000
,
00000000
00000000
00013000
00000000
00010000
00000000
00000000
00001000
00000000
00000000
00000100
00000000
00000010
00000000
00000000
00001000
,
00000000
00000000
00010000
00000000
01000000
00000000
00000000
00011000
00000000
00000000
00022000
00000000
00000000
00000000
00000000
00000000
,
00000000
00000000
00000000
00033000
00000000
00000000
00100000
00010000
,
01000000
00000000
00010000
00000000
00001000
00000000
00000010
00000100
,
00000001
00000000
00000000
00000000
00000100
00000000
00000000
00000000
00000010
00000000
00001000
00000010
00000000
00000000
00000000
00000000
,
00010000
00000000
01000000
00010000
00000000
00000000
01000000
00000000
00010000
00000000
10000000
00000000
00010000
00000000
00000000
00000000
,
01000000
00000000
00000000
01000000
00000000
00000000
00010000
00000000
00001000
00000000
00000100
00000000
00001000
00000000
00000000
00000000
,
00000100
00000000
00001100
00000000
00010000
00100000
00010000
00000000
,
01010000
00000000
00000000
00000000
10000000
00010000
00000000
00000000
,
01000000
00000000
00010000
00000000
00100000
00000000
00000000
00000000
00001000
00000000
00000000
00000000
00000100
00000000
00000000
00000100
,
00000000
00000200
00000000
00000000
00000300
00000000
00001000
00000000
,
00010000
00100000
00000000
00000000
00010000
01000000
00100000
00000000
,
10000000
01000000
00000000
00100000
00010000
01000000
00010000
00000000
,
00000000
00100000
00010000
00000000
00001000
00000000
00010000
00001000
,
00010000
00001000
00000000
00000000
00001000
00000100
00000001
00000100
,
00000010
00001000
00000000
00001000
00000000
00010000
01000000
10000000
,
00100000
00000000
01000000
00000000
00000000
00000000
01000000
00000000
00000000
00000000
00010000
00001000
00010000
00000000
00001000
00000000
,
00000100
00000000
00001000
00000000
00000010
00000000
00000000
00001000
00000000
00000000
00010000
00000000
00001000
00000000
00010000
00000000
,
00001000
00100000
00200000
00000000
00000000
00000000
00000000
00300000
,
01000000
00000000
01000000
00000000
01000000
00000000
00100000
00010000
,
00001000
00000000
00000100
00000000
00001000
00000100
00000000
00000010
00000000
00000000
00000001
00000000
00000100
00000000
00000000
00000000
,
00001100
00000000
00011000
00000000
00110000
00000000
01000000
00010000
,
00100000
00000000
10000000
00000000
00010000
00100000
00000000
00010000
00000000
00000000
00100000
00000000
00001000
00000000
00000000
00000000
,
00011000
00000000
00001100
00000000
00000110
00000001
00000100
00000020
,
00000000
00000000
00000030
00000001
00000100
00000010
00001000
00000200
,
00000000
00000000
00000300
00010000
00001000
00100000
00010000
20000000
,
00000000
00000000
30000000
00010000
10000000
00010000
01000000
00000000
,
00010000
00000000
10000000
00000000
00110000
00000000
00000000
00110000
00000000
00000000
00100000
00000000
00001000
00000000
00000100
00000000
,
00000010
00000000
00001000
00000000
00000100
00010000
00000000
00000100
00000000
00000000
00000010
00000000
00001000
00000000
00000100
00000000
,
00011000
00000000
00110000
00000000
01100000
00000000
10000000
00010000
,
10000000
00000000
00010000
00000000
00100000
00000000
00000000
00010000
00000000
00000000
01000000
00000000
00100000
00000000
00010000
00100000
,
00000000
00010000
00000000
10000000
00000000
00000000
00010000
00000000
00001000
00000000
00000100
00000000
00000020
00000000
00000000
00000000
,
00000000
00000000
00000030
00000000
00000001
00000000
00000000
00000100
00000000
00000000
00001000
00000000
00020000
00000000
00000000
00000000
,
00000000
00000000
00031000
00000000
01000000
00000000
00000000
00100000
00000000
00000000
00010000
00000000
00001000
00000000
00200000
00000000
,
00000000
00000000
00000000
00000000
00300000
01000000
00010000
00000000
,
00000200
00000000
00000000
00000300
,
00000000
00000000
00000000
00000000
00000002
00000000
00000000
00000013
,
00001000
00010000
01000000
00100000
20000000
00000000
00000000
31000000
,
00010000
00000100
00000010
00000001
00000200
00000000
00000000
00000310
,
00000001
00000000
00000000
00000100
00000000
00000000
00000100
00000000
00000010
00000000
00000000
00000000
00010000
00000000
00000000
00000000
,
00010000
00000000
00000000
00001000
00000000
00000000
00100000
00000000
02020000
00000000
00000000
00000000
03030000
00000000
00100000
00000000
,
00010000
00000100
00000010
00000100
00002002
00000000
00003003
00000100
,
00010000
01000000
00010000
00100000
02200000
00000000
03300000
00010000
,
00010000
00000000
00000000
00001000
00000000
00000000
00000010
00000000
00001000
00000000
00000000
00010000
00000000
00000000
01000000
00000000
,
00101000
00000000
00000000
00011000
00000000
00000000
00022000
00000000
00000000
00000000
00000000
00000000
00000000
00000000
00000000
00000000
,
00033000
00000000
00000000
00000000
;

//---------------dance-single - ----------------
#NOTEDATA:;
#CHARTNAME:;
#STEPSTYPE:dance-single;
#DESCRIPTION:;
#CHARTSTYLE:;
#DIFFICULTY:Challenge;
#METER:12;
#RADARVALUES:0.410268,0.527400,0.352312,0.202846,0.154804,269.000000,236.000000,33.000000,19.000000,96.000000,0.000000,0.000000,0.000000,0.000000,0.410268,0.527400,0.352312,0.202846,0.154804,269.000000,236.000000,33.000000,19.000000,96.000000,0.000000,0.000000,0.000000,0.000000;
#CREDIT:;
#NOTES:
0000
0000
0000
0000
,
0000
0000
0000
0000
,
0000
0000
0000
0000
,
0000
0000
0000
0000
,
0000
0000
0000
MMMM
,
0000
1000
0100
0010
0001
1000
MMMM
0000
,
0000
0001
1000
0100
1000
0010
MMMM
0000
,
0000
0000
1000
0000
0100
0000
0000
0100
0000
0000
1000
0000
0010
0000
0000
1010
,
0000
0000
0100
0000
0011
0000
0000
0101
0000
0000
0020
0000
0000
0000
0000
0000
,
0000
0000
0030
0000
0100
0010
0001
0000
,
0010
0000
0001
0000
0100
0010
1000
0000
,
0100
0000
0000
0000
1000
0000
0000
0000
0001
0000
0100
0001
0000
0000
0000
0000
,
1000
0000
0100
1000
0000
0000
0000
0000
0010
0000
0000
0000
0001
0000
0000
0000
,
1100
0000
0110
0000
0001
0010
0100
0000
,
1000
0000
1010
0000
1000
0010
0001
0000
,
0010
0000
0000
0000
0011
0000
0000
0000
0010
0000
1000
0100
0000
0000
0000
0000
,
0001
0000
0100
0010
0000
0000
0000
0000
0100
0000
0000
0000
0010
0000
0000
0010
,
0000
0020
0000
0000
0030
0000
0101
0000
,
0000
0010
0000
1100
,
0000
0010
0000
0001
,
0000
0010
0100
1000
,
0100
0010
0000
0000
0001
0000
1100
MMMM
,
1100
MMMM
0011
MMMM
0100
MMMM
0110
MMMM
,
0101
MMMM
1000
MMMM
0110
0000
0010
0001
,
0100
1000
0100
0001
0010
0100
1000
0010
,
0100
0001
0100
0000
0010
0000
0200
0000
,
0010
0000
0010
0000
0310
0000
1100
MMMM
,
0011
MMMM
1100
MMMM
1010
MMMM
0001
0100
,
0020
0000
0032
0000
0203
0000
0310
0001
,
0010
0000
0001
0000
0100
0000
0000
1000
0000
0000
0010
0000
0100
0000
0001
0100
,
0000
0010
0000
0100
0000
0000
1000
0000
0100
0000
0010
0000
0001
0000
0100
0020
,
0000
0000
0000
0000
0000
0030
0001
0000
1000
0000
0100
0000
0001
0000
0010
0200
,
0000
0000
0000
0000
0000
0300
0010
0000
0001
0000
0010
0000
1000
0000
0100
0002
,
0000
0000
0000
0000
0000
0003
0010
0000
0100
0000
0001
0000
1000
0000
0000
0000
,
0100
0000
0000
0000
1100
0000
0000
1100
0000
0000
0010
0000
0010
0000
0100
0000
,
0001
0000
1000
0000
0100
1000
0000
0010
0000
0000
0100
0000
0001
0000
1000
0000
,
0011
MMMM
1010
MMMM
1100
MMMM
0011
0100
,
0010
0000
1000
0000
0100
0000
0000
0100
0000
0000
0010
0000
0001
0000
0100
0010
,
0000
1000
0000
0010
0000
0000
0001
0000
0010
0000
0100
0000
2000
0000
0000
0000
,
3100
0000
0000
0000
0010
0000
0000
0100
0000
0000
0100
0000
0020
0000
0000
0000
,
1030
0000
0000
0000
0100
0000
0000
0010
0000
0000
1000
0000
0001
0000
1000
0020
,
0000
0000
0000
0000
0130
0000
0000
0000
0010
0000
1000
0001
0100
0000
0000
0000
,
0010
0100
0000
0200
,
0000
0310
0002
1003
,
0010
1000
0001
0000
2000
0000
3010
0000
,
0100
0001
1000
0000
1100
MMMM
1010
MMMM
,
1001
MMMM
0110
MMMM
0101
MMMM
1010
MMMM
,
1001
MMMM
0110
0000
0002
0000
0100
0013
,
1000
1000
1000
0100
0020
0000
0000
0031
,
0001
0001
0100
0010
0200
0000
0000
1300
,
1000
0000
0000
0100
0000
0000
0010
0000
0001
0000
0000
0100
0000
0000
0010
0000
,
1000
0000
0000
0010
0000
0000
0200
0000
0000
0000
0000
0000
0000
0000
0000
0000
,
0300
0000
0000
0000
;

//---------------dance-double - ----------------
#NOTEDATA:;
#CHARTNAME:;
#STEPSTYPE:dance-double;
#DESCRIPTION:;
#CHARTSTYLE:;
#DIFFICULTY:Challenge;
#METER:12;
#RADARVALUES:0.428570,0.499642,0.192170,0.192170,0.192170,281.000000,263.000000,18.000000,18.000000,96.000000,0.000000,0.000000,0.000000,0.000000,0.428570,0.499642,0.192170,0.192170,0.192170,281.000000,263.000000,18.000000,18.000000,96.000000,0.000000,0.000000,0.000000,0.000000;
#CREDIT:;
#NOTES:
// measure 0
00000000
00000000
00000000
00000000
,  // measure 1
00000000
00000000
00000000
00000000
,  // measure 2
00000000
00000000
00000000
00000000
,  // measure 3
00000000
00000000
00000000
00000000
,  // measure 4
00000000
00000000
00000000
MMMMMMMM
,  // measure 5
00000000
00100000
00010000
00001000
00000100
00000010
MMMMMMMM
00000000
,  // measure 6
00000000
00001000
00010000
00100000
01000000
10000000
MMMMMMMM
00000000
,  // measure 7
00000000
00000000
00010000
00000000
01000000
00000000
00000000
00001000
00000000
00000000
00001000
00000000
00010000
00000000
00000000
00110000
,  // measure 8
00000000
00000000
00001000
00000000
00011000
00000000
00000000
00000100
00000000
00000000
00000020
00000000
00000000
00000000
00000000
00000000
,  // measure 9
00000000
00000000
00000030
00000001
00000100
00001000
00000100
00001000
,  // measure 10
00010000
00000000
01000000
00100000
00000000
00000000
10000000
00000000
00010000
00000000
10000000
00000000
01000000
00000000
00100000
00000000
,  // measure 11
00010000
00000000
00001000
00010000
00000000
00000000
00000000
00000000
00001000
00000000
00010000
00000100
00000000
00000000
00000000
00000000
,  // measure 12
00001000
00000000
00000010
00000001
00000000
00000000
00000100
00000000
00000010
00000000
00001000
00000000
00000100
00000000
00000000
00000000
,  // measure 13
00001000
00000000
00000000
00001000
00000000
00000000
00010000
00000000
00100000
00000000
00010000
00000000
01000000
00000000
01000000
00000000
,  // measure 14
00100000
00000000
00010000
10000000
00000000
00000000
00010000
00000000
01000000
00000000
00100000
00000000
00010000
00000000
00001000
00000000
,  // measure 15
00000010
00000000
00000010
00000100
00000000
00000000
00000000
00000000
00000001
00000000
00000100
00000010
00000000
00000000
00000000
00000000
,  // measure 16
00000100
00000000
00000010
00001000
00000000
00000000
00000010
00000000
00000100
00000000
00001000
00000000
00001100
00000000
00000000
00001100
,  // measure 17
00000000
00020000
00000000
00030000
00001000
00010000
00200000
00000000
,  // measure 18
00310000
00000000
01000000
00000000
10000000
00010000
02000000
00000000
,  // measure 19
03001000
00000000
00010000
00000000
00001000
00000100
00001000
00000000
,  // measure 20
00000000
00000010
00000100
00000000
00000001
00000000
00000100
00000100
,  // measure 21
00001000
00010000
00000000
00000000
00010000
00000000
01010000
MMMM0000
,  // measure 22
00011000
MMMM0000
00100000
00010000
00001000
00000000
00000110
0000MMMM
,  // measure 23
00001010
0000MMMM
00000100
00001000
00010000
00000000
00100000
00010000
,  // measure 24
00001000
00010000
00001000
00000010
00000100
00000001
00000100
00001000
,  // measure 25
00010000
00100000
01000000
00000000
00100000
00000000
02000000
00000000
,  // measure 26
00100000
00000000
00100000
00000000
03100000
00000000
00010000
00001000
,  // measure 27
00010000
00000000
00000100
00000000
00001000
00000100
00000000
00001000
00000000
00000000
00000010
00000000
00000100
00000000
00000001
00000000
,  // measure 28
00000110
0000MMMM
00001100
0000MMMM
00000101
0000MMMM
00011000
00100000
,  // measure 29
01000000
00000000
00010000
00000000
01000000
00000000
00000000
10000000
00000000
00000000
00100000
00000000
00010000
00000000
00001000
00000100
,  // measure 30
00000000
00001000
00000000
00000010
00000000
00000000
00000100
00000000
00001000
00000000
00000010
00000000
00000001
00000000
00000010
00000002
,  // measure 31
00000000
00000000
00000000
00000000
00000003
00000000
00000100
00000000
00001000
00000000
00000010
00000000
00001000
00000000
00000010
00000200
,  // measure 32
00000000
00000000
00000000
00000000
00000300
00000000
00001000
00000000
00010000
00000000
01000000
00000000
10000000
00000000
01000000
00200000
,  // measure 33
00000000
00000000
00000000
00000000
00300000
00000000
00001000
00000000
00010000
00000000
00100000
00000000
00010000
00000000
00000000
01000000
,  // measure 34
00000000
00000000
10000000
00000000
00100000
00000000
00000000
00100000
00000000
00000000
00010000
00000000
00002000
00000000
00000010
00000000
,  // measure 35
00000100
00000000
00000001
00000000
00000100
00003000
00001000
00100000
,  // measure 36
00110000
MMMM0000
10100000
MMMM0000
10010000
MMMM0000
01100000
00001000
,  // measure 37
00010000
00000000
00001000
00000000
00000100
00000000
00000000
00000010
00000000
00000000
00000100
00000000
00000001
00000000
00000010
00001000
,  // measure 38
00000000
00000100
00000000
00000010
00000000
00000000
00001000
00000000
00000010
00000000
00000100
00000000
00002000
00000000
00000000
00000000
,  // measure 39
00013000
00000000
00000000
00000000
00100000
00000000
00000000
01000000
00000000
00000000
01000000
00000000
00200000
00000000
00000000
00000000
,  // measure 40
00310000
00000000
00000000
00000000
00100000
00000000
00000000
00010000
00000000
00000000
00001000
00000000
00001000
00000000
00000100
00000020
,  // measure 41
00000000
00000000
00000130
00000000
00001000
00010000
02000000
00000000
,  // measure 42
03001000
00000000
00000000
00002000
,  // measure 43
00000000
00000000
00013000
00000000
20000000
00000000
30000000
01000000
,  // measure 44
00100000
10000000
00010000
00100000
MMMM0000
00000000
MMMM0000
00100000
,  // measure 45
00010000
00001000
00000100
00000010
0000MMMM
00000000
0000MMMM
00010000
,  // measure 46
00010000
00000000
00000000
00001000
00000000
00000000
00100000
00000000
00002000
00000000
00000000
00000000
00010000
00003000
00000000
00000000
,  // measure 47
01000000
00000000
00000000
01100000
00000000
00000000
10000000
00000000
00200000
00000000
00000000
00000000
00000000
00000000
00310000
00000000
,  // measure 48
00001000
00000100
00000001
00000100
0000MMMM
00000000
0000MMMM
00001000
,  // measure 49
00010000
00100000
10000000
00100000
MMMM0000
00000000
MMMM0000
00100000
,  // measure 50
00010000
00000000
00000000
00011000
00000000
00000000
00001000
00000000
00010000
00000000
00000000
00000010
00000000
00000000
00000001
00000000
,  // measure 51
00000100
00000000
00000000
00001000
00000000
00000000
02000000
00000000
00000000
00000000
00000000
00000000
00000000
00000000
00000000
00000000
,  // measure 52
03000000
00000000
00000000
00000000
;
