#TITLE:TOGAKUSHI;
#SUBTITLE:;
#ARTIST:SETUP;
#TITLETRANSLIT:;
#SUBTITLETRANSLIT:;
#ARTISTTRANSLIT:;
#GENRE:beatmania IIDX;
#CREDIT:SAIKIO;
#BANNER:TOGAKUSHI-banner.png;
#BACKGROUND:bg.png;
#LYRICSPATH:;
#CDTITLE:IIDX.png;
#MUSIC:TOGAKUSHI.ogg;
#OFFSET:0.086000;
#SAMPLESTART:88.670029;
#SAMPLELENGTH:12.760001;
#SELECTABLE:YES;
#BPMS:0.000000=152.000000
;
#STOPS:
;
#BGCHANGES:-0.500=TOGAKUSHI.avi=1.000=0=0=0=StretchNoLoop====,
99999=-nosongbg-=1.000=0=0=0 // don't automatically add -songbackground-
;
#KEYSOUNDS:;
#ATTACKS:;

//---------------dance-single - ----------------
#NOTES:
     dance-single:
     :
     Beginner:
     3:
     0.141913,0.212885,0.000000,0.033674,0.000000,118.000000,118.000000,0.000000,4.000000,0.000000,0.000000,0.141913,0.212885,0.000000,0.033674,0.000000,118.000000,118.000000,0.000000,4.000000,0.000000,0.000000:
0000
0000
0000
0000
,
0000
0000
0000
0000
,
0000
0000
0000
0000
,
0000
0000
0000
0000
,
0000
1000
0000
1000
,
0000
0100
0000
0000
,
0000
0001
0000
0001
,
0000
0010
0000
0000
,
0000
1000
0000
0001
,
0000
1000
0000
0000
,
0000
0010
0000
0100
,
0000
0010
0000
0000
,
0000
0001
0000
0010
,
0000
0100
0000
0000
,
0000
1000
0000
0001
,
0000
0010
0000
0000
,
0000
0100
0000
0010
,
0000
1000
0000
0000
,
0000
0010
0000
0001
,
0000
0100
0000
0000
,
0000
0010
0010
0000
,
0000
1000
1000
0000
,
0000
0001
0001
0000
,
0000
0100
0100
0000
,
0000
0010
1000
0000
,
0000
0100
0001
0000
,
0000
1000
0001
0000
,
0000
0100
1000
0000
,
0000
0020
0000
0000
,
0000
0000
0000
0000
,
0000
0030
0000
0000
,
0000
0000
0000
0000
,
0000
0001
0000
0001
,
0000
0100
0000
0000
,
0000
0010
0000
0010
,
0000
1000
0000
0000
,
0000
0020
0000
0000
,
0000
0000
0000
0030
,
0000
0100
0000
1000
,
0000
0100
0000
0000
,
0000
0010
0000
0001
,
0000
0010
0000
0000
,
0000
0100
0000
1000
,
0000
0001
0000
0000
,
0000
0200
0000
0000
,
0000
0000
0000
0300
,
0000
0010
0000
0010
,
0000
0100
0000
0000
,
0000
0001
0000
0100
,
0000
1000
0000
0010
,
0000
0001
0000
0100
,
0000
1000
0000
0010
,
0000
1000
0000
0100
,
0000
0001
0000
0010
,
0000
1000
1000
1000
,
0000
0200
0000
0300
,
0000
0010
0100
0100
,
0000
0001
0000
0100
,
0000
0010
0010
1000
,
0000
0100
0000
0001
,
0000
1000
0000
0100
,
0000
0010
0000
0001
,
0000
1000
1000
1000
,
0000
0001
0001
0100
,
0000
0010
0000
0100
,
0000
0010
0000
0001
,
0000
0010
0010
0010
,
1000
0001
0000
0100
,
0000
0001
1000
0000
,
0000
0100
0010
0000
,
0000
1000
0000
0001
,
0000
0100
0100
0100
,
0010
0100
0000
0000
;

//---------------dance-single - ----------------
#NOTES:
     dance-single:
     :
     Easy:
     6:
     0.248949,0.364945,0.176790,0.075767,0.000000,207.000000,186.000000,21.000000,9.000000,0.000000,0.000000,0.248949,0.364945,0.176790,0.075767,0.000000,207.000000,186.000000,21.000000,9.000000,0.000000,0.000000:
0000
0000
0000
0000
,
0000
0000
0000
0000
,
0000
0000
0000
0000
,
0000
0000
0000
0000
,
0000
0010
0010
0100
,
0000
0001
1000
0001
,
0000
0100
0100
1000
,
0000
0010
1000
0010
,
0000
1000
0100
0010
,
0000
0001
0100
0010
,
0000
0001
1000
0001
,
0000
0100
0100
0010
,
0000
1000
0100
1000
,
0100
0100
1000
0000
,
0000
0010
0001
0100
,
0001
0001
0010
0000
,
0000
0100
0001
1000
,
0000
0010
1000
0001
,
0000
0100
0010
0001
,
0000
0000
0200
0000
0000
0000
0000
0300
,
0000
0010
0100
1010
,
0000
0100
0001
0011
,
0000
1000
0010
0101
,
0000
0010
0001
1100
,
0000
1001
0001
0100
,
0000
0110
1000
0010
,
0000
0001
0010
0100
,
0000
1000
0100
0010
,
0000
0200
0000
0300
,
0000
0020
0000
0030
,
0000
0002
0000
0003
,
0000
2000
0000
3000
,
0000
0100
0000
0100
,
0000
0010
0000
0010
,
0000
0001
0000
0001
,
0000
0100
0000
0100
,
0000
0020
0000
0100
,
0000
0100
0000
0130
,
0000
1000
0100
1000
,
0000
0001
0010
0001
,
0000
1000
0000
1000
,
0000
0100
0000
0100
,
0000
0010
0000
0010
,
0000
0001
0000
0001
,
0000
0200
0000
0010
,
0000
0010
0000
0310
,
0000
0001
0100
0001
,
0000
1000
0010
1000
,
0000
0110
0010
0100
,
0000
0010
0000
1000
,
0000
1001
0001
1000
,
0000
0010
0000
0001
,
0000
1001
0100
0110
,
0000
0011
0100
1100
,
0000
0001
0100
1000
,
0010
0000
0000
0000
,
0000
0100
0001
0100
,
0100
0010
1000
0010
,
0010
0100
0001
1000
,
1000
0100
0010
0001
,
0001
2000
0000
0100
,
0000
0001
0000
3100
,
0000
0010
0001
0100
,
0000
1000
0100
0010
,
0000
1001
1000
1001
,
0001
0100
0010
0100
,
0000
0110
1000
0110
,
0001
0110
1000
0100
,
0000
1100
0010
0001
,
0100
1100
0010
0001
,
0100
1100
0001
1100
,
0001
0100
0100
0010
,
0200
0300
0000
0000
;

//---------------dance-single - ----------------
#NOTES:
     dance-single:
     :
     Medium:
     10:
     0.396875,0.486593,0.260976,0.185209,0.000000,330.000000,299.000000,31.000000,22.000000,0.000000,0.000000,0.396875,0.486593,0.260976,0.185209,0.000000,330.000000,299.000000,31.000000,22.000000,0.000000,0.000000:
0000
0000
0000
0000
,
0000
0000
0000
0000
,
0000
0000
0000
0000
,
0000
0020
0000
0000
,
0030
0100
0001
1000
,
0010
0000
1000
0010
1000
0000
0001
0000
,
0100
0000
0010
0001
0010
0000
0001
0000
,
0100
0000
1000
0001
1000
0000
0010
0000
,
1000
0000
0010
0010
0100
0000
0001
0000
,
0100
0000
1000
1000
0100
0000
0010
0000
,
0001
0000
0100
0100
0001
0000
0010
0000
,
0100
0000
0001
0001
0010
0000
1000
0000
,
0100
0000
0001
0100
0001
0000
1000
0000
,
0100
0000
0010
1000
0010
0000
0001
0000
,
0100
0000
1000
0100
0010
0000
0001
0000
,
0100
0000
0001
0010
0100
0000
0010
0000
,
1000
0000
0001
1000
0100
0000
0001
0000
,
0100
0000
1000
0001
0010
0000
0100
0000
,
0010
0000
1000
0001
1000
0000
0100
0010
,
0100
0020
0000
0000
,
0030
0000
0100
0010
0100
0000
0001
0000
,
0010
0000
1000
0100
1000
0000
0010
0000
,
0100
0000
0001
1000
0100
0000
0010
0000
,
0001
0000
0010
0001
0100
0000
0001
0000
,
1000
0000
0100
0100
1000
0000
0010
0010
,
0100
0000
0001
0001
0010
0000
1000
1000
,
0001
0000
1000
0010
1000
0001
1000
0000
,
0010
0000
0100
0001
0100
0010
0100
0000
,
0001
0200
0000
0310
,
0000
0002
0000
0103
,
0000
0020
0000
1030
,
0000
2000
0000
3001
,
0000
0000
0100
0010
0000
1000
0100
0000
,
0010
0000
0001
0100
0000
0010
1000
0000
,
0001
0000
0100
0001
0000
0010
1000
0000
,
0100
0000
1000
0001
0000
0100
0010
0000
,
1000
0020
0000
0100
0000
0000
0000
0001
,
0000
0000
0000
0100
0000
0000
0000
1030
,
0000
0010
0110
0001
,
0101
0000
1000
0000
1100
0000
0010
0010
,
0010
0000
0001
0000
0100
0020
0000
0030
,
1000
0200
0000
0000
0000
0000
0000
0300
,
0000
0000
1000
0000
0010
0200
0000
0300
,
0001
0020
0000
0000
0000
0000
0000
0000
,
0000
0230
0000
1000
,
0000
0010
0000
0301
,
0000
0100
0110
1000
,
1010
0000
0001
0000
0011
0000
1000
0100
,
0010
1001
0100
0101
,
1000
0000
1010
0000
0001
0000
0100
0100
,
0100
0011
0010
0110
,
1000
0000
1001
0000
0100
0000
0010
0010
,
0010
0000
0101
0000
1000
0000
0001
0001
,
0001
0000
1010
0000
0001
0000
1000
1000
,
1000
0000
0010
0001
1000
0010
0100
0000
,
0000
0200
0000
0000
,
0310
0000
0001
0020
0000
1030
0200
0000
,
0310
0000
0001
0200
0000
0310
0002
0000
,
0103
0000
0010
2000
0000
3100
0020
0000
,
0031
0000
0100
0002
0000
1003
0010
0000
,
0100
2000
0010
0000
0001
0000
0010
0000
,
0100
0001
0010
3100
,
0000
0010
0010
0000
1100
0000
0010
0000
,
1010
0000
0001
0000
0011
0000
0100
0100
,
0100
0011
0110
1100
,
1001
0000
1010
0000
0010
0000
1000
0100
,
1000
0110
0101
1001
,
1010
0000
0101
0000
0100
0000
0010
0100
,
0010
0000
1100
0000
1010
0000
0001
0100
,
1000
0000
0101
0000
0011
0000
1000
0010
,
0001
0000
1000
1000
0001
0000
0100
0100
,
0010
0000
0100
0001
0100
0010
0100
0000
,
0020
0030
0000
0000
;

//---------------dance-single - ----------------
#NOTES:
     dance-single:
     :
     Hard:
     13:
     0.584489,0.636444,0.488277,0.429347,0.138906,486.000000,428.000000,58.000000,51.000000,0.000000,0.000000,0.584489,0.636444,0.488277,0.429347,0.138906,486.000000,428.000000,58.000000,51.000000,0.000000,0.000000:
0000
0000
0000
0000
,
0000
0000
0000
0000
,
0000
0000
0000
0000
,
0000
0020
0000
0000
,
0030
0000
0110
0000
1000
0100
0010
0000
,
0010
0010
0001
0001
0100
0010
1000
0000
,
0100
0100
1000
1000
0100
0001
0010
0000
,
0001
0100
1000
0010
1000
0001
0100
0000
,
0010
1000
0100
1000
0100
0001
0010
0000
,
0100
0001
0010
0001
0010
0100
1000
0000
,
0001
0100
0010
1000
0100
0010
0001
0000
,
0100
0010
1000
0001
0010
0100
1000
0000
,
0001
0000
0000
0000
1000
0100
1000
0000
0010
0000
0100
0000
0001
0010
0001
0000
,
0100
0000
0001
0000
0100
1000
0100
0000
0001
0000
1000
0000
0010
0001
0010
0000
,
1000
0010
0100
0100
0001
0100
0010
1000
,
0100
0010
1000
1000
0010
0100
0010
0001
,
0010
0100
1001
0001
0100
1000
0010
0001
,
0100
1000
0110
0100
0010
0100
0001
0010
,
0100
0000
1000
0000
0100
0010
0100
0000
0001
0000
1000
0000
0100
0001
0100
0000
,
1000
0010
0200
0000
0320
0000
0130
0000
,
0110
0000
0001
0100
0010
1000
0100
1000
,
0001
0000
1000
0100
0000
1000
0010
0000
1000
0000
0001
0000
0100
0000
0010
0000
,
1000
0000
0001
0010
0000
0001
0100
0000
0010
0000
1000
0000
0001
0000
0100
0000
,
0010
0000
1000
0001
0000
1000
0010
0000
1000
0000
0001
0000
0100
0000
0010
0000
,
1000
0100
1010
0001
0010
0100
1000
0100
,
0010
0000
0001
0010
0000
1000
0100
0000
0001
0000
1000
0000
0010
0000
1000
0000
,
0100
0000
0010
0001
0000
0100
0010
0000
0100
0000
0001
0000
1000
0000
0010
0000
,
0100
0001
0100
1000
0100
0001
0010
0001
,
0010
1000
0200
0000
0320
0000
0130
0000
,
0001
2000
3200
0310
,
0001
0200
0302
1003
,
0001
0020
2030
3001
,
0110
0000
0001
0200
0000
0310
2000
0000
,
3100
0010
0001
0020
0000
0130
0002
0000
,
1003
0010
1000
0200
0000
0301
0020
0000
,
0130
1000
0001
0200
0000
0301
1000
0000
,
0010
0002
0000
0023
0000
0230
0000
2300
,
0000
3200
0000
0320
0000
0032
0000
0103
,
0000
0000
1000
0100
1000
0000
0000
0000
1010
0000
0000
0000
1001
0000
0000
0000
,
1100
0000
0000
0000
0011
0000
0000
0000
0110
0000
0000
0001
0100
0000
0001
0000
,
0010
0000
0100
1000
0010
0200
0000
0310
,
1000
0002
0000
0100
0000
1000
0000
0013
,
0000
0000
0001
0100
0010
0002
0000
0013
,
0100
2000
0000
0001
0000
0010
0000
3001
,
0000
0020
0000
0032
0000
0203
0000
2300
,
0000
3020
0000
0032
0000
0203
0000
1300
,
0000
0000
0001
1000
0001
0000
0000
0000
1100
0000
0000
0000
1001
0000
0000
0000
,
0010
0000
0000
0000
0101
0000
0000
0000
0110
0000
0000
0001
1000
0000
0100
0000
,
1000
0110
1010
1100
,
0011
0000
0000
0000
0110
0000
0000
0000
0101
0000
0000
1000
0100
0000
1000
0000
,
0010
0101
0011
1100
,
1010
0000
0000
0000
0110
0000
0000
0000
1001
0000
0100
0010
0100
0000
0001
0000
,
0100
0000
0000
0000
1010
0000
0000
0000
0110
0000
0001
0100
0001
0000
0010
0000
,
0100
0000
0000
0000
0101
0000
0000
0000
0110
0000
0010
1000
0100
0000
0010
0000
,
1000
0000
0010
0100
0001
0100
0010
0000
,
1000
0020
0000
0030
,
0110
0000
0001
0200
0000
0310
0002
0000
,
0103
0010
1000
0020
0000
0130
2000
0000
,
3100
0010
0001
0020
0000
0130
2000
0000
,
3010
0001
0010
0200
0000
0310
1000
0000
,
0001
1000
0200
0000
2300
0000
3200
0000
,
0320
0032
0203
2300
,
3010
0000
0100
0001
0100
0000
0000
0000
1001
0000
0000
0000
1100
0000
0000
0000
,
0011
0000
0000
0000
1100
0000
0000
0000
0110
0000
0000
0010
1000
0000
0001
0000
,
0100
0011
1001
1100
,
0110
0000
0000
0000
0101
0000
0000
0000
1001
0000
0100
1000
0010
0000
1000
0000
,
0110
0101
1010
1100
,
0101
0000
0000
0000
0110
0000
0000
0000
1001
0000
0010
0100
0001
0000
0010
0000
,
1000
0000
0000
0000
0101
0000
0000
0000
0110
0000
0001
1000
0100
0000
0010
0000
,
0100
0000
0000
0000
1010
0000
0000
0000
0110
0000
0001
0100
0010
0000
1000
0000
,
0100
0000
0011
0100
1001
0000
0110
0001
,
1100
0000
0000
0000
0100
0000
0010
0000
0001
0000
0010
0100
0010
0100
0010
0100
,
0010
0000
0000
0000
;

//---------------dance-double - ----------------
#NOTES:
     dance-double:
     :
     Easy:
     5:
     0.221288,0.304121,0.143116,0.109441,0.000000,184.000000,167.000000,17.000000,13.000000,0.000000,0.000000,0.221288,0.304121,0.143116,0.109441,0.000000,184.000000,167.000000,17.000000,13.000000,0.000000,0.000000:
// measure 0
00000000
00000000
00000000
00000000
,  // measure 1
00000000
00000000
00000000
00000000
,  // measure 2
00000000
00000000
00000000
00000000
,  // measure 3
00000000
00000000
00000000
00000000
,  // measure 4
00000000
00100000
00010000
01000000
,  // measure 5
00000000
00100000
00010000
00001000
,  // measure 6
00000000
00001000
00000100
00000001
,  // measure 7
00000000
00000010
00000100
00001000
,  // measure 8
00000000
00001000
00010000
00001000
,  // measure 9
00000000
00100000
00010000
01000000
,  // measure 10
00000000
00100000
10000000
01000000
,  // measure 11
00000000
00100000
00010000
00001000
,  // measure 12
00000000
00000100
00000100
00001000
,  // measure 13
00000010
00000100
00000100
00000001
,  // measure 14
00000000
00000010
00000010
00000100
,  // measure 15
00000000
00001000
00001000
00010000
,  // measure 16
00000000
00100000
00100000
00010000
,  // measure 17
00100000
01000000
01000000
10000000
,  // measure 18
01000000
00010000
00010000
00001000
,  // measure 19
00000100
00002000
00000000
00000000
,  // measure 20
00003000
00000100
00001000
00000010
,  // measure 21
00000000
00000100
00000100
00000001
,  // measure 22
00000000
00000010
00001000
00000100
,  // measure 23
00000000
00010000
00010000
00001000
,  // measure 24
00000000
00100000
00010000
01000000
,  // measure 25
00000000
10000000
00100000
00010000
,  // measure 26
00000000
00001000
00000100
00000001
,  // measure 27
00000000
00000010
00000100
00001000
,  // measure 28
00000000
00200000
00000000
00310000
,  // measure 29
00000000
00002000
00000000
00003100
,  // measure 30
00000000
00000020
00000000
00000031
,  // measure 31
00000000
00000200
00000000
00010300
,  // measure 32
00000000
00010000
00000000
00100000
,  // measure 33
00000000
01000000
00000000
10000000
,  // measure 34
00000000
01000000
00000000
00100000
,  // measure 35
00000000
00010000
00000000
00001000
,  // measure 36
00000020
00000000
00000000
00000000
,  // measure 37
00000000
00000000
00000000
00000030
,  // measure 38
00000000
00000110
00000000
00000100
,  // measure 39
00000000
00000110
00000000
00000010
,  // measure 40
00000000
00001000
00010000
00001000
,  // measure 41
00200000
00000000
00000000
00300000
,  // measure 42
00000000
00010000
00001000
00010000
,  // measure 43
00000200
00000000
00000000
00000000
,  // measure 44
00000300
00000020
00000000
00000000
,  // measure 45
00000000
00000000
00000000
00000030
,  // measure 46
00000000
00000001
00000000
00000101
,  // measure 47
00000000
00000100
00000000
00000101
,  // measure 48
00000000
00001000
00001000
00011000
,  // measure 49
00000000
00100000
00000000
00010000
,  // measure 50
00000000
01000000
01000000
01100000
,  // measure 51
00000000
01000000
00000000
10000000
,  // measure 52
00000000
00100000
00110000
00000000
,  // measure 53
00000000
00001000
00011000
00000000
,  // measure 54
00000000
00000100
00000000
00000010
,  // measure 55
00000000
00000020
00000000
00000030
,  // measure 56
00000000
00000100
00001000
00000100
,  // measure 57
00010000
00001000
00000000
00010000
,  // measure 58
00000000
01000000
00100000
01000000
,  // measure 59
10000000
00100000
00000000
01000000
,  // measure 60
00000000
00020000
00000000
00000000
,  // measure 61
00030000
00000200
00000000
00000000
,  // measure 62
00000300
00000110
00000000
00000011
,  // measure 63
00000000
00001100
00000000
00001000
,  // measure 64
00000000
00010000
00010000
00100000
,  // measure 65
00100000
01000000
01000000
01100000
,  // measure 66
00000000
00010000
00010000
00001000
,  // measure 67
00001000
00000100
00000100
00000110
,  // measure 68
00000000
00000011
00000000
00000100
,  // measure 69
00000000
00001100
00000000
00001000
,  // measure 70
00000000
00011000
00000000
00101000
,  // measure 71
00000000
00010000
01000000
00100000
,  // measure 72
02000000
03000000
00000000
00000000
;

//---------------dance-double - ----------------
#NOTES:
     dance-double:
     :
     Medium:
     10:
     0.328324,0.456181,0.303069,0.210464,0.000000,273.000000,237.000000,36.000000,25.000000,0.000000,0.000000,0.328324,0.456181,0.303069,0.210464,0.000000,273.000000,237.000000,36.000000,25.000000,0.000000,0.000000:
00000000
00000000
00000000
00000000
,
00000000
00000000
00000000
00000000
,
00000000
00000000
00000000
00000000
,
00000000
00000200
00000300
00002000
,
00003000
00010000
00001000
00100000
,
00000000
00000000
00010000
00010000
01000000
00000000
00100000
00000000
,
00000000
10000000
00100000
00010000
,
00000000
00000000
00001000
00001000
00000100
00000000
00000010
00000000
,
00000000
00001000
00000010
00000100
,
00000001
00000001
00000100
00000010
,
00000010
00001000
00000100
00010000
,
00010000
00001000
00100000
00010000
,
00010000
02000000
03000000
00200000
,
00300000
00020000
00030000
00002000
,
00003000
00000100
00001000
00000010
,
00000010
00000100
00000001
00001000
,
00001000
00000200
00000300
00002000
,
00003000
00020000
00030000
00200000
,
00300000
01010000
10000000
00110000
,
00000000
00020000
00000000
00000000
,
00031000
00000100
00001000
00000010
,
00000010
00000100
00000001
00000000
00000010
00000000
00000100
00000000
,
00000100
00001000
00010000
00000000
00100000
00000000
01000000
00000000
,
00100000
01000000
10000000
00000000
01000000
00000000
00100000
00000000
,
00010000
00000000
00001000
00010000
00001000
00000000
00000100
00000000
,
00001000
00000000
00000010
00001000
00000010
00000000
00000100
00000000
,
00000001
00000000
00000100
00000001
00000100
00000000
00000010
00000000
,
00001000
00000000
00010000
00001000
00010000
00000000
00100000
00000000
,
00010000
20000000
00000000
30100000
,
00000000
02000000
00000000
03010000
,
00000000
00002000
00000000
00003100
,
00000000
00000002
00000000
00001003
,
00000110
00000000
00000010
00001000
00000000
00010000
00100000
00000000
,
00010000
02000000
00000000
00000000
00000000
00000000
00000000
00000000
,
03000000
00000000
10000000
01000000
00000000
00010000
00001000
00000000
,
00000100
00000020
00000000
00000000
00000000
00000000
00000000
00000000
,
00001030
00000200
00000000
00000000
00000000
00000010
00000000
00000000
,
00000000
00000001
00000000
00000000
00000000
00000010
00000000
00000000
,
00000300
00001010
00000100
00001100
,
00000000
00011000
00100000
01010000
,
00000000
00000000
10000000
00000000
00100000
00010000
00000000
00000000
,
00001000
00020000
00000000
00000000
00000000
00000000
00000000
00030000
,
00000000
00000000
00001000
00000000
00000100
00000010
00000000
00000000
,
00000010
00000002
00000000
00000000
00000000
00000000
00000000
00000000
,
00000000
00000203
00000000
00000000
,
00000000
00001000
00000000
00001000
,
00000300
00011000
00100000
00110000
,
00000000
01010000
10000000
00110000
,
00000000
00011000
00000100
00011000
,
00001010
00000100
00000001
00000100
,
00000000
00000110
00001000
00000110
,
00001100
00011000
00100000
00010000
,
00000000
01010000
10000000
11000000
,
00000000
00110000
00001000
00001100
,
00000000
00000200
00001300
00000010
,
00000000
00000020
00000000
00000000
,
00000030
00000000
00000010
00000100
00000000
00000100
00000001
00000000
,
00001000
00000000
00000100
00001000
00000000
00010000
00100000
00000000
,
00010000
00000000
01000000
00010000
00000000
01000000
10000000
00000000
,
00100000
00000000
00010000
00001000
00000000
00000100
00001000
00000000
,
00000010
00000200
00000000
00000000
00000001
00000000
00000000
00000000
,
00000010
00000000
00000001
00000000
,
00000310
00000110
00001000
00001100
,
00010000
00011000
00100000
01010000
,
10000000
00110000
00010000
00011000
,
00010100
00011000
00001010
00000100
,
00000001
00000011
00000100
00000110
,
00001100
00011000
00101000
00010000
,
01000000
00000000
00100000
00000000
00010000
00000000
01000000
01000000
,
00010000
00000000
00100000
00000000
00010000
00000000
01000000
01000000
,
00100000
00000000
00010000
00001000
00001000
00000000
00010000
00001000
,
00001000
00000000
00001000
00000100
00001000
00000000
00000010
00000000
,
00000200
00000300
00000000
00000000
;

//---------------dance-double - ----------------
#NOTES:
     dance-double:
     :
     Hard:
     14:
     0.532775,0.636444,0.446184,0.235720,0.101023,443.000000,390.000000,53.000000,28.000000,0.000000,0.000000,0.532775,0.636444,0.446184,0.235720,0.101023,443.000000,390.000000,53.000000,28.000000,0.000000,0.000000:
00000000
00000000
00000000
00000000
,
00000000
00000000
00000000
00000000
,
00000000
00000000
00000000
00000000
,
00000000
00002000
00000000
00023000
,
00000000
00000000
00031000
00000100
00010000
00000000
00110000
00000000
,
00010000
01000000
10000000
00000000
00100000
00000000
00011000
00000000
,
00010000
00001000
00000100
00000000
00000010
00000000
00001100
00000000
,
00000010
00000001
00000100
00000000
00000010
00000000
00011000
00000000
,
00001000
00010000
00001000
00100000
00010000
01000000
00100000
00000000
,
10000000
01000000
10000000
00100000
00010000
00001000
00010000
00000000
,
00001000
00000100
00000010
00001000
00000001
00000100
00000010
00000000
,
00000010
00001000
00010000
00000100
00001000
00010000
00100000
00000000
,
01000000
00000000
00010000
00010000
01000000
01000000
10000000
00100000
,
00010000
00001000
00010000
00010000
00001000
00001000
00010000
00000100
,
00001000
00000010
00000100
00000100
00000001
00000100
00000010
00001000
,
00000100
00001000
00001000
00010000
00100000
00010000
01000000
10000000
,
00100000
00010000
00110000
00001000
00000100
00001000
00000010
00000100
,
00001000
00000010
00001010
00000100
00000001
00000010
00000100
00001000
,
00000010
00000000
00001000
00000000
00010000
00001000
00010000
00000000
00001000
00000000
00100000
00000000
00001000
00100000
00001000
00000000
,
00010000
00010000
02000000
00000000
00000000
00000000
03010000
00000000
,
00110000
00000000
00010000
00001000
00010000
00000100
00001000
00010000
,
00000010
00000000
00010000
00000010
00000000
00010000
00000010
00000000
00001000
00000000
00000100
00000000
00000001
00000000
00000100
00000000
,
00000010
00000000
00001000
00000010
00000000
00000100
00000010
00000000
00001000
00000000
00000100
00000000
00010000
00000000
00001000
00000000
,
00010000
00000000
00100000
01000000
00000000
00010000
01000000
00000000
00010000
00000000
00100000
00000000
10000000
00000000
00100000
00000000
,
00010000
00000000
00001000
00000000
00010000
00001000
00010000
00000000
00000100
00000000
00001000
00000000
00000010
00000000
00001000
00000000
,
00000010
00000000
00000100
00000000
00000010
00000001
00000010
00000000
00000100
00000000
00000001
00000000
00001000
00000000
00000100
00000000
,
00001000
00010000
00100000
01000000
10000000
00010000
01000000
10000000
,
00100000
00010000
00001000
00000100
00000001
00000010
00000100
00001000
,
00010000
00001000
00020000
00000000
00000000
00000000
00032000
00000000
,
00000000
00003200
00000000
00000302
,
00000000
00002003
00000000
00023000
,
00000000
00230000
00000000
00000000
,
01300000
00000000
10000000
02000000
00000000
03100000
00020000
00000000
,
00031000
00000100
00000010
00000010
00000000
00000100
00000001
00000000
,
00000100
00000000
00000010
00002000
00000000
00013000
00200000
00000000
,
01300000
10000000
01000000
00200000
00000000
01300000
01000000
00000000
,
00100000
00020000
00000000
00001000
00000000
01000000
00000000
00001000
,
00000000
00100000
00000000
00001000
00000000
01000000
00000000
00031000
,
00000000
00000000
00010000
00001000
00010000
00000000
00000000
00000000
00011000
00000000
00000000
00000000
00000100
00000000
00000000
00000000
,
00001000
00000000
00001010
00000000
00000011
00000000
00000100
00001000
,
00000010
00000000
00001000
00010000
00100000
01000000
00000000
10000000
,
01000000
00200000
00000000
00000000
01000000
00000000
10300000
00000000
,
00000000
00000000
00100000
00010000
00001000
00000100
00000000
00000010
,
00001000
00000020
00000000
00000000
00000000
00000000
00000000
00000000
,
00000000
00000230
00000000
00000010
,
00000000
00000001
00000000
00001000
,
00000300
00001100
00001000
00011000
,
00100000
00000000
00000000
00000000
00010000
00000000
00000000
00000000
01010000
00000000
00000000
10000000
01000000
00000000
01000000
00000000
,
00010000
00110000
00011000
00010100
,
00001010
00000000
00000000
00000000
00000110
00000000
00000000
00000000
00000011
00000000
00000000
00000010
00000100
00000000
00000100
00000000
,
00001000
00001100
00011000
00101000
,
01010000
00000000
00000000
00000000
10010000
00000000
00000000
00000000
00100000
00000000
00000000
00010000
00100000
00000000
00100000
00000000
,
00010000
00000000
00011000
00000000
00001100
00000000
00000010
00001000
,
00000010
00000000
00000101
00000000
00000110
00000000
00000010
00001000
,
00010000
00000000
00001000
00010000
00001000
00100000
00010000
00000000
,
00100000
00200000
00000000
00300000
,
01010000
00000000
01000000
20000000
00000000
30010000
00200000
00000000
,
00310000
00001000
00010000
00002000
00000000
00013000
00000200
00000000
,
00001300
00000010
00000100
00000002
00000000
00000013
00002000
00000000
,
00003100
00001000
00010000
02000000
00000000
03100000
10000000
00000000
,
00010000
00002000
00100000
00000000
00010000
00000000
00000100
00000000
,
00100000
00010000
00000100
00013000
,
00000100
00000010
00000110
00000000
00000011
00000000
00001100
00000000
,
00001010
00000000
00000000
00000000
00001100
00000000
00000000
00000000
00010100
00000000
00000000
00010000
00001000
00000000
00010000
00000000
,
00100000
00110000
01010000
00101000
,
01100000
00000000
00000000
00000000
10010000
00000000
00000000
00000000
01010000
00000000
00000000
00100000
00010000
00000000
00100000
00000000
,
00010000
00011000
00001100
00000110
,
00000011
00000000
00000000
00000000
00001100
00000000
00000000
00000000
00010100
00000000
00000000
00001000
00010000
00000000
00010000
00000000
,
00100000
00000000
00000000
00000000
01100000
00000000
00000000
00000000
11000000
00000000
00000000
00100000
01000000
00000000
01000000
00000000
,
00010000
00000000
00000000
00000000
00011000
00000000
00000000
00000000
00001100
00000000
00000000
00000010
00000100
00000000
00000100
00000000
,
00000010
00000000
00001001
00000100
00000010
00000000
00001100
00010000
,
00100000
00000000
00000000
00000000
00010000
00001000
00010000
00001000
00010000
00001000
00100000
00001000
00010000
00001000
01000000
00000000
,
00100000
00000000
00000000
00000000
;
