#TITLE:TACTICS;
#SUBTITLE:;
#ARTIST:The Yellow Monkey;
#TITLETRANSLIT:;
#SUBTITLETRANSLIT:;
#ARTISTTRANSLIT:;
#GENRE:ANIME;
#CREDIT:SAIKIO;
#BANNER:TACTICS-banner.png;
#BACKGROUND:bg.png;
#LYRICSPATH:;
#CDTITLE:Saikio Simfiles.png;
#MUSIC:TACTICS.ogg;
#OFFSET:0.350000;
#SAMPLESTART:61.595001;
#SAMPLELENGTH:12.000000;
#SELECTABLE:YES;
#BPMS:0.000000=117.010002
;
#STOPS:
;
#BGCHANGES:0.500=TACTICS.avi=1.000=0=0=0=StretchNoLoop====,
99999=-nosongbg-=1.000=0=0=0 // don't automatically add -songbackground-
;
#KEYSOUNDS:;
#ATTACKS:;

//---------------dance-single - ----------------
#NOTES:
     dance-single:
     :
     Beginner:
     3:
     0.136550,0.192176,0.000000,0.000000,0.000000,95.000000,95.000000,0.000000,0.000000,0.000000,0.000000,0.136550,0.192176,0.000000,0.000000,0.000000,95.000000,95.000000,0.000000,0.000000,0.000000,0.000000:
0000
0000
0000
0000
,
0000
0000
0000
0000
,
0000
0000
0000
0000
,
0000
0000
0000
0000
,
0000
0100
0000
0000
,
0000
0000
0000
0000
,
0000
0001
0000
1000
,
0000
0001
0001
0000
,
0000
0100
0000
0010
,
0000
0100
0100
0000
,
0000
1000
0000
0100
,
0000
1000
1000
0000
,
0010
0000
0100
0000
,
0010
0000
0000
0000
,
0000
0001
0000
0100
,
0000
0010
0010
0000
,
0000
0010
0000
1000
,
0000
0100
0100
0000
,
0000
0010
0000
0100
,
0000
0001
0001
0000
,
0000
0100
0000
0010
,
0000
1000
0000
0000
,
0000
1000
0001
0000
,
0100
0000
0100
0000
,
0000
0001
1000
0000
,
0010
0000
0010
0000
,
0000
0100
1000
0000
,
0001
0000
0001
0000
,
0000
0100
0100
0100
,
0000
0001
0000
0100
,
0000
1000
0001
1000
,
0000
0001
0001
0000
,
0000
0010
0100
0010
,
0000
1000
1000
0000
,
0000
0100
0000
0001
,
0000
0100
0000
0010
,
0000
1000
1000
1000
,
0000
0001
0001
0001
,
0000
0100
0001
0100
,
0000
0010
1000
0000
,
0000
0010
1000
0010
,
0000
0100
0001
0000
,
0000
0001
0100
1000
,
0000
1000
0100
0001
,
0000
0010
0010
0100
,
0000
0001
0001
1000
,
1000
0100
0000
0100
,
0000
0010
0000
0010
;

//---------------dance-single - ----------------
#NOTES:
     dance-single:
     :
     Easy:
     5:
     0.206981,0.289773,0.080493,0.110677,0.000000,144.000000,136.000000,8.000000,11.000000,0.000000,0.000000,0.206981,0.289773,0.080493,0.110677,0.000000,144.000000,136.000000,8.000000,11.000000,0.000000,0.000000:
0000
0000
0000
0000
,
0000
0000
0000
0000
,
0000
0000
0000
0000
,
0000
0000
0000
0000
,
0000
0200
0000
0000
,
0300
0000
0000
0000
,
0000
0010
0010
1000
,
0000
0100
0001
0100
,
0000
0001
0001
1000
,
0000
0100
1000
0100
,
0000
0010
0010
0001
,
0000
1000
0100
0001
,
0000
0001
0100
1000
,
0010
0000
0010
0010
,
0000
0001
0001
0100
,
1000
0100
0010
0100
,
0000
1000
1000
0100
,
0010
0100
0001
0010
,
0000
0100
0100
0010
,
1000
0010
0001
0001
,
0000
0001
0100
1000
,
0100
0010
0000
0010
,
0000
2000
3100
0100
,
0010
0100
0001
0000
,
0000
0002
1003
1000
,
0100
1000
0010
0000
,
0000
0200
0310
0010
,
1000
0001
0100
0000
,
0000
0001
0001
1000
,
1000
0100
0010
0001
,
0000
0100
0001
0200
,
0300
0010
1100
0000
,
0000
0010
0001
2000
,
3000
0010
0101
0000
,
0000
0001
0100
1000
,
0010
1000
0100
0001
,
0000
2000
0001
0001
,
3100
0010
0100
0110
,
0110
0001
0100
1000
,
1000
0001
0110
0000
,
0010
1000
0010
0100
,
0100
0010
1001
0000
,
0100
1000
1000
0020
,
0030
0001
0001
0200
,
0300
0001
1001
1000
,
1001
0100
0010
0100
,
0010
2000
3000
0100
,
0100
0020
0030
0001
,
0100
0000
0000
0000
;

//---------------dance-single - ----------------
#NOTES:
     dance-single:
     :
     Medium:
     8:
     0.293223,0.410512,0.090554,0.090554,0.000000,204.000000,195.000000,9.000000,9.000000,0.000000,0.000000,0.293223,0.410512,0.090554,0.090554,0.000000,204.000000,195.000000,9.000000,9.000000,0.000000,0.000000:
// measure 0
0000
0000
0000
0000
,  // measure 1
0000
0000
0000
0000
,  // measure 2
0000
0000
0000
0000
,  // measure 3
0000
0000
0000
0000
,  // measure 4
0000
0200
0000
0000
,  // measure 5
0300
0000
0000
0000
,  // measure 6
0000
0000
1000
0000
0001
0010
0000
0000
,  // measure 7
0000
0000
1000
0000
0010
0100
0000
0000
,  // measure 8
0000
0000
0010
0000
1000
0100
0000
0000
,  // measure 9
0000
0000
0001
0000
0010
0001
0000
0000
,  // measure 10
0000
0000
0001
0000
1000
0100
0000
0000
,  // measure 11
0000
0100
0001
0000
,  // measure 12
0010
1000
0100
0001
,  // measure 13
0100
0000
0010
1000
,  // measure 14
0100
0000
1000
0000
0100
0010
0000
0000
,  // measure 15
0100
0000
0001
0100
0010
0000
1000
0000
,  // measure 16
0001
0000
0010
0000
0001
0100
0000
0000
,  // measure 17
1000
0010
1000
0000
0100
0001
0100
0000
,  // measure 18
0010
0000
0001
0000
0010
0100
0000
0000
,  // measure 19
0100
0000
0010
0000
0100
0001
0000
0000
,  // measure 20
0010
1000
0001
0000
1000
0010
0100
0000
,  // measure 21
0001
0100
0010
0000
0100
0000
0010
0010
,  // measure 22
0100
0000
0002
0000
0103
0000
0010
1000
,  // measure 23
0010
0000
1000
1000
0001
0000
0100
0000
,  // measure 24
0010
0000
2000
0000
3010
0000
0001
0100
,  // measure 25
0001
0000
0100
0100
0010
0000
0001
0000
,  // measure 26
1000
0000
0002
0000
1003
0000
0100
0010
,  // measure 27
0100
0000
0001
0001
0010
0000
1000
0000
,  // measure 28
0010
0000
1000
0001
1000
0000
0010
0000
,  // measure 29
0100
0000
0001
1000
0001
0000
0100
0010
,  // measure 30
0100
0010
2000
0000
3001
0000
0010
0001
,  // measure 31
0100
0000
1000
0001
1000
1000
0000
0000
,  // measure 32
0010
0000
0002
0000
0103
0000
0010
1000
,  // measure 33
0001
0000
0100
0100
0010
0100
0000
0000
,  // measure 34
0001
0000
1000
0000
1100
0000
0010
0100
,  // measure 35
0001
0000
0100
0000
0011
0000
0100
0010
,  // measure 36
1000
0011
1010
1100
,  // measure 37
0101
0000
0110
0000
1001
0000
1000
0001
,  // measure 38
1000
0001
0100
0010
0100
0000
0001
0000
,  // measure 39
1000
0000
0100
1000
0010
0000
0100
0000
,  // measure 40
0001
0000
0010
0100
0010
0000
0001
0000
,  // measure 41
0100
0000
0010
1000
0100
0000
1000
0000
,  // measure 42
0010
2000
0001
3100
,  // measure 43
0010
0002
0100
0013
,  // measure 44
1000
0000
0010
0010
0100
0100
0001
0000
,  // measure 45
0101
0000
1000
0010
1000
0000
0010
0000
,  // measure 46
0100
0002
0103
0010
,  // measure 47
1000
0000
0001
0000
1000
0001
1000
0000
,  // measure 48
0100
0000
0000
0000
;

//---------------dance-single - ----------------
#NOTES:
     dance-single:
     :
     Hard:
     11:
     0.421149,0.482956,0.140862,0.191170,0.221355,293.000000,279.000000,14.000000,19.000000,0.000000,0.000000,0.421149,0.482956,0.140862,0.191170,0.221355,293.000000,279.000000,14.000000,19.000000,0.000000,0.000000:
0000
0000
0000
0000
,
0000
0000
0000
0000
,
0000
0000
0000
0000
,
0000
0000
0000
0000
,
0000
0020
0000
0000
,
0030
0000
0000
0000
,
0000
0000
0000
0000
0001
0000
0000
0000
0100
0000
0000
0010
0000
0000
0100
0000
,
0001
0000
0000
0000
0010
0000
0000
0000
1000
0000
0000
0100
0000
1000
0010
0000
,
1000
0000
0000
0000
0001
0000
0000
0000
0100
0000
0000
0010
0000
0000
1000
0000
,
0010
0000
0000
0000
0010
0000
0000
0000
1000
0000
0000
0010
0000
0100
0010
0000
,
0100
0000
0000
0000
1000
0000
0000
0000
0100
0000
0000
0001
0000
0000
0010
0000
,
0100
0000
0000
0000
0001
0000
1000
0000
0100
0000
0000
1000
0000
0001
0010
0000
,
0100
0000
0001
0100
1000
0100
0001
0010
,
1000
0000
0001
0000
0000
0000
0000
0000
0100
0000
0000
0001
0100
0000
0010
0000
,
0100
0010
1000
0000
0200
0000
0000
0000
1300
0000
0000
0100
0000
0000
0010
0000
,
0001
0000
0100
0000
0010
0000
1000
0000
0100
0000
0010
0001
0000
0000
0000
0000
,
0100
0000
1000
0000
0020
0000
0000
0000
0130
0000
0000
0010
0000
0000
0100
0000
,
0001
0000
0010
0000
0001
0000
0000
0000
1000
0000
0100
1000
0000
0000
0010
0000
,
0100
0000
0001
0000
2000
0000
0000
3000
0010
0000
0000
1000
0000
0000
0001
0000
,
0100
0000
0010
0000
1000
0000
0000
0000
0100
0000
0010
0001
0000
0000
0010
0000
,
0100
1000
0100
1000
0010
0100
0001
0100
,
0001
0000
0010
0000
0100
0000
0000
0010
0001
0000
0000
1000
0100
0000
0010
0000
,
0010
0100
0010
0000
1000
0000
0000
0000
1010
0000
0000
0010
0000
0000
0100
0000
,
0001
0000
1000
0000
0100
0000
1000
0000
0010
0000
1000
0001
0000
0000
1000
0000
,
0010
0000
0010
0000
0001
0000
0000
0000
1001
0000
0000
0010
0000
0000
0001
0000
,
1000
0000
0001
0000
0010
0000
0001
0000
0100
0000
0000
0010
0000
0000
1000
0000
,
0100
0000
1000
0000
0010
0000
0000
0000
0101
0000
0000
1000
0000
0000
0010
0000
,
0100
0000
0010
0000
1000
0000
0010
0000
0001
0000
0100
0010
0000
0000
1000
0000
,
0100
1000
0001
0001
0100
0100
0010
0001
,
0010
0000
1000
0000
0020
0000
0000
0000
0030
0000
0000
0001
0010
0000
0000
1000
,
0100
1000
0100
0000
0011
0000
0100
0000
0010
0000
0002
0000
0000
0000
0103
0000
,
0000
0010
1100
0001
1000
0020
0000
0000
,
0130
0000
1001
0010
0100
2000
0000
3001
,
0000
0010
0001
0110
1000
0200
0000
0000
,
0300
0000
0001
0000
1000
0000
0000
0000
1000
0000
0010
1000
0000
0000
0001
0000
,
0100
0000
0100
0000
0010
0000
1000
0000
0001
0000
0010
0000
1001
0000
0000
1001
,
0000
0000
0000
0000
2000
0000
3100
0000
0002
0000
1003
0000
0200
0000
0310
0001
,
0000
0000
0100
0000
1000
0000
0100
0000
0010
0000
0001
1000
0000
0100
0000
1000
,
0010
1000
0010
0000
0001
0000
0100
0000
0010
0000
0100
0001
0000
0000
0010
0000
,
0000
0100
0010
1100
0001
2200
0000
0000
,
3300
0000
0010
0000
0100
0000
0001
0000
0100
0000
0010
1000
0000
0000
0100
0000
,
0000
0010
0100
0011
1000
0022
0000
0000
,
0033
0000
1000
0000
0100
0000
0001
0000
1000
0000
1000
0000
0010
0000
0100
0001
,
0000
0000
1000
0000
0100
0000
1000
0000
0010
0000
0100
0000
0001
0000
0000
0101
,
0000
0000
0000
0000
1000
0000
0100
0000
0001
0000
0100
0000
1000
0000
0010
0100
,
0000
0000
1000
0100
0001
0010
0001
0010
,
0100
0000
0100
2000
0000
0000
0000
0000
3100
0000
0010
0200
0000
0000
0000
0300
,
0001
0000
0100
0000
0020
0000
0000
0000
1030
0000
0001
1000
0000
0000
0000
0000
,
0100
0000
0000
0000
;

//---------------dance-double - ----------------
#NOTES:
     dance-double:
     :
     Easy:
     5:
     0.201232,0.265626,0.060369,0.100616,0.000000,140.000000,134.000000,6.000000,10.000000,0.000000,0.000000,0.201232,0.265626,0.060369,0.100616,0.000000,140.000000,134.000000,6.000000,10.000000,0.000000,0.000000:
00000000
00000000
00000000
00000000
,
00000000
00000000
00000000
00000000
,
00000000
00000000
00000000
00000000
,
00000000
00000000
00000000
00000000
,
00000000
00000200
00000000
00000000
,
00000300
00000000
00000000
00000000
,
00000000
00010000
00001000
00010000
,
00000000
00100000
00010000
01000000
,
00000000
10000000
01000000
00100000
,
00000000
00010000
00001000
00010000
,
00000000
00001000
00000100
00000010
,
00000000
00000001
00000100
00000010
,
00000000
00001000
00001000
00000100
,
00010000
00001000
00000000
00100000
,
00000000
00010000
01000000
10000000
,
01000000
00100000
00100000
00000000
,
00000000
00001000
00000100
00000001
,
00000010
00000100
00000010
00000010
,
00000000
00001000
00010000
00000100
,
00001000
00010000
00100000
00000000
,
00010000
01000000
10000000
00100000
,
00010000
00001000
00000000
00010000
,
00000000
00002000
00003100
00000010
,
00000010
00000001
00000100
00000100
,
00000000
00000020
00000031
00001000
,
00001000
00000100
00001000
00000000
,
00000000
00200000
00310000
01000000
,
00100000
00100000
01000000
00000000
,
00000000
00010000
00001000
00000100
,
00000010
00002000
00003000
00001000
,
00000000
00010000
01000000
01000000
,
00000000
00100000
10000000
00010000
,
00000000
00010000
00001000
00001000
,
00000000
00001000
00000100
00000100
,
00000000
00000001
00000100
00000010
,
00000010
00000100
00001000
00000100
,
00000000
00011000
00100000
01010000
,
00100000
00010000
01000000
02000000
,
03000000
00100000
10000000
00010000
,
00010000
00100000
00020000
00030000
,
00000000
00001000
00000100
00000001
,
00000001
00000010
00000200
00000300
,
00000000
00010000
00100000
01010000
,
00000000
00001000
00000100
00001010
,
00000000
00000100
00000110
00000001
,
00000101
00001000
00000100
00001000
,
00001000
00020000
00030000
00100000
,
01000000
00200000
00300000
00010000
,
01000000
00000000
00000000
00000000
;

//---------------dance-double - ----------------
#NOTES:
     dance-double:
     :
     Medium:
     9:
     0.297535,0.386365,0.080493,0.080493,0.000000,207.000000,199.000000,8.000000,8.000000,0.000000,0.000000,0.297535,0.386365,0.080493,0.080493,0.000000,207.000000,199.000000,8.000000,8.000000,0.000000,0.000000:
00000000
00000000
00000000
00000000
,
00000000
00000000
00000000
00000000
,
00000000
00000000
00000000
00000000
,
00000000
00000000
00000000
00000000
,
00000000
00200000
00000000
00000000
,
00300000
00000000
00000000
00000000
,
00000000
00000000
00010000
00000000
00001000
00010000
00000000
00000000
,
00000000
00000000
00000100
00000000
00000010
00001000
00000000
00000000
,
00000000
00000000
00000001
00000000
00000100
00000010
00000000
00000000
,
00000000
00000000
00001000
00000000
00100000
00010000
00000000
00000000
,
00000000
00000000
10000000
00000000
00100000
10000000
00000000
00000000
,
00000000
00000000
01000000
00000000
01000000
00100000
00000000
00000000
,
00010000
00000000
00001000
00010000
00001000
00000000
00000100
00001000
,
00000100
00000000
00000010
00000000
00000100
00000000
00000001
00000001
,
00000100
00000000
00000010
00000000
00001000
00000100
00000000
00000000
,
00001000
00000000
00100000
00010000
01000000
00000000
00100000
00000000
,
00010000
00000000
10000000
00000000
10000000
00010000
00000000
00000000
,
00010000
00100000
00001000
00000000
00001000
00010000
00000100
00000000
,
00001000
00000000
00001000
00000000
00000100
00001000
00000000
00000000
,
00000010
00000000
00001000
00000100
00001000
00000000
00000010
00000000
,
00000001
00000000
00000100
00001000
00010000
00000000
00100000
01000000
,
00010000
00000000
00100000
00000000
10000000
00000000
00010000
00010000
,
00100000
00000000
00001000
00010000
00001000
00000000
00000100
00000000
,
00001000
00000000
00000010
00000100
00000010
00000000
00000001
00000000
,
00000100
00000000
00000010
00001000
00000100
00000000
00001000
00000000
,
00010000
00000000
00100000
01000000
00100000
00000000
00010000
00000000
,
00100000
00000000
01000000
10000000
00010000
00000000
00100000
00000000
,
00001000
00000000
00010000
00001000
00000100
00000000
00000010
00000000
,
00000100
00000000
00000001
00000100
00001000
00000000
00010000
00000000
,
00100000
00000000
10000000
01000000
00100000
00000000
00010000
00000000
,
00001000
00000000
00010000
00100000
00010000
00000000
01010000
00000000
,
00100000
00000000
10000000
10000000
00010000
00200000
00000000
00300000
,
00000000
00000000
00010000
00001000
00010000
00000000
00001100
00000000
,
00000100
00000000
00000010
00000010
00000100
00000002
00000000
00000003
,
00000000
00000010
00000200
00000000
00000310
00000000
00001000
00000100
,
00001000
00000000
00020000
00000000
00031000
00000000
00100000
00001000
,
00100000
01010000
00110000
00011000
,
00001100
00000000
00001000
00000010
00000100
00000000
00001000
00000010
,
00000100
00000100
00000001
00000100
00000010
00000000
00001100
00000000
,
00001000
00000000
00010000
00001000
00010000
00200000
00000000
00300000
,
00000000
00000000
00010000
00100000
01000000
00000000
11000000
00000000
,
00010000
00000000
00100000
00001000
00100000
00002000
00000000
00003000
,
00000000
00000100
00000010
00000000
00000001
00000010
00000100
00000000
,
00001000
00000000
00010000
00100000
01000000
00000000
10000000
00000000
,
01000000
00000000
00100000
00001000
00100000
00001000
00010000
00000000
,
00001000
00000000
00001000
00000100
00000010
00000000
00000001
00000000
,
00000100
00000020
00000130
00001000
,
00010000
00010000
00100000
00000000
00010000
00000000
00100000
00000000
,
01000000
00000000
00000000
00000000
;

//---------------dance-double - ----------------
#NOTES:
     dance-double:
     :
     Hard:
     10:
     0.378028,0.458808,0.080493,0.150924,0.160985,263.000000,255.000000,8.000000,15.000000,0.000000,0.000000,0.378028,0.458808,0.080493,0.150924,0.160985,263.000000,255.000000,8.000000,15.000000,0.000000,0.000000:
00000000
00000000
00000000
00000000
,
00000000
00000000
00000000
00000000
,
00000000
00000000
00000000
00000000
,
00000000
00000000
00000000
00000000
,
00000000
00000200
00000000
00000000
,
00000300
00000000
00000000
00000000
,
00000000
00000000
00000000
00000000
00001000
00000000
00000000
00000000
00100000
00000000
00000000
00010000
00000000
00000000
01000000
00000000
,
01000000
00000000
00100000
00000000
10000000
00000000
00000000
00000000
00010000
00000000
00000000
00100000
00000000
00000000
00001000
00000000
,
00001000
00000000
00000100
00000000
00000010
00000000
00000000
00000000
00000100
00000000
00000000
00000001
00000000
00000000
00000010
00000000
,
00000010
00000000
00000100
00000000
00001000
00000000
00000000
00000000
00000100
00000000
00000000
00000100
00000000
00000000
00010000
00000000
,
00001000
00000000
00100000
00000000
00001000
00000000
00000000
00000000
00010000
00000000
00000000
01000000
00000000
00000000
00100000
00000000
,
10000000
00000000
00100000
00000000
00010000
00000000
00010000
00000000
01000000
00000000
00000000
01000000
00000000
00000000
00000000
00000000
,
00100000
10000000
00010000
10000000
00100000
00010000
00001000
00000100
,
00000010
00000000
00000100
00000000
00000001
00000000
00000000
00000000
00000010
00000000
00000000
00001000
00000100
00000000
00000010
00000000
,
00000010
00000000
00000000
00000000
00002000
00000000
00000000
00000000
00003100
00000000
00000000
00010000
00000000
00001000
00010000
00000000
,
00000100
00000000
00000000
00000000
00010000
00000000
00100000
00000000
01000000
00000000
00000000
10000000
00000000
00000000
01000000
00000000
,
00100000
00000000
00000000
00000000
00200000
00000000
00000000
00000000
00310000
00000000
00000000
01000000
00000000
00001000
01000000
00000000
,
00100000
00000000
00001000
00000000
00000200
00000000
00000000
00000000
00000310
00000000
00000000
00000020
00000000
00000000
00000000
00000000
,
00000130
00000000
00000000
00000000
00000010
00000000
00000000
00000000
00000010
00000000
00000000
00000100
00000000
00000001
00000100
00000000
,
00000001
00000000
00000010
00000000
00001000
00000000
00000000
00000000
00000100
00000000
00000000
00010000
00000000
00000000
00000000
00000000
,
00001000
00010000
00000100
00010000
00001000
01000000
00010000
00100000
,
01000000
00000000
00100000
00000000
00010000
00000000
00000000
00100000
00010000
00000000
00000000
01000000
00010000
00000000
01000000
00000000
,
00100000
00000000
20000000
00000000
00010000
30010000
00000000
00100000
,
00010000
00001000
00000100
00001000
00000010
00000100
00000000
00000000
,
00000010
00000000
00000002
00000000
00001000
00001003
00000000
00000100
,
00001000
00010000
00100000
00010000
01000000
00100000
00000000
00000000
,
10000000
00000000
00200000
00000000
01000000
01300000
00000000
00100000
,
00010000
00001000
00010000
00000100
00001000
00000010
00000000
00000000
,
00000001
00000000
00000010
00000010
00000100
00000100
00001000
00000000
,
00010000
00000000
00001000
00000000
00200000
00000000
00000000
00000000
00000000
00000000
00310000
01000000
00000000
00000000
00000000
00010000
,
10000000
00010000
10000000
00000000
01000000
00000000
00010000
00000000
01100000
00000000
00100000
00000000
00000000
01000000
00000000
00000000
,
00000000
00010000
00100000
00010000
00001000
00000200
00000000
00000300
,
00010000
00000000
00000000
00000000
00000010
00000000
00000100
00000000
00000110
00000000
00000001
00000000
00000000
00000010
00000000
00000000
,
00000000
00001000
00000100
00001000
00010000
00200000
00000000
00300000
,
00000000
00000000
00001000
00000000
00001000
00000000
00000000
00000000
00000100
00000000
00000010
00000100
00000000
00000000
00001000
00000000
,
00000000
00100000
00010000
00100000
01000000
10000000
20000000
00000000
,
30010000
00000000
00000000
00000000
00100000
00000000
00010000
00000000
00001000
00000000
00001000
00000000
00010000
00000000
00010000
00001000
,
00000000
00000000
00000100
00000000
00001000
00000000
00000010
00000000
00000100
00000000
00000010
00000000
00000100
00000000
00000000
00001000
,
00000001
00001000
00000001
00000000
00000100
00000000
00000010
00000000
00001000
00000000
00001100
00000000
00000000
00000100
00000000
00000000
,
00000000
00001000
00010000
00100000
01000000
20000000
00000000
30000000
,
00100000
00000000
00000000
00000000
01000000
00000000
00100000
00000000
00010000
00000000
01010000
00000000
00000000
01000000
00000000
00000000
,
00000000
00010000
00001000
00000100
00000010
00000002
00000000
00000003
,
00000000
00001000
00000100
00001000
00000100
00001000
00000010
00000100
,
00000000
00000000
00000001
00000000
00000200
00000000
00000000
00000300
00000010
00000000
00001000
00000000
00000100
00000000
00000000
00010000
,
00000000
00000000
01100000
01100000
01010000
01010000
00100000
01000000
,
00000000
00000000
00010000
00001000
00000100
00000010
00000100
00000001
,
00000000
00000000
00000000
00000000
00000100
00000000
00000000
00000000
00001000
00000000
00000000
00000010
00000000
00000000
00000100
00000000
,
00000001
00000000
00000100
00000000
00000010
00000000
00000000
00000000
00001000
00000000
00000000
00010000
00000000
00000000
00000000
00000000
,
01000000
00000000
00000000
00000000
;
