#TITLE:シルエット;
#SUBTITLE:;
#ARTIST:KANA-BOON;
#TITLETRANSLIT:Silhouette;
#SUBTITLETRANSLIT:;
#ARTISTTRANSLIT:KANA-BOON;
#GENRE:J-ROCK;
#CREDIT:SAIKIO;
#BANNER:Silhouette-banner.png;
#BACKGROUND:bg.png;
#LYRICSPATH:;
#CDTITLE:Saikio Simfiles.png;
#MUSIC:Silhouette.ogg;
#OFFSET:0.280000;
#SAMPLESTART:54.160034;
#SAMPLELENGTH:10.599987;
#SELECTABLE:YES;
#BPMS:0.000000=183.020004
;
#STOPS:
;
#BGCHANGES:0.500=Silhouette.avi=0=0=0=StretchNoLoop====,
99999=-nosongbg-=1.000=0=0=0 // don't automatically add -songbackground-
;
#KEYSOUNDS:;
#ATTACKS:;

//---------------dance-single - ----------------
#NOTES:
     dance-single:
     :
     Beginner:
     4:
     0.206399,0.260356,0.015619,0.000000,0.000000,185.000000,183.000000,2.000000,0.000000,0.000000,0.000000,0.206399,0.260356,0.015619,0.000000,0.000000,185.000000,183.000000,2.000000,0.000000,0.000000,0.000000:
0000
0000
0000
0000
,
0000
0000
0000
0000
,
0000
0000
0000
0000
,
0000
0000
0000
0000
,
0000
0000
0000
0000
,
0000
0000
0001
0000
,
0000
1000
0000
0000
,
0100
0000
0000
0000
,
0000
0000
0010
0010
,
0010
0000
0100
0000
,
0010
0000
0100
0000
,
0000
0000
0001
0000
,
1000
0000
0001
0000
,
0000
0000
1000
0000
,
0100
0000
1000
0000
,
0000
0000
0010
0000
,
0001
0000
0010
0000
,
0000
0000
0100
0000
,
0010
0000
0010
0000
,
0000
0000
1000
0000
,
1000
0000
0001
0000
,
0001
0000
0000
0000
,
0100
0010
0000
0000
,
1000
0001
0000
0000
,
1000
0000
0001
0000
,
1000
0000
0010
0000
,
0000
0100
0000
0000
,
0000
0100
0000
0010
,
0000
1000
0000
0010
,
0000
0000
0000
0000
,
0001
1000
0000
0000
,
0100
0010
0000
0000
,
1000
0000
0100
0000
,
1000
0000
0010
0010
,
0000
0000
1000
1000
,
0000
0000
0001
0001
,
0000
0000
1001
0000
,
0000
0000
1000
0000
,
0001
0000
0100
0000
,
0100
0000
0001
0000
,
1000
0000
0010
0000
,
0000
0000
0001
0001
,
0001
0000
1000
0000
,
0100
0000
1000
1000
,
1000
0000
0010
0000
,
0001
0000
0000
0000
,
0100
0000
0010
0000
,
0001
0000
1000
0000
,
0100
0000
0010
0000
,
0100
0000
0010
0010
,
0010
0000
0100
0000
,
0001
0000
0100
0100
,
0100
0000
0010
0000
,
1000
0000
0000
0000
,
0010
0100
0000
0000
,
0001
1000
0000
0000
,
0010
0000
1000
0000
,
0100
0000
0010
0010
,
0100
0000
0001
0000
,
1000
0000
0100
0100
,
1000
0000
0010
0000
,
0100
0000
0001
0000
,
1000
1000
0100
0000
,
0001
0001
0010
0000
,
0010
0000
0010
0000
,
0000
0110
0000
0100
,
0000
0010
0000
1000
,
0000
0010
0000
0001
,
0000
0000
0001
0000
,
0100
0000
0001
0001
,
0100
0000
0010
0000
,
1000
0000
0100
0000
,
0100
0010
0000
0000
,
0010
0100
0000
0000
,
1000
0001
0000
0000
,
0001
1000
0000
0000
,
0010
1000
0000
0000
,
0001
0100
0000
0000
,
0010
0001
0000
0000
,
0100
1000
0000
0000
,
1000
1000
0100
0000
,
0001
0001
1000
0000
,
0010
0010
0100
0000
,
1000
1000
0010
0000
,
0001
0100
0100
0000
,
0010
1000
1000
0000
,
0100
0100
0100
0000
,
0010
0010
0000
0100
,
0000
1000
0000
0001
,
0000
0010
0000
0001
,
0000
1000
0000
0100
,
0000
0000
0001
0001
,
0000
0100
0100
0000
,
0010
0000
1000
1000
,
0000
0010
0010
0000
,
1000
0100
0000
0000
;

//---------------dance-single - ----------------
#NOTES:
     dance-single:
     :
     Easy:
     7:
     0.317966,0.483518,0.226481,0.124955,0.000000,285.000000,256.000000,29.000000,16.000000,0.000000,0.000000,0.317966,0.483518,0.226481,0.124955,0.000000,285.000000,256.000000,29.000000,16.000000,0.000000,0.000000:
0000
0000
0000
0000
,
0000
0000
0000
0000
,
0000
0000
0000
0000
,
0000
0000
0000
0000
,
0000
0000
0000
0000
,
0000
0000
0001
0100
,
0000
0010
0100
0000
,
0100
0000
1000
0100
,
0000
0010
0000
0000
,
0110
0000
1000
1000
,
0001
0000
0100
0100
,
0010
0000
0100
0001
,
0100
0000
0010
1000
,
0010
0000
1000
0000
,
0010
0100
0200
0000
,
0300
0000
0010
0000
,
0001
0000
0100
0100
,
0000
0000
0010
1000
,
0100
0000
0010
0000
,
0100
0000
0001
0100
,
0010
0000
1000
0000
,
0100
1000
0010
0000
,
1000
1000
0010
0000
,
0100
0100
0001
0000
,
0010
0000
0100
0001
,
0100
0000
0010
1000
,
0100
1000
0000
0010
,
0000
0100
0000
0001
,
0100
0010
0000
1000
,
1000
0001
0000
0000
,
0100
0001
0010
0000
,
0100
1000
0010
0000
,
0100
0000
0010
1000
,
0100
0000
1010
0000
,
0001
0000
0110
0000
,
0100
0000
1001
0000
,
0010
0000
0101
0000
,
0010
0001
2000
0000
,
3010
0000
0100
0001
,
0100
0000
0020
0000
,
0130
0000
0001
1000
,
0010
0000
1001
0100
,
1001
0000
0001
0010
,
1000
0000
0011
1000
,
0011
0000
1000
0100
,
0001
0000
0010
0000
,
0100
0001
1000
0000
,
0001
0100
0010
0000
,
1010
1000
1100
0100
,
0110
0000
1001
0010
,
1001
0010
1000
0100
,
0000
0000
1010
0100
,
1010
0000
0001
0010
,
1000
0001
0000
0000
,
0010
0010
1000
0000
,
0001
0001
0100
0000
,
0010
0000
1000
0001
,
1000
0000
0010
1000
,
0100
1000
0010
0000
,
1100
0000
0010
0100
,
0001
0100
0010
0010
,
0100
0000
0101
0000
,
0100
0010
2000
3000
,
0010
0100
0002
0003
,
0100
0000
0010
1000
,
0001
0100
0020
0100
,
0130
0000
2000
0001
,
3001
0000
0002
1000
,
0000
0103
0000
0000
,
0010
0100
1001
0000
,
0110
0000
0001
0100
,
0010
0100
0001
0000
,
1100
0001
0100
1000
,
1000
0101
0000
0000
,
1001
0010
1000
0010
,
0010
0101
0000
0000
,
1010
0100
0001
0001
,
0100
0110
0000
0000
,
0101
1000
0001
0010
,
0010
0101
0020
0000
,
0031
2000
0000
0000
,
0000
3000
0002
0000
,
0203
0310
2000
0000
,
3200
0302
1003
0000
,
0100
0000
0002
0000
,
0000
0003
0010
0000
,
1000
0010
0001
0000
,
0100
0010
0001
0100
,
1000
0100
0001
0010
,
1000
0010
0001
0100
,
0001
1000
0001
0010
,
1000
0010
0100
0100
,
0010
0010
0001
1000
,
0100
1000
0010
0010
,
0100
0100
0001
1000
,
1000
0110
0000
0000
;

//---------------dance-single - ----------------
#NOTES:
     dance-single:
     :
     Medium:
     10:
     0.423955,0.558637,0.273339,0.296768,0.000000,380.000000,345.000000,35.000000,38.000000,0.000000,0.000000,0.423955,0.558637,0.273339,0.296768,0.000000,380.000000,345.000000,35.000000,38.000000,0.000000,0.000000:
0000
0000
0000
0000
,
0000
0000
0000
0000
,
0000
0000
0000
0000
,
0000
0000
0000
0000
,
0000
0000
0000
0000
,
0000
0000
1000
1000
,
0001
0001
0100
0100
,
0010
0100
0001
0000
0100
0000
0010
0000
,
1000
0000
0001
0000
0100
0010
0100
0010
,
0100
0000
0000
0000
0020
0000
0000
0030
,
0100
0000
1000
0000
0002
0000
0000
0003
,
0100
0000
0001
0000
2000
0000
0000
3000
,
0100
0000
1000
0010
1000
0000
0001
0100
,
0000
0000
0010
0000
0200
0000
0000
0300
,
0001
0100
0020
0000
,
0000
0030
2000
0000
,
3001
0100
0020
0000
,
0130
0001
1000
1000
,
0100
0020
0000
0030
,
0000
0000
0100
0000
1000
0000
1000
0010
,
0100
0001
0100
0010
,
0001
0001
0100
0000
,
1000
0100
1100
0000
,
0100
0001
0101
0000
,
1000
1000
0001
0001
,
0100
0010
0001
0001
,
0010
0200
0000
0300
,
0000
0000
0010
1000
0100
0000
0100
0000
,
0010
1000
0100
1000
,
0010
0100
0001
0000
,
0011
1000
0010
0100
,
1100
0001
0100
0010
,
0100
0100
0001
0100
,
0010
0000
1000
0000
1000
0000
1000
0002
,
0000
0000
0103
0000
0010
0000
0001
0200
,
0000
0000
0310
0000
1000
0000
0100
0001
,
0000
0100
0000
0000
0110
0000
0000
0000
,
1000
0001
0110
0110
,
0001
0000
1000
0000
0001
0000
1000
0100
,
1000
0010
1001
1001
,
0010
0000
0100
0000
0001
0010
0001
0000
,
0100
0000
1001
0001
,
1001
0000
1100
0000
0010
0000
1000
0100
,
1000
0001
0011
1000
,
1010
0000
1001
0000
0100
0000
0100
0010
,
1000
0001
0100
0000
,
0010
0000
1000
0000
0200
0000
0000
0300
,
0010
0000
0001
0000
0020
0000
0000
0030
,
1000
0100
1000
0000
0001
0100
0001
0000
,
0010
0010
0101
1000
,
1001
0000
1100
0000
0001
0000
0100
0010
,
0100
0001
1100
1001
,
0100
0000
0011
0000
0100
0000
0010
0001
,
0100
0010
1000
0000
,
0010
2000
3010
0000
,
0100
0002
0103
0000
,
0010
0010
1000
0101
,
0100
0010
1000
0100
,
0011
0000
0110
0000
0001
0000
1000
0010
,
0100
1000
0010
0001
,
1010
0000
0100
0010
1000
0000
0001
0000
,
1000
0000
0010
0000
0200
0000
0000
0300
,
0010
0000
1100
0000
0001
0000
0010
0100
,
1000
0000
0001
0000
0101
0000
1000
0100
,
0010
0100
0001
0100
,
0010
0000
1000
0000
0001
0000
0100
0020
,
0000
0000
0130
0000
0001
0000
1000
0200
,
0000
0000
1300
0000
0001
0000
0100
0002
,
0000
0103
0010
0000
,
0100
0001
0011
0011
,
1100
0000
1100
0000
0010
0100
0001
0000
,
1000
0000
0100
0000
1010
0000
0001
1000
,
0100
0000
1000
0000
0101
0000
0010
0001
,
0100
0000
0001
0000
1001
0000
0100
0010
,
0001
0000
1000
0000
0110
0000
0001
0010
,
0100
0000
0100
0000
0002
0000
0000
0203
,
0000
0320
0000
0000
,
1000
0000
0130
0000
0001
0000
1000
0010
,
1000
0001
0100
0100
,
0010
0000
0001
0000
2000
0000
0000
3200
,
0000
0320
0000
0000
,
0000
0000
0030
0000
0002
0000
0000
0203
,
0000
0000
0320
0000
2030
0000
0000
3200
,
0000
0310
0002
0100
,
0023
1030
0200
0000
,
0000
0000
0000
0300
0020
0000
0000
0032
,
0000
0000
2003
0000
3200
0000
0000
0302
,
0000
0000
0103
0000
0000
1000
0010
1000
,
0000
0001
0000
0100
0000
0001
0010
0001
,
0000
1000
0000
0010
0000
1000
0010
0100
,
0000
0001
0000
0100
0000
0010
0100
0001
,
0000
0100
0000
0000
0010
1000
0001
1000
,
0000
0100
1000
0010
,
0100
0000
0001
0000
0100
0010
0100
0001
,
0000
0100
1000
0100
,
0001
0000
0100
0010
0000
0000
0000
0000
;

//---------------dance-single - ----------------
#NOTES:
     dance-single:
     :
     Hard:
     13:
     0.528828,0.633122,0.265530,0.288959,0.000000,474.000000,440.000000,34.000000,37.000000,0.000000,0.000000,0.528828,0.633122,0.265530,0.288959,0.000000,474.000000,440.000000,34.000000,37.000000,0.000000,0.000000:
0000
0000
0000
0000
,
0000
0000
0000
0000
,
0000
0000
0000
0000
,
0000
0000
0000
0000
,
0000
0000
0000
0000
,
0000
0000
0000
0000
1000
0001
1000
0001
,
0000
0010
0100
0010
0100
0001
0000
1000
,
0100
1000
0100
1000
0010
0100
0100
0001
,
0000
0100
0010
0100
0001
0100
0010
0100
,
0020
0000
0030
0000
1001
0000
0100
0010
,
1000
0000
1000
0000
0100
0000
0001
0010
,
1000
0000
0001
0000
0001
0000
0100
0010
,
0100
0000
0001
0100
1000
0000
0100
0020
,
0000
0000
0031
0000
2000
0000
0000
3010
,
0000
1000
0200
0010
,
0010
0000
0310
0000
0001
0000
0100
0020
,
0000
0000
1030
0000
0002
0000
0000
0200
,
0003
0310
1000
0010
,
1000
0001
1000
0000
0100
0000
1000
0000
,
0010
0000
0100
0000
0010
0001
0100
0000
,
0010
1000
1000
0001
,
0001
0010
0100
0001
,
1000
0100
0001
0000
1010
0000
0001
0000
,
0010
1000
0100
0000
0011
0000
0100
0000
,
0001
0000
0010
0100
0010
0000
0100
0000
,
1000
0000
0100
0000
0001
0010
0001
0000
,
1000
0001
1000
0000
0100
0010
0100
0000
,
0010
0001
1000
0000
1000
0010
0100
0010
,
0001
0000
0001
0010
0000
0000
0010
0000
,
1000
0000
0001
0000
1000
0000
0100
0001
,
0010
0000
0001
0000
1100
0000
0010
1000
,
0100
0000
0010
0000
0101
0000
0100
0010
,
1000
0001
1100
0001
,
0110
0000
0001
0000
1000
0000
1000
0020
,
0000
1030
0000
0000
0001
0000
1000
0200
,
0000
0310
0000
0000
1001
0000
0100
0002
,
0000
2003
0000
0000
3001
0000
0000
0000
,
0100
0010
1001
1100
,
0011
0000
0100
0010
0100
0000
0001
0000
,
1000
0000
0001
0000
0001
0100
0001
0000
,
1000
0010
1000
0000
0002
0000
0000
0003
,
0100
0010
1001
1100
,
0001
1000
0010
0000
0100
0001
1000
0100
,
1000
0010
1001
0101
,
0010
0000
0100
0000
0001
0000
1000
0010
,
1000
0010
0100
0001
,
1000
0100
0001
0000
0001
0000
0100
0000
,
0001
0100
1000
0000
0110
0000
0001
0000
,
0010
1000
0010
0000
0101
0000
0101
0000
,
1100
0000
1100
0000
0010
1000
0001
0000
,
1000
0100
1000
0000
0010
0000
0100
0001
,
0100
0000
0010
0000
1000
0001
0100
0000
,
0001
0100
0001
0000
0010
0000
0100
1000
,
0010
0020
0130
0001
,
1000
0000
0001
0000
0110
0000
0100
0010
,
1000
0000
0001
0000
0011
0000
0100
0010
,
1000
0001
0100
0100
,
0010
0000
0001
0000
1000
0100
0001
0000
,
0010
0000
0100
0001
1000
0100
1000
0000
,
0010
0100
1001
0110
,
1000
0000
1000
0001
0100
0000
0010
0000
,
0101
1100
0010
0000
,
0001
1000
0200
0000
0310
0000
0001
0000
,
0010
0001
2000
0000
3001
0000
0100
0010
,
0100
0001
1010
0001
,
0100
0000
0010
0000
1000
0000
1000
0002
,
0100
0003
0010
0000
0001
0000
0001
0200
,
0010
0300
0001
0000
0100
0000
0010
0001
,
0010
0100
1001
0000
,
1000
0000
0010
0000
0100
0001
0100
0000
,
1000
0010
1000
0000
0010
0000
0100
0000
,
0001
0000
1000
0000
1000
0010
0100
0000
,
0101
0000
1100
0000
0001
0100
0010
0000
,
0011
0000
1010
0000
1000
0100
0001
0000
,
1001
0000
0101
0000
0010
0100
1000
0000
,
0002
0000
2003
0000
3020
0000
0000
0230
,
0000
0302
1000
0100
,
1000
0000
0100
0003
0010
1000
0100
1000
,
0010
0100
0001
0100
0010
1000
0010
1000
,
0001
0000
0100
0000
0002
0000
0000
2003
,
0000
3020
0100
0001
,
0100
0000
0031
0000
2000
0000
0000
3200
,
0000
0010
0001
0010
,
0001
0000
1300
0000
0020
0000
0000
0230
,
0000
0302
2003
0010
,
0100
0000
3010
0000
0002
0000
0000
0023
,
0000
0000
0230
0000
2300
0000
0000
3020
,
0000
0000
0032
0000
0000
0013
0100
1000
,
0000
0100
0001
0010
0000
0001
1000
0100
,
0000
0010
0100
1000
0000
0100
0001
0100
,
0000
0010
1000
0010
0000
0001
0010
0100
,
0000
1000
0010
0100
0010
0001
0001
0010
,
0100
0010
0001
1000
1000
0010
0100
0001
,
1000
0100
0010
0010
0100
0001
0100
0010
,
1000
0001
0100
0100
0010
0100
0001
0100
,
0010
0010
0100
0010
0000
0000
0000
0000
;

//---------------dance-double - ----------------
#NOTES:
     dance-double:
     :
     Easy:
     6:
     0.290074,0.334743,0.124955,0.124955,0.000000,260.000000,244.000000,16.000000,16.000000,0.000000,0.000000,0.290074,0.334743,0.124955,0.124955,0.000000,260.000000,244.000000,16.000000,16.000000,0.000000,0.000000:
00000000
00000000
00000000
00000000
,
00000000
00000000
00000000
00000000
,
00000000
00000000
00000000
00000000
,
00000000
00000000
00000000
00000000
,
00000000
00000000
00000000
00000000
,
00000000
00000000
10000000
00000000
,
00100000
00000000
00010000
00000000
,
00001000
00000000
00000010
00000000
,
00000100
00000000
00000001
00000000
,
00000101
00000000
00000020
00000030
,
00001000
00000000
02000000
03000000
,
00010000
00000000
20000000
30000000
,
00100000
00000000
00001000
00000000
,
00010000
00000000
00000200
00000300
,
00000010
00000000
00020000
00000000
,
00030000
00000000
00100000
00010000
,
00100000
00000000
00010000
00001000
,
00010000
00000000
00001000
00001000
,
00000100
00000010
00000000
00000100
,
00000000
00000000
00000001
00000100
,
00000010
00000000
00001000
00000000
,
00010000
00000000
00100000
00000000
,
10000000
10000000
00010000
00000000
,
00100000
00100000
00001000
00000000
,
00010000
00000000
00001000
00010000
,
00001000
00000000
00000100
00000000
,
00000010
00000010
00000000
00000100
,
00000000
00000000
00000010
00001000
,
00000100
00000000
00010000
00000000
,
00100000
00000000
00010000
00000000
,
01000000
00100000
01100000
00000000
,
00010000
00001000
00011000
00000000
,
00001000
00000000
00000100
00000000
,
00000010
00000000
00000002
00000013
,
00000010
00000000
00000200
00001300
,
00001000
00000000
00200000
00310000
,
00010000
00000000
00100000
00000000
,
00010000
00000000
01010000
00000000
,
00011000
00000000
00001000
00000100
,
00001000
00000000
00001010
00000000
,
00001100
00000000
00010000
00001000
,
00100000
00000000
00010000
00010000
,
01000000
01000000
00100000
10000000
,
00000000
00000000
00100000
00100000
,
00010000
00010000
00001000
00010000
,
00001000
00000000
00000100
00000000
,
00000010
00000001
00000100
00000000
,
00000010
00001000
00000100
00000000
,
00001000
00001000
00010000
00100000
,
00010000
00000000
01000000
01000000
,
00100000
00100000
00010000
00001000
,
00010000
00000000
00001000
00001000
,
00000100
00000100
00000010
00000001
,
00000100
00000010
00000000
00000000
,
00000101
00000000
00000110
00000000
,
00110000
00000000
01010000
00000000
,
00100000
00000000
00100000
10000000
,
01000000
00000000
00010000
00010000
,
00001000
00000100
00010000
00001000
,
00100000
00000000
00010000
01000000
,
00010000
00010000
00100000
00001000
,
00010000
00000100
00000010
00000000
,
00000100
00000001
00000101
00000000
,
00000010
00000100
00001100
00000000
,
00010000
00000000
00100000
00100000
,
01000000
00000000
10000000
00010000
,
00020000
00030000
00100000
00001000
,
00000200
00000300
00000010
00000002
,
00000003
00001000
00001000
00000000
,
00000010
00001000
00001100
00000000
,
00001010
00000000
00000101
00000000
,
00000100
00000000
00000010
00001000
,
00010000
00100000
01000000
00000000
,
00010000
00000000
10000000
01000000
,
00100000
00010000
00001000
00000000
,
00010000
00000000
00001000
00000100
,
00000001
00000010
00000100
00000000
,
00000010
00000000
00001000
00010000
,
00100000
10000000
01000000
00100000
,
00100000
00000000
20000000
30000000
,
00010000
00200000
00000000
00000000
,
00000000
00300000
00010000
00002000
,
00000000
00013000
00000020
00000000
,
00000130
00000000
00000010
00000010
,
00000001
00000001
00000200
00000000
,
00000000
00000300
00000001
00000100
,
00000010
00000000
00001000
00010000
,
00100000
00000000
00010000
00010000
,
10000000
10000000
00010000
00000000
,
00100000
00000000
00010000
00010000
,
00001000
00001000
00000100
00001000
,
00000100
00000000
00000010
00000010
,
00000100
00000000
00000001
00000000
,
00000100
00000000
00010000
00010000
,
00100000
00000000
00010000
00000000
,
01000000
00100000
00000000
00000000
;

//---------------dance-double - ----------------
#NOTES:
     dance-double:
     :
     Medium:
     10:
     0.398294,0.521395,0.171813,0.218671,0.000000,357.000000,335.000000,22.000000,28.000000,0.000000,0.000000,0.398294,0.521395,0.171813,0.218671,0.000000,357.000000,335.000000,22.000000,28.000000,0.000000,0.000000:
00000000
00000000
00000000
00000000
,
00000000
00000000
00000000
00000000
,
00000000
00000000
00000000
00000000
,
00000000
00000000
00000000
00000000
,
00000000
00000000
00000000
00000000
,
00000000
00000000
10000000
10000000
,
00010000
00010000
00100000
00010000
,
00001000
00010000
00001000
00000000
00000010
00000000
00001000
00000000
,
00000001
00000100
00000010
00000100
,
00001000
00000000
00000000
00000000
00020000
00000000
00000000
00030000
,
00001000
00000000
00100000
00000000
02000000
00000000
00000000
03000000
,
00010000
00000000
00100000
00000000
00002000
00000000
00000000
00003000
,
00010000
00000000
00001000
00000000
00000200
00000000
00000000
00000300
,
00000010
00000000
00001000
00000000
00000200
00000000
00000000
00000300
,
00000010
00001000
00000002
00000000
,
00000013
00000000
00000000
00000000
00001000
00000000
00001000
00000100
,
00000000
00000000
00010000
00000000
00001000
00000000
00010000
00001000
,
00000000
00000100
00001000
00001000
,
00000001
00000100
00000010
00001000
,
00000000
00000000
00001000
00000000
00010000
00000000
00010000
00100000
,
00001000
00010000
01000000
00100000
,
00100000
10000000
00010000
00000000
,
00100000
00010000
02000000
03000000
,
00010000
00100000
00002000
00003000
,
00010000
00001000
00000100
00000010
,
00000001
00000100
00000010
00000010
,
00001000
00000100
00000000
00001000
,
00000000
00000000
00001000
00000000
00100000
00000000
00100000
00010000
,
01000000
00100000
00010000
10000000
,
00100000
00010000
01000000
00000000
,
00100000
00010000
00011000
00000000
,
00000100
00000010
00000011
00000000
,
00000100
00000010
00001000
00001000
,
00000100
00000000
00001000
00000000
00010000
00000000
00010000
00001000
,
00000000
00000000
00100000
00000000
00010000
00000000
01000000
00010000
,
00000000
00000000
00100000
00000000
00010000
00000000
10000000
00100000
,
00000000
01000000
00000000
00000000
00110000
00000000
00000000
00000000
,
00010000
00000000
00001000
00000000
00010000
00001000
00010000
00000000
,
00000100
00001000
00000010
00000100
,
00000110
00000000
00000001
00000100
,
00000010
00001000
00010000
00001000
,
00100000
00000000
00110000
00011000
,
01000000
00000000
00010000
00000000
00100000
00000000
00100000
00010000
,
01000000
00100000
01100000
00010000
,
10000000
00000000
00010000
00000000
00100000
00000000
00010000
00001000
,
00000100
00001000
00000010
00000000
,
00000100
00000010
00000101
00000000
,
00001000
00010000
00110000
00000000
,
00010000
00001000
00010000
00000000
00100000
00000000
01000000
00000000
,
00010000
00100000
00011000
00010100
,
00000100
00000000
00000010
00000000
00001000
00000100
00001000
00000000
,
00000010
00000100
00000010
00001001
,
00000100
00000000
00000010
00000000
00000100
00000000
00000001
00000010
,
00000100
00000010
00001000
00000000
,
00001000
00010000
00200000
00300000
,
00010000
01000000
20000000
30000000
,
00100000
00010000
00001000
00010000
,
00001000
00000100
00001010
00000101
,
00001000
00000000
00000010
00000000
00001000
00000100
00010000
00000000
,
00001000
00010000
00110000
11000000
,
00100000
00000000
00010000
10000000
00100000
00000000
00010000
00000000
,
01000000
00010000
00200000
00300000
,
00010000
00001000
00001200
00000300
,
00000010
00000001
00001020
00000030
,
00000010
00000001
00000100
00000010
,
00001000
00000000
00000100
00000000
00010000
00000000
00010000
00001000
,
00000000
00000000
00100000
00000000
00010000
00000000
01000000
00100000
,
00000000
00000000
00010000
00000000
10000000
00000000
00010000
00100000
,
00000000
01000000
00001000
00000000
,
00010000
00001000
00001100
00001100
,
00011000
00000000
00011000
00000000
00100000
00010000
01000000
00000000
,
00100000
00000000
00010000
00000000
10000000
00010000
10000000
00000000
,
00100000
00000000
00010000
00000000
00001000
00010000
00001000
00000000
,
00000100
00000000
00000010
00000000
00000001
00000010
00000001
00000000
,
00000010
00000000
00001000
00000000
00010000
00000100
00010000
00000000
,
00001000
00000000
00100000
00000000
00002000
00000000
00000000
00023000
,
00000000
00032000
00100000
00000000
,
00100000
00003000
01000000
00010000
,
00100000
00010000
10000000
01000000
,
00010000
00000000
00001000
00000000
00000020
00000000
00000000
00000130
,
00000000
00000002
00000000
00000000
,
00000000
00000000
00000000
00000000
00000203
00000000
00000000
00002300
,
00000000
00000000
00013000
00000000
00200000
00000000
00000000
00320000
,
00000000
00000000
01030000
00000000
00200000
00000000
00000000
00302000
,
00000000
00023000
00001000
00000000
,
00001000
00000000
00030000
00000000
00000200
00000000
00000000
00002300
,
00000000
00000000
00003100
00000000
00020000
00000000
00000000
00031000
,
00000000
00000000
00100000
00000000
01000000
10000000
00000000
10000000
,
00000000
00010000
00000000
00010000
00000000
00001000
00000000
00001000
,
00000000
00000100
00000000
00000100
00000000
00000010
00000000
00000010
,
00000000
00000001
00000000
00000001
00000000
00000100
00000000
00000100
,
00000000
00000010
00000000
00000010
00001000
00000000
00010000
00001000
,
00000000
00100000
00010000
00000000
01000000
00010000
00000000
00000000
,
00100000
00000000
00001000
00000000
00010000
00000000
00001000
00000100
,
00000000
00000010
00001000
00000000
00010000
00000000
00000000
00010000
,
01000000
00000000
00100000
01000000
00000000
00000000
00000000
00000000
;

//---------------dance-double - ----------------
#NOTES:
     dance-double:
     :
     Hard:
     13:
     0.512093,0.595880,0.234291,0.288959,0.000000,459.000000,429.000000,30.000000,37.000000,0.000000,0.000000,0.512093,0.595880,0.234291,0.288959,0.000000,459.000000,429.000000,30.000000,37.000000,0.000000,0.000000:
// measure 0
00000000
00000000
00000000
00000000
,  // measure 1
00000000
00000000
00000000
00000000
,  // measure 2
00000000
00000000
00000000
00000000
,  // measure 3
00000000
00000000
00000000
00000000
,  // measure 4
00000000
00000000
00000000
00000000
,  // measure 5
00000000
00000000
00000000
00000000
10000000
00010000
10000000
00010000
,  // measure 6
00000000
00100000
00010000
00100000
00010000
00100000
00000000
00001000
,  // measure 7
00010000
00001000
00010000
00000000
00001000
00000100
00001000
00000100
,  // measure 8
00000000
00001000
00000001
00000000
00001000
00000010
00000100
00000010
,  // measure 9
00000100
00000000
00000000
00000000
00000020
00000000
00000000
00002030
,  // measure 10
00000000
00000000
00013000
00000000
02000000
00000000
00000000
13000000
,  // measure 11
00000000
00000000
01000000
00000000
00200000
00000000
00000000
00310000
,  // measure 12
00000000
00000000
00010000
00001000
00000100
00000000
00010000
00002000
,  // measure 13
00000000
00000000
00013000
00000000
00000200
00000000
00000000
00000320
,  // measure 14
00000000
00000130
00002000
00000000
,  // measure 15
00003100
00000000
00000000
00000000
00000020
00000000
00000000
00000032
,  // measure 16
00000000
00000000
00000203
00000000
00000320
00000000
00000000
00002030
,  // measure 17
00000000
00003100
00010000
00010000
,  // measure 18
00001000
00000000
00100000
00000000
00010000
01000000
00010000
00000000
,  // measure 19
00100000
00000000
00010000
00000000
10000000
00000000
10000000
00010000
,  // measure 20
00100000
00000000
00001000
00010000
00000000
00000000
00001000
00000000
,  // measure 21
00001100
00000000
00010000
00000000
00001000
00000000
00100000
00010000
,  // measure 22
00001000
00000000
00010000
00000000
00001010
00000000
00000100
00010000
,  // measure 23
00001000
00010000
01100000
00010000
,  // measure 24
00001000
00000100
00000010
00000010
,  // measure 25
00000100
00000000
00000001
00000000
00000100
00000000
00000010
00001000
,  // measure 26
00000010
00000000
00010000
00000000
00010000
00000000
00100000
00010000
,  // measure 27
01000000
00000000
00010000
00000000
00100000
00010000
01000000
00100000
,  // measure 28
10000000
00000000
00010000
00100000
00000000
00000000
00010000
00000000
,  // measure 29
00001000
00000000
00011000
00000000
00000100
00000000
00010000
00001000
,  // measure 30
00100000
00000000
00010000
00000000
01010000
00000000
00010000
00001000
,  // measure 31
00000100
00000000
00000010
00000000
00001100
00000000
00000001
00001000
,  // measure 32
00000100
00001000
00000010
00000100
,  // measure 33
00000001
00000000
00000010
00000000
00001000
00000000
00000100
00001000
,  // measure 34
00000000
00010000
00100000
00000000
10000000
00000000
00010000
00100000
,  // measure 35
00000000
00010000
00001000
00000000
00000100
00000000
00001000
00000010
,  // measure 36
00000000
00000001
00001000
00000000
00001100
00000000
00000000
00000000
,  // measure 37
00001000
00000100
00001010
00001100
,  // measure 38
00010000
00000000
00100000
00000000
01000000
00010000
00100000
00000000
,  // measure 39
10000000
00010000
00100000
00000000
00110000
00000000
11000000
00000000
,  // measure 40
00100000
00000000
00010000
00000000
00001000
00010000
00001000
00000000
,  // measure 41
00010000
00000000
00001000
00011000
,  // measure 42
00010100
00000000
00011000
00000000
00100000
00010000
01000000
00100000
,  // measure 43
01000000
00010000
00110000
01100000
,  // measure 44
00101000
00000000
00010000
00000000
00001000
00000000
00010000
00001000
,  // measure 45
00000100
00000001
00000010
00000100
,  // measure 46
00000002
00000000
00000103
00000000
00001000
00000000
00010000
00001000
,  // measure 47
00200000
00000000
00301000
00000000
00010000
00000000
01000000
00100000
,  // measure 48
10000000
01000000
10000000
00110000
,  // measure 49
00110000
00000000
01000000
00000000
10000000
00100000
00010000
00000000
,  // measure 50
00001000
00010000
00001000
00000000
00001100
00000000
00001000
00010000
,  // measure 51
00000010
00001000
00001100
00000010
,  // measure 52
00000100
00000000
00000001
00000000
00001000
00000000
00010000
00100000
,  // measure 53
01000000
10000000
00200000
00300000
,  // measure 54
00010000
00000000
01000000
00000000
01010000
00000000
00010000
00001000
,  // measure 55
00010000
00000000
00000100
00000000
00001010
00000000
00000100
00001000
,  // measure 56
00000010
00000100
00000110
00000101
,  // measure 57
00001000
00000000
00001000
00000000
00010000
00100000
00010000
01000000
,  // measure 58
00010000
00000000
10000000
00000000
01010000
00000000
00100000
00010000
,  // measure 59
00001000
00000000
00010000
00000000
00000100
00010000
00000010
00010000
,  // measure 60
00000100
00000000
00001000
00000000
00001010
00000000
00000100
00000001
,  // measure 61
00000010
00000000
00000100
00000000
00000001
00000000
00000100
00000010
,  // measure 62
00002000
00000000
00003100
00000000
00011000
00000000
00100000
00010000
,  // measure 63
20000000
00000000
30100000
00000000
01010000
00000000
01000000
00010000
,  // measure 64
00100000
00010000
00001000
00010000
,  // measure 65
00000100
00000000
00010000
00000000
00001000
00000000
00100000
00020000
,  // measure 66
00000000
00000000
01030000
00000000
00100000
00000000
01000000
00002000
,  // measure 67
00000000
00000000
00013000
00000000
00000100
00000000
00001000
00000200
,  // measure 68
00000000
00001300
00000110
00000100
,  // measure 69
00001000
00000000
00000001
00000000
00000001
00000100
00001000
00000000
,  // measure 70
00010000
00100000
01000000
00000000
10000000
00000000
00100000
00000000
,  // measure 71
00010000
00000000
10000000
00000000
00100000
00010000
00001000
00010000
,  // measure 72
00000100
00000000
00010000
00000000
00000100
00001000
00000010
00001000
,  // measure 73
00000100
00000000
00000010
00000000
00000100
00000001
00001000
00000010
,  // measure 74
00001000
00000000
00000100
00000000
00001000
00010000
00100000
00010000
,  // measure 75
01000000
00000000
10000000
00000000
01000000
00000000
01000000
00100000
,  // measure 76
00010000
00000000
00100000
00000000
00100000
00010000
00001000
00000100
,  // measure 77
00000010
00000000
00000001
00000000
00000010
00001000
00000010
00000100
,  // measure 78
00001000
00000100
00000010
00001000
00000100
00000010
00000100
00000010
,  // measure 79
00001000
00000000
00001000
00000000
00020000
00000000
00000000
00032000
,  // measure 80
00000000
00203000
00320000
01030000
,  // measure 81
00010000
00000000
00100000
00000000
20000000
00000000
00000000
30020000
,  // measure 82
00000000
00230000
00302000
00013000
,  // measure 83
00001000
00000000
00000010
00000000
00000200
00000000
00000000
00002300
,  // measure 84
00000000
00003010
00000200
00000001
,  // measure 85
00001000
00000000
00000001
00000300
00002000
00000000
00000000
00023000
,  // measure 86
00000000
00000000
00230000
00000000
00320000
00000000
00000000
02030000
,  // measure 87
00000000
00000000
03010000
00000000
00100000
00001000
00010000
00001000
,  // measure 88
00000000
00100000
00010000
00100000
00000000
00010000
10000000
00010000
,  // measure 89
00000000
00100000
00001000
00010000
00000000
00001000
00010000
00000100
,  // measure 90
00000000
00001000
00000010
00001000
00000000
00000100
00000010
00001000
,  // measure 91
00000000
00000001
00001000
00000010
00001000
00000100
00010000
00010000
,  // measure 92
00000000
00001000
01000000
00100000
01000000
00010000
00000000
00100000
,  // measure 93
10000000
00100000
01000000
00000000
00100000
00010000
01000000
10000000
,  // measure 94
00000000
00010000
00100000
00010000
00001000
00000100
00000000
00001000
,  // measure 95
00000001
00000100
00000010
00000100
00000000
00000000
00000000
00000000
;
