#VERSION:0.83;
#TITLE:SCI-FI;
#SUBTITLE:;
#ARTIST:SEIYA + A.I. units;
#TITLETRANSLIT:SCI-FI;
#SUBTITLETRANSLIT:;
#ARTISTTRANSLIT:SEIYA + A.I. units;
#GENRE:pop'n music;
#ORIGIN:;
#CREDIT:SAIKIO;
#BANNER:SCI-FI-banner.png;
#BACKGROUND:SCI-FI-bg.png;
#PREVIEWVID:;
#JACKET:SCI-FI-jacket.png;
#CDIMAGE:;
#DISCIMAGE:;
#LYRICSPATH:;
#CDTITLE:popnmusic.png;
#MUSIC:SCI-FI.ogg;
#OFFSET:-0.151000;
#SAMPLESTART:48.364040;
#SAMPLELENGTH:15.620028;
#SELECTABLE:YES;
#BPMS:0.000=155.000;
#STOPS:;
#DELAYS:;
#WARPS:;
#TIMESIGNATURES:0.000=4=4;
#TICKCOUNTS:0.000=4;
#COMBOS:0.000=1;
#SPEEDS:0.000=1.000=0.000=0;
#SCROLLS:0.000=1.000;
#FAKES:;
#LABELS:0.000=Song Start;
#BGCHANGES:;
#KEYSOUNDS:;
#ATTACKS:
;

//---------------dance-single - ----------------
#NOTEDATA:;
#CHARTNAME:;
#STEPSTYPE:dance-single;
#DESCRIPTION:;
#CHARTSTYLE:;
#DIFFICULTY:Beginner;
#METER:2;
#RADARVALUES:0.140531,0.187593,0.000000,0.007626,0.000000,129.000000,129.000000,0.000000,1.000000,0.000000,0.000000,0.000000,0.000000,0.000000,0.140531,0.187593,0.000000,0.007626,0.000000,129.000000,129.000000,0.000000,1.000000,0.000000,0.000000,0.000000,0.000000,0.000000;
#CREDIT:;
#NOTES:
0000
0000
0000
0000
,
0000
0000
0000
0000
,
0000
0000
0000
0000
,
0000
0000
0000
0000
,
0010
0000
0010
0000
,
0010
0000
0000
0000
,
0100
0000
0100
0000
,
0100
0000
0000
0000
,
1000
0000
0001
0000
,
1000
0000
0000
0000
,
0010
0000
0100
0000
,
1000
0000
0000
0000
,
0010
0000
0001
0000
,
0010
0000
0000
0000
,
1000
0000
0010
0000
,
0100
0000
0000
0000
,
0100
0000
0001
0000
,
0100
0000
0000
0000
,
1000
0000
0010
0000
,
0100
0000
0000
0000
,
1000
0000
0100
0000
,
0001
0000
0000
0000
,
0010
0000
0001
0000
,
1000
0000
0000
0000
,
0010
0000
0010
0000
,
0010
0000
0000
0000
,
1000
0000
1000
0000
,
1000
0000
0000
0000
,
0001
0000
0001
0000
,
0001
0000
0000
0000
,
0100
0000
0100
0000
,
0100
0000
0000
0010
,
0010
0000
1000
0000
,
0100
0000
1000
0000
,
0100
0000
0100
0000
,
0100
0000
0000
0000
,
0001
0000
0010
0000
,
0001
0000
0001
0000
,
0010
0000
0010
0000
,
0010
0000
0000
0000
,
1000
0000
0001
0000
,
1000
0000
0100
0000
,
0001
0000
0001
0000
,
0001
0000
0000
0000
,
0010
0000
0000
0000
,
1000
0000
0100
0000
,
0010
0000
0000
0000
,
0001
0000
0000
0010
,
0010
0000
0000
0000
,
0001
0000
0100
0000
,
1000
0000
1000
0000
,
1000
0000
0010
0000
,
0100
0000
0100
0000
,
0010
0000
0001
0000
,
0100
0000
0100
0000
,
0010
0000
0000
0000
,
1000
0000
0000
0100
,
0100
0000
1000
0000
,
0010
0000
0010
0000
,
0100
0000
0001
0000
,
0100
0000
0000
0000
,
0010
0000
1000
1000
,
1000
0000
0000
0000
,
0100
0000
0000
0000
,
0010
0000
0001
0000
,
0100
0000
0000
0000
,
1000
0000
0100
0000
,
0010
0010
0010
0000
,
0001
0000
0100
0000
,
1000
0000
0000
0000
,
0010
0000
0001
0000
,
0100
0100
0100
0000
,
0010
0000
0001
0000
,
0100
0000
0000
0000
,
1000
0000
0001
0000
,
0010
0010
0010
0000
,
0100
0000
1000
0000
,
0100
0000
0000
0000
,
0010
0000
1000
0000
,
0100
0000
0000
0020
,
0000
0000
0000
0000
,
0000
0000
0000
0000
,
0030
0000
0000
0000
;

//---------------dance-single - ----------------
#NOTEDATA:;
#CHARTNAME:;
#STEPSTYPE:dance-single;
#DESCRIPTION:;
#CHARTSTYLE:;
#DIFFICULTY:Easy;
#METER:4;
#RADARVALUES:0.189554,0.250124,0.022877,0.083883,0.000000,174.000000,171.000000,3.000000,11.000000,0.000000,0.000000,0.000000,0.000000,0.000000,0.189554,0.250124,0.022877,0.083883,0.000000,174.000000,171.000000,3.000000,11.000000,0.000000,0.000000,0.000000,0.000000,0.000000;
#CREDIT:;
#NOTES:
0000
0000
0000
0000
,
0000
0000
0000
0000
,
0000
0000
0000
0000
,
0000
0000
0000
0000
,
1000
0000
1000
0000
,
1000
0000
0000
0000
,
0001
0000
0001
0000
,
0001
0000
0000
0000
,
0010
0000
0100
0000
,
1000
0000
0000
0000
,
0001
0000
0100
0000
,
1000
0000
0000
0000
,
0010
0000
0001
0000
,
0100
0000
0000
0000
,
1000
0000
0010
0000
,
0001
0000
0000
0000
,
0100
0000
0010
0000
,
0001
0000
0000
0000
,
1000
0000
0100
0000
,
1000
0000
0000
0000
,
0010
0000
0100
0000
,
1000
0000
0000
0000
,
0100
0000
0001
0000
,
0100
0000
0000
0000
,
1000
1000
0000
0100
,
0000
0010
0000
0001
,
0010
0010
0000
0100
,
0000
1000
0000
0001
,
0100
0100
0000
0010
,
0000
1000
0000
0100
,
0001
0001
0000
0010
,
0000
0001
0000
0000
,
2000
0000
3001
0000
,
0100
0000
0010
0000
,
1000
1000
0001
0001
,
1000
0000
0100
0000
,
0020
0000
0130
0000
,
0001
0000
0100
0000
,
0010
0010
0100
0100
,
0010
0000
1000
0000
,
0002
0000
0103
0000
,
0010
0000
1000
0000
,
1001
0000
1001
0000
,
1001
0000
0100
0000
,
0020
0000
0130
0000
,
0001
0000
0100
1000
,
0100
0000
0100
0000
,
0010
0000
0100
0000
,
0002
0000
1003
0000
,
0100
0010
0001
0000
,
1000
1000
0100
0100
,
0010
0000
0001
0000
,
0200
0000
0301
0000
,
1000
0100
1000
0000
,
0010
0010
0001
0001
,
0100
0100
0010
0000
,
2000
0000
3100
0000
,
0010
0000
0001
0000
,
0200
0300
0020
0030
,
0100
0000
0001
0100
,
1000
0000
0010
0000
,
0001
1000
0001
1000
,
2000
0000
0000
3000
,
0100
0000
0100
0000
,
0010
0000
0001
0000
,
0100
0000
1000
0000
,
0010
0010
1000
1000
,
0100
0100
0010
0000
,
0001
0000
0100
0000
,
0010
0000
1000
0000
,
0001
0001
0100
0100
,
0010
0010
1000
0000
,
0001
0000
1000
0000
,
0100
0000
0010
0000
,
0100
0100
0001
0001
,
0010
0010
0100
0000
,
1000
0000
0100
0000
,
0001
0000
0010
0000
,
0001
0001
1000
1000
,
0010
0010
0000
0200
,
0000
0000
0000
0000
,
0000
0000
0000
0000
,
0300
0000
0000
0000
;

//---------------dance-single - ----------------
#NOTEDATA:;
#CHARTNAME:;
#STEPSTYPE:dance-single;
#DESCRIPTION:;
#CHARTSTYLE:;
#DIFFICULTY:Medium;
#METER:8;
#RADARVALUES:0.291956,0.375186,0.022877,0.190643,0.000000,268.000000,265.000000,3.000000,25.000000,0.000000,0.000000,0.000000,0.000000,0.000000,0.291956,0.375186,0.022877,0.190643,0.000000,268.000000,265.000000,3.000000,25.000000,0.000000,0.000000,0.000000,0.000000,0.000000;
#CREDIT:;
#NOTES:
0000
0000
0000
0000
,
0000
0000
0000
0000
,
0000
0000
0000
0000
,
0000
0000
0000
0000
,
0001
0000
0001
0000
,
0001
0000
0000
0000
,
1000
0000
1000
0000
,
1000
0000
0000
0000
,
0010
0001
0100
0000
,
1000
0100
0010
0000
,
0001
0001
0100
1000
,
0010
0010
1000
0000
,
0100
1000
0100
0000
,
0010
0001
0100
0000
,
0010
0010
0001
1000
,
0100
0100
0010
0000
,
0100
0001
0010
0000
,
1000
0100
0001
0000
,
1000
1000
0100
0010
,
0001
0001
0100
0000
,
0010
0001
0100
0000
,
0010
0100
1000
0000
,
0001
0001
0100
1000
,
0100
0100
0001
0000
,
2000
0000
3010
0000
,
0100
0001
0100
0000
,
0020
0000
0031
0000
,
0100
1000
0010
0000
,
2000
0000
3100
0000
,
0010
0001
0100
0000
,
0200
0000
0310
0000
,
1000
0001
0010
1000
,
2000
0010
3100
0001
,
0100
0100
0001
0100
,
0001
0100
0001
0000
1000
0010
1000
0000
,
0001
1000
0001
0000
1000
0000
0010
0000
,
0200
0010
0301
0010
,
1000
0100
0010
0001
,
1000
0010
1000
0000
0001
0100
0001
0000
,
1000
0001
1000
0000
0010
0000
0100
0000
,
0002
1000
0103
0010
,
1000
0100
0010
0001
,
2200
3300
0202
0303
,
1100
0000
0010
0100
,
2000
0000
3010
0010
,
1000
0000
1000
0100
0010
0000
0001
0000
,
0200
0000
0310
0000
,
0001
0100
1000
0010
,
0020
0100
1030
0001
,
0100
0010
1000
0100
,
1000
0100
0010
0000
0001
0010
0100
0000
,
1000
0001
0100
0000
0001
0000
0100
0000
,
0200
1000
0310
0001
,
0010
1000
0100
0010
,
0001
0010
1000
0000
1000
0100
0001
0000
,
0010
0100
1000
0000
0001
0000
0100
0000
,
0002
0010
1003
0010
,
0100
1000
0100
0010
,
2000
3100
0020
0031
,
0100
0100
0010
1000
,
2000
0000
3010
0100
,
0100
0001
1000
0100
,
0020
0000
0000
0030
,
0100
0000
0100
0000
,
0200
0000
0310
0001
,
0010
0100
1000
0000
,
0001
0100
0000
0010
0000
0010
0000
0010
,
0000
0001
0000
0100
0000
0010
0000
0000
,
0002
0000
0013
0100
,
1000
0100
0001
0000
,
0100
0010
0000
0001
0000
0001
0000
0001
,
0000
1000
0000
0010
0000
0100
0000
0000
,
0020
0000
1030
0001
,
0010
1000
0100
0000
,
1000
0010
0000
0100
0000
0100
0000
0100
,
0000
0010
0000
0001
0000
0100
0000
0000
,
2000
0000
3010
0001
,
0100
1000
0010
0000
,
0001
0100
0000
1000
0000
1000
0000
1000
,
0000
0010
0000
0001
0000
0000
0010
0200
,
0000
0000
0000
0000
,
0000
0000
0000
0000
,
0300
0000
0000
0000
;

//---------------dance-single - ----------------
#NOTEDATA:;
#CHARTNAME:;
#STEPSTYPE:dance-single;
#DESCRIPTION:;
#CHARTSTYLE:;
#DIFFICULTY:Hard;
#METER:11;
#RADARVALUES:0.397627,0.500248,0.297403,0.312655,0.022877,365.000000,326.000000,39.000000,41.000000,0.000000,0.000000,0.000000,0.000000,0.000000,0.397627,0.500248,0.297403,0.312655,0.022877,365.000000,326.000000,39.000000,41.000000,0.000000,0.000000,0.000000,0.000000,0.000000;
#CREDIT:;
#NOTES:
0000
0000
0000
0000
,
0000
0000
0000
0000
,
0000
0000
0000
0000
,
0000
0000
0000
0000
,
1000
1000
0001
1000
,
0010
0100
0001
0000
,
0010
0010
0100
0100
,
0001
0100
1000
0000
,
0020
0000
0000
1030
0000
0100
0000
0200
,
0000
0000
0301
0100
0000
0010
0000
0000
,
1000
0100
0000
1000
0000
1010
0000
1000
,
0000
0110
0000
0100
0000
1100
0000
0000
,
0002
0000
0000
1003
0000
0010
0000
2000
,
0000
0000
3010
1000
0000
0100
0000
0000
,
0010
0001
0000
0100
0000
0011
0000
0001
,
0000
0110
0000
0100
0000
0101
0000
0000
,
0020
0000
0000
1030
0000
0100
0000
0002
,
0000
0000
1003
0001
0000
0100
0000
0000
,
0010
0100
0000
1001
0000
0001
0000
1010
,
0000
0100
0000
0110
0000
0001
0000
0000
,
0200
0000
0000
0310
0000
0001
0000
2000
,
0000
0000
3010
1000
0000
0100
0000
0000
,
0100
0010
0000
1000
0000
0011
0000
1000
,
0000
1001
0000
0110
0000
0100
0010
0000
,
0200
0000
0000
0320
0000
0000
1000
0000
,
0000
0000
0100
0030
0001
0000
1000
0000
,
0200
0000
0000
0302
0000
0000
0023
0000
,
0000
2030
0000
0000
3010
0000
1000
0000
,
0200
0000
0000
0320
0000
0000
0001
0000
,
0000
0000
0100
0030
1000
0000
0001
0000
,
2000
0000
0000
3200
0000
0000
0302
0000
,
0000
0023
0000
0000
0130
0000
0001
0000
,
2100
0010
3001
0100
,
0010
0000
0001
0100
0000
0010
0000
1000
,
0100
1000
0100
0010
0001
0010
0001
0100
,
0010
0000
0100
0000
0010
0000
1000
0000
0001
0000
0000
1000
0000
0000
1000
0000
,
0002
0100
0013
0100
,
1000
0000
0010
0100
0000
0001
0000
0100
,
0010
0001
0100
0001
1000
0100
1000
0010
,
0001
0000
1000
0000
0100
0000
0010
0000
0001
0000
0000
0010
0000
0000
0010
0000
,
2000
0001
0100
3010
,
0100
0000
0001
0100
0000
1000
0000
0100
,
0101
0010
1001
1000
,
0110
0000
0000
0000
0010
0000
0000
0000
0001
0000
0000
0100
0000
0000
0010
0000
,
2000
0000
3100
0001
,
0100
0000
0001
0010
0100
0000
0100
0000
,
0020
1000
0001
0130
,
1000
0001
0100
0010
,
0021
1000
0130
0001
,
0100
0000
0010
0001
0000
0100
0000
0010
,
1000
0001
1000
0010
0100
1000
0100
0001
,
0010
0000
1000
0000
0010
0000
0100
0000
0010
0000
0000
0001
0000
0000
1000
0000
,
0200
1000
0301
0010
,
1000
0000
1000
0100
0000
0010
0000
0001
,
0100
0010
0100
0001
1000
0010
0001
0010
,
0100
0000
0010
0000
1000
0000
0100
0000
0010
0000
0000
0001
0000
0000
0010
0000
,
0020
0001
1000
0130
,
1000
0000
0001
0100
0000
0010
0000
0001
,
0101
1000
0110
1000
,
1001
0000
0000
0000
0010
0000
0000
0000
0100
0000
0000
0010
0000
0000
1000
0000
,
0200
0010
0301
1000
,
0010
0000
0100
1000
0010
0000
0010
0000
,
2000
0001
0100
3010
,
0002
0103
2000
3100
,
0020
0000
0000
1030
0000
0100
0000
0200
,
0000
0000
0301
0100
0000
0010
0000
0000
,
1000
0100
0000
0010
0000
1010
0000
0101
,
0000
1010
0000
0110
0000
1100
0000
0000
,
0002
0000
0000
0013
0000
0100
0000
2000
,
0000
0000
3100
1000
0000
0001
0000
0000
,
0100
0010
0000
1001
0000
0101
0000
0100
,
0000
1001
0000
0110
0000
0011
0000
0000
,
0020
0000
0000
1030
0000
0100
0000
0002
,
0000
0000
0013
0001
0000
1000
0000
0000
,
0100
0010
0000
1100
0000
0011
0000
0110
,
0000
0001
0000
1001
0000
1100
0000
0000
,
0002
0000
0000
0013
0000
0100
0000
0020
,
0000
0000
0130
0010
0000
1000
0000
0000
,
0100
0001
0000
0110
0000
1001
0000
1010
,
0000
0110
0000
0100
0000
0010
1000
0200
,
0000
0000
0000
0000
,
0000
0000
0000
0000
,
0300
0000
0000
0000
;

//---------------dance-double - ----------------
#NOTEDATA:;
#CHARTNAME:;
#STEPSTYPE:dance-double;
#DESCRIPTION:;
#CHARTSTYLE:;
#DIFFICULTY:Easy;
#METER:5;
#RADARVALUES:0.251649,0.281389,0.000000,0.213520,0.000000,231.000000,231.000000,0.000000,28.000000,0.000000,0.000000,0.000000,0.000000,0.000000,0.251649,0.281389,0.000000,0.213520,0.000000,231.000000,231.000000,0.000000,28.000000,0.000000,0.000000,0.000000,0.000000,0.000000;
#CREDIT:;
#NOTES:
00000000
00000000
00000000
00000000
,
00000000
00000000
00000000
00000000
,
00000000
00000000
00000000
00000000
,
00000000
00000000
00000000
00000000
,
00001000
00001000
00010000
00010000
,
00100000
00010000
01000000
00000000
,
00010000
00010000
00001000
00001000
,
00000100
00000010
00000001
00000000
,
00000020
00000030
00001000
00000000
,
00010000
00000000
00100000
00000000
,
01000000
10000000
01000000
01000000
,
10000000
01000000
00100000
00000000
,
00020000
00030000
00001000
00000000
,
00000010
00000000
00000100
00000000
,
00000001
00000010
00000001
00000001
,
00000010
00000001
00000100
00000000
,
00000200
00000300
00001000
00000000
,
00000100
00000000
00010000
00000000
,
00100000
00100000
00010000
01000000
,
00010000
00100000
00010000
00000000
,
20000000
30000000
01000000
00000000
,
00100000
00000000
00010000
00000000
,
00001000
00001000
00000100
00001000
,
00000100
00000010
00000100
00001000
,
00000020
00000030
00000002
00000003
,
00000200
00000300
00001000
00000100
,
00020000
00030000
00200000
00300000
,
02000000
03000000
10000000
00100000
,
00020000
00030000
00002000
00003000
,
00000200
00000300
00000010
00000001
,
00000200
00000300
00002000
00003000
,
00020000
00030000
00100000
00010000
,
02000000
00000000
03000000
00100000
,
00010000
01000000
00010000
00000000
,
00001000
00001000
00000100
00000100
,
00000010
00000010
00000001
00000000
,
00000002
00000000
00000003
00000100
,
00001000
00010000
00100000
00000000
,
00010000
00010000
01000000
01000000
,
10000000
10000000
00100000
00010000
,
00002000
00000000
00003000
00000010
,
00000100
00000000
00000001
00000000
,
00000010
00000010
00000100
00000100
,
00001000
00000000
00000100
00001000
,
00010000
00000000
00100000
00010000
,
02000000
03000000
00100000
00010000
,
20000000
30000000
00020000
00030000
,
10000000
00010000
10000000
00000000
,
00100000
00010000
00001000
00000100
,
00000010
00001000
00000100
00000000
,
00000001
00000001
00000100
00000100
,
00000010
00000010
00001000
00000100
,
00001000
00010000
00100000
00010000
,
01000000
00100000
10000000
00000000
,
00010000
00010000
00100000
00100000
,
00001000
00001000
00010000
00000100
,
00002000
00000000
00003100
00000000
,
00000010
00000001
00000100
00000000
,
00000020
00000030
00002000
00003000
,
00020000
00030000
00100000
00010000
,
01000000
00000000
10000000
01000000
,
00010000
00010000
00100000
01000000
,
00002000
00003000
00010000
00000000
,
00001000
00000100
00000010
00000000
,
00000001
00000100
00001000
00000000
,
00010000
00100000
01000000
00000000
,
10000000
10000000
00010000
00010000
,
00100000
00010000
10000000
00000000
,
00100000
00010000
00001000
00000000
,
00001000
00000100
00000010
00000000
,
00000001
00000001
00000100
00000100
,
00001000
00000100
00000010
00000000
,
00001000
00010000
00100000
00000000
,
00010000
01000000
10000000
00000000
,
00100000
00100000
00001000
00010000
,
00000100
00000010
00000100
00000000
,
00000010
00000001
00000100
00000000
,
00000010
00001000
00000100
00000000
,
00001000
00001000
00100000
00010000
,
00100000
01000000
00100000
02000000
,
00000000
00000000
00000000
00000000
,
00000000
00000000
00000000
00000000
,
03000000
00000000
00000000
00000000
;

//---------------dance-double - ----------------
#NOTEDATA:;
#CHARTNAME:;
#STEPSTYPE:dance-double;
#DESCRIPTION:;
#CHARTSTYLE:;
#DIFFICULTY:Medium;
#METER:9;
#RADARVALUES:0.313744,0.343920,0.000000,0.350784,0.000000,288.000000,288.000000,0.000000,46.000000,0.000000,0.000000,0.000000,0.000000,0.000000,0.313744,0.343920,0.000000,0.350784,0.000000,288.000000,288.000000,0.000000,46.000000,0.000000,0.000000,0.000000,0.000000,0.000000;
#CREDIT:;
#NOTES:
00000000
00000000
00000000
00000000
,
00000000
00000000
00000000
00000000
,
00000000
00000000
00000000
00000000
,
00000000
00000000
00000000
00000000
,
00001000
00001000
00010000
00010000
,
00100000
00010000
01000000
00000000
,
10000000
10000000
00010000
00010000
,
00100000
00001000
00010000
00000000
,
00000200
00000000
00000300
00001000
00000000
00000010
00000000
00000100
,
00000000
00000000
00000001
00000100
00000000
00000010
00000000
00000000
,
00001000
00000100
00000000
00002000
00000000
00003000
00000000
00020000
,
00000000
00030000
00000000
00100000
00000000
00100000
00000000
00000000
,
02000000
00000000
03000000
00010000
00000000
00100000
00000000
00010000
,
00000000
00000000
01000000
00010000
00000000
10000000
00000000
00000000
,
00100000
00010000
00000000
00200000
00000000
00300000
00000000
00002000
,
00000000
00003000
00000000
00000010
00000000
00000010
00000000
00000000
,
00002000
00000000
00003000
00000100
00000000
00000010
00000000
00000100
,
00000000
00000000
00000010
00000001
00000000
00000010
00000000
00000000
,
00000100
00000010
00000000
00002000
00000000
00003000
00000000
00020000
,
00000000
00030000
00000000
01000000
00000000
01000000
00000000
00000000
,
00020000
00000000
00030000
10000000
00000000
00010000
00000000
00200000
,
00000000
00300000
00010000
01000000
00000000
00010000
00000000
00000000
,
00001000
00010000
00000000
00000200
00000000
00000300
00000000
00000020
,
00000000
00000030
00000000
00000001
00000000
00000001
00000000
00000000
,
00000200
00000000
00000000
00000320
00000000
00000000
00000130
00000000
,
00000000
00001000
00000010
00001000
,
00000200
00000000
00000000
00002300
00000000
00000000
00023000
00000000
,
00000000
00130000
00000000
00000000
00010000
00000000
01000000
00000000
,
20000000
00000000
00000000
30020000
00000000
00000000
10030000
00000000
,
00000000
00100000
00010000
01000000
,
00020000
00000000
00000000
00032000
00000000
00000000
00003200
00000000
,
00000300
00000010
00000000
00000000
00000001
00000000
00000100
00000000
,
00000020
00001000
00001030
00010000
,
00100000
00000000
00010000
01000000
00000000
00100000
00000000
01000000
,
00100000
00000000
10000000
00000000
01000000
00000000
00010000
00001000
,
00000100
00000000
00000010
00000000
00000001
00000000
00000100
00000010
,
00002000
00000100
00003100
00010000
,
00100000
00000000
00010000
01000000
00000000
10000000
00000000
00100000
,
00010000
00000000
01000000
00000000
10000000
00000000
00010000
01000000
,
00100000
00000000
00010000
00000000
00100000
00000000
10000000
01000000
,
02000000
00000000
03100000
00010000
,
00001000
00000000
00001000
00010000
00000000
00001000
00000000
00000000
,
00000200
00001300
00000020
00000130
,
00000001
00000000
00000100
00000000
00000010
00000000
00000010
00001000
,
00000100
00000100
00001000
00010000
,
00100000
00000000
00010000
01000000
10000000
00000000
00100000
00000000
,
00020000
00031000
00010000
00000100
,
00002000
00003000
00000010
00000001
,
00000200
00000010
00000310
00001000
,
00000100
00000000
00001000
00010000
00000000
00100000
00000000
00010000
,
01000000
00000000
00001000
00000000
00000010
00000000
00000100
00000001
,
00001000
00000000
00000010
00000000
00000100
00000000
00001000
00010000
,
00100000
01000000
10000000
01000000
,
00100000
00000000
00100000
00010000
00000000
01000000
00000000
00100000
,
00000000
10000000
01000000
00000000
00010000
00000000
00100000
00000000
,
00010000
00000000
01000000
00000000
10000000
00000000
00100000
00010000
,
02000000
00000000
03010000
00001000
,
00000010
00000000
00000010
00000100
00000000
00000001
00000000
00000000
,
00000020
00000130
00000002
00000103
,
00001000
00000000
00000100
00000000
00010000
00000000
00010000
00001000
,
00200000
00000000
00310000
01000000
,
01000000
00000000
00100000
00010000
10000000
00000000
00010000
00000000
,
00200000
00300000
00001000
00000000
,
00020000
00030000
00001000
00000100
,
00002000
00000000
00000000
00003100
00000000
00001000
00000000
00000020
,
00000000
00000030
00000100
00000001
00000000
00000010
00000000
00000000
,
00000001
00000100
00000000
00000010
00000000
00001000
00000000
00010000
,
00000000
00100000
00000000
00010000
00000000
01000000
00000000
00000000
,
00200000
00000000
00000000
00310000
00000000
10000000
00000000
02000000
,
00000000
03000000
00100000
10000000
00000000
01000000
00000000
00000000
,
00010000
00100000
00000000
00010000
00000000
00001000
00000000
00000100
,
00000000
00000010
00000000
00000001
00000000
00000100
00000000
00000000
,
00000020
00000000
00000000
00001030
00000000
00000100
00000000
00000200
,
00000000
00000300
00000001
00000100
00000000
00000010
00000000
00000000
,
00001000
00000100
00000000
00010000
00000000
00100000
00000000
00010000
,
00000000
01000000
00000000
10000000
00000000
00100000
00000000
00000000
,
00020000
00000000
00000000
10030000
00000000
00100000
00000000
20000000
,
00000000
30000000
00010000
01000000
00000000
00010000
00000000
00000000
,
00010000
00001000
00000000
00000100
00000000
00000010
00000000
00001000
,
00000000
00010000
00000000
00100000
00000000
00010000
00100000
02000000
,
00000000
00000000
00000000
00000000
,
00000000
00000000
00000000
00000000
,
03000000
00000000
00000000
00000000
;

//---------------dance-double - ----------------
#NOTEDATA:;
#CHARTNAME:;
#STEPSTYPE:dance-double;
#DESCRIPTION:;
#CHARTSTYLE:;
#DIFFICULTY:Hard;
#METER:12;
#RADARVALUES:0.427041,0.500248,0.190643,0.320281,0.022877,392.000000,367.000000,25.000000,42.000000,0.000000,0.000000,0.000000,0.000000,0.000000,0.427041,0.500248,0.190643,0.320281,0.022877,392.000000,367.000000,25.000000,42.000000,0.000000,0.000000,0.000000,0.000000,0.000000;
#CREDIT:;
#NOTES:
// measure 0
00000000
00000000
00000000
00000000
,  // measure 1
00000000
00000000
00000000
00000000
,  // measure 2
00000000
00000000
00000000
00000000
,  // measure 3
00000000
00000000
00000000
00000000
,  // measure 4
00200000
00310000
02000000
03010000
,  // measure 5
00001000
00000000
00010000
00001000
00010000
00000000
00000100
00000000
,  // measure 6
00002000
00000000
00000000
00003200
00000000
00000000
00000320
00000000
,  // measure 7
00000000
00000032
00000000
00000000
00000203
00000000
00000000
00000300
,  // measure 8
00002000
00000000
00003000
00010000
00000000
02000000
00000000
03100000
,  // measure 9
00000000
00000000
00100000
10000000
00000000
01000000
00000000
00000000
,  // measure 10
00100000
00010000
00000000
00110000
00000000
00001000
00000000
00001100
,  // measure 11
00000000
00000100
00000000
00000110
00000000
00000001
00000000
00000000
,  // measure 12
00002000
00000000
00003000
00000010
00000000
00000100
00000000
00000002
,  // measure 13
00000000
00000003
00000010
00000001
00000000
00000100
00000000
00000000
,  // measure 14
00000010
00001000
00000000
00001100
00000000
00001000
00000000
00011000
,  // measure 15
00000000
00010000
00000000
01010000
00000000
10000000
00000000
00000000
,  // measure 16
00200000
00000000
00300000
00010000
00000000
00000100
00000000
00000020
,  // measure 17
00000000
00000030
00001000
00000100
00000000
00000001
00000000
00000000
,  // measure 18
00000010
00000100
00000000
00000110
00000000
00000100
00000000
00001100
,  // measure 19
00000000
00001000
00000000
00011000
00000000
01000000
00000000
00000000
,  // measure 20
00002000
00000000
00003000
00000100
00000000
00000010
00000000
00000002
,  // measure 21
00000000
00000003
00000100
00001000
00000000
00010000
00000000
00000000
,  // measure 22
00100000
00010000
00000000
10010000
00000000
00010000
00000000
10100000
,  // measure 23
00000000
00100000
00000000
00110000
00000000
00010000
00001000
00010000
,  // measure 24
00000200
00000000
00001300
00000010
00000000
00000010
00000001
00000000
,  // measure 25
00000100
00001000
00000010
00000000
00000100
00001000
00010000
00001000
,  // measure 26
00010000
00100000
00001000
01000000
00000000
01000000
00100000
00000000
,  // measure 27
00100000
10000000
01000000
00000000
00010000
00001000
00010000
00001000
,  // measure 28
00000100
00000001
00000010
00000100
00000000
00000001
00000100
00000000
,  // measure 29
00000100
00001000
00010000
00000000
00100000
01000000
00010000
00100000
,  // measure 30
00010000
00001000
01000000
00100000
00000000
10000000
01000000
00000000
,  // measure 31
00100000
00010000
00100000
00000000
00010000
00010000
00001000
00010000
,  // measure 32
00020000
00100000
00130000
01000000
,  // measure 33
00010000
00000000
00010000
00100000
00000000
10000000
00000000
01000000
,  // measure 34
00010000
00001000
00000100
00000000
00000001
00000010
00000100
00000000
,  // measure 35
00001000
00000000
00010000
00000000
00100000
00000000
00000000
00000000
00010000
00000000
00000000
01000000
00000000
00000000
00010000
00000000
,  // measure 36
00002000
00010000
00013000
00000100
,  // measure 37
00000010
00000000
00000100
00000001
00000000
00000100
00000000
00000010
,  // measure 38
00001000
00100000
00010000
00000000
01000000
00100000
10000000
00000000
,  // measure 39
01000000
00000000
10000000
00000000
01000000
00000000
00000000
00000000
00010000
00000000
00000000
00001000
00000000
00000000
00000100
00000000
,  // measure 40
00020000
00001000
00031000
00010000
,  // measure 41
01000000
00000000
01000000
10000000
00000000
00100000
00000000
00100000
,  // measure 42
00010000
00001000
00010000
00000000
00001000
00000100
00001000
00000000
,  // measure 43
00000100
00000000
00000001
00000000
00000100
00000000
00000000
00000000
00000001
00000000
00000000
00000010
00000000
00000000
00000100
00000000
,  // measure 44
00002000
00010000
00013000
00100000
,  // measure 45
00010000
00000000
01000000
10000000
00100000
00000000
00010000
00000000
,  // measure 46
00001000
00010000
00001000
00010000
00000000
00000100
00001000
00000010
,  // measure 47
00000100
00000001
00000100
00000010
,  // measure 48
00000020
00000100
00001030
00010000
,  // measure 49
00001000
00000000
00010000
00100000
00000000
00010000
00000000
00010000
,  // measure 50
10000000
00100000
00010000
00001000
00010000
00001000
00000010
00000100
,  // measure 51
00000001
00000000
00000010
00000000
00000001
00000000
00001000
00000000
00000100
00000000
00000000
00010000
00000000
00000000
01000000
00000000
,  // measure 52
00200000
10000000
01300000
00010000
,  // measure 53
10000000
00000000
00010000
00200000
00000000
00310000
00000000
01000000
,  // measure 54
10000000
00100000
00010000
00001000
00010000
00001000
00000010
00000100
,  // measure 55
00001000
00000000
00010000
00000000
00100000
00000000
00010000
00000000
01000000
00000000
00000000
10000000
00000000
00000000
01000000
00000000
,  // measure 56
02000000
00010000
03100000
00001000
,  // measure 57
00000010
00000000
00000100
00001000
00000000
00000100
00000000
00000001
,  // measure 58
00000100
00001000
00000100
00000000
00010000
00001000
00000100
00000000
,  // measure 59
00010000
00000000
00100000
00000000
01000000
00000000
00000000
00000000
00010000
00000000
00000000
01000000
00000000
00000000
00001000
00000000
,  // measure 60
00000020
00000100
00000031
00001000
,  // measure 61
00011000
00000000
00100000
00010000
01000000
00000000
10000000
00000000
,  // measure 62
00100000
00010000
00001000
00010000
00000000
00001000
00000100
00000010
,  // measure 63
00000001
00000100
00000010
00001000
,  // measure 64
00000200
00000000
00000000
00020300
00000000
00032000
00000000
02003000
,  // measure 65
00000000
00000000
03010000
00100000
00000000
10100000
00000000
00000000
,  // measure 66
00100000
00010000
00000000
00001000
00010000
00000100
00000000
00001000
,  // measure 67
00000010
00000100
00000000
00000001
00000010
00000100
00000000
00000000
,  // measure 68
00020000
00000000
00000000
00032000
00000000
00003020
00000000
00000230
,  // measure 69
00000000
00000000
00001300
00000001
00000000
00000110
00000000
00000000
,  // measure 70
00000100
00010000
00000000
00100000
01000000
10000000
00000000
00100000
,  // measure 71
01000000
00010000
00000000
00001000
00000100
00001000
00000000
00000000
,  // measure 72
00000200
00000000
00000000
00002300
00000000
00023000
00000000
02030000
,  // measure 73
00000000
03000000
00010000
01000000
00000000
10010000
00000000
00000000
,  // measure 74
00100000
00010000
00000000
00010100
00000000
00000100
00000000
00000101
,  // measure 75
00000000
00001000
00000000
00001001
00000000
00001100
00000000
00000000
,  // measure 76
00020000
00000000
00000000
00230000
00000000
00302000
00000000
00003200
,  // measure 77
00000000
00000300
00000001
00000010
00000000
00000101
00000000
00000000
,  // measure 78
00000010
00001000
00000000
00101000
00000000
00011000
00000000
00010100
,  // measure 79
00000000
00110000
00000000
00100000
00000000
01000000
00010000
02000000
,  // measure 80
00000000
00000000
00000000
00000000
,  // measure 81
00000000
00000000
00000000
00000000
,  // measure 82
03000000
00000000
00000000
00000000
;
