#TITLE:ぴゅあぴゅあはーと;
#SUBTITLE:;
#ARTIST:放課後ティータイム;
#TITLETRANSLIT:Pure Pure Heart;
#SUBTITLETRANSLIT:;
#ARTISTTRANSLIT:Houkago Tea Time;
#GENRE:ANIME;
#CREDIT:SAIKIO;
#BANNER:Pure Pure Heart-banner.png;
#BACKGROUND:Pure Pure Heart-bg.png;
#LYRICSPATH:;
#CDTITLE:Saikio Simfiles.png;
#MUSIC:Pure Pure Heart.ogg;
#OFFSET:-0.036000;
#SAMPLESTART:59.604008;
#SAMPLELENGTH:12.000029;
#SELECTABLE:YES;
#BPMS:0.000000=153.979996
;
#STOPS:
;
#BGCHANGES:;
#KEYSOUNDS:;
#ATTACKS:;

//---------------dance-single - ----------------
#NOTES:
     dance-single:
     :
     Beginner:
     2:
     0.133821,0.189300,0.000000,0.000000,0.000000,108.000000,108.000000,0.000000,0.000000,0.000000,0.000000,0.133821,0.189300,0.000000,0.000000,0.000000,108.000000,108.000000,0.000000,0.000000,0.000000,0.000000:
0000
0000
0000
0000
,
0000
0000
0000
0000
,
0000
0000
0000
0000
,
0000
0000
0000
0000
,
0000
0001
0000
0001
,
0000
0001
0000
0000
,
0000
1000
0000
1000
,
0000
1000
0000
0000
,
0000
0010
0000
0010
,
0000
0010
0000
0000
,
0000
0100
0000
0100
,
0000
0100
0000
0000
,
0000
0001
0000
0001
,
0000
0100
0000
0000
,
0000
1000
0000
1000
,
0000
0010
0000
0000
,
0000
0100
0000
0100
,
0000
0001
0000
0000
,
0000
0010
0000
0000
,
0000
1000
0000
0100
,
0000
0000
0010
0000
,
0010
0000
0100
0000
,
0000
0000
0001
0000
,
0001
0000
1000
0000
,
0000
0000
0100
0000
,
0100
0000
1000
0000
,
0000
0010
0000
0000
,
0000
0001
0000
0010
,
0000
0100
0100
0100
,
0000
0000
0010
0000
,
0000
0001
0000
0100
,
0000
1000
0000
0000
,
0000
0010
0010
0010
,
0000
0000
0100
0000
,
0000
0001
0000
0010
,
0000
0100
0000
0000
,
0000
1000
0000
0100
,
0000
0010
0000
0000
,
0000
1000
0000
0010
,
0000
0100
0000
0000
,
0000
0001
0000
0010
,
0000
0100
0000
0000
,
0000
1000
0000
0001
,
0000
0100
0000
0000
,
0000
0010
0000
0001
,
0000
0100
0000
0000
,
0000
0001
0000
0010
,
0000
1000
0000
0000
,
0000
1000
0000
0100
,
0000
0001
0000
0000
,
0000
0100
0000
0001
,
0000
0010
0000
0000
,
0000
0010
0000
0000
,
0000
1000
0000
1000
,
0000
1000
0000
0000
,
0000
0001
0000
0000
,
0000
0010
0000
0000
,
0000
0100
0000
0000
,
0000
1000
1000
0000
,
0000
0100
0100
0000
,
0000
0010
0010
0000
,
0000
0001
0001
0000
,
0000
1000
0000
1000
,
0000
0100
0000
0100
,
0000
0001
0000
0001
,
0000
0010
0000
0010
,
0000
1000
0000
0100
,
0000
1000
0000
0100
,
0000
0001
0000
0010
,
0000
0001
0000
0100
,
0100
0100
0000
0000
,
0000
0000
0000
0000
,
0000
0000
0000
0010
;

//---------------dance-single - ----------------
#NOTES:
     dance-single:
     :
     Easy:
     4:
     0.173471,0.252400,0.008674,0.086736,0.000000,140.000000,139.000000,1.000000,10.000000,0.000000,0.000000,0.173471,0.252400,0.008674,0.086736,0.000000,140.000000,139.000000,1.000000,10.000000,0.000000,0.000000:
0000
0000
0000
0000
,
0000
0000
0000
0000
,
0000
0000
0000
0000
,
0000
0000
0000
0000
,
0000
0020
0000
0000
,
0000
0000
0000
0030
,
0000
0200
0000
0000
,
0000
0000
0300
0000
,
0000
0002
0000
0000
,
0000
0000
0000
0003
,
0000
2000
0000
0000
,
0000
0000
0000
3000
,
0000
0100
0000
0100
,
0000
0010
0000
0010
,
0000
0001
0000
0001
,
0000
1000
0000
1000
,
0000
0010
0000
0010
,
0000
0100
0000
0100
,
0000
0001
0000
0001
,
0000
1000
1000
0001
,
0000
0010
0000
1000
,
0000
0100
0000
0010
,
0000
0001
0000
0010
,
0000
0100
0000
1000
,
0000
0001
0000
0100
,
0000
1000
0000
0010
,
0000
0001
0000
0100
,
0000
0010
0010
0100
,
0000
1000
0100
1000
,
0000
0010
0000
1000
,
0000
0100
0000
0001
,
0000
0100
0000
1000
,
0000
0010
0001
0010
,
0000
0001
0000
0010
,
0000
1000
0000
0100
,
0000
0010
0000
0001
,
0000
0100
0000
0010
,
0000
1000
0000
0100
,
0000
0001
0000
0100
,
0000
1000
0000
0100
,
0000
0001
0000
0010
,
0000
1000
0010
0010
,
0000
0001
0000
0010
,
0000
1000
0000
0010
,
0000
1000
1000
0001
,
0000
0001
0001
1000
,
0000
0001
0000
0100
,
0000
0010
0000
1000
,
0000
0100
0000
0010
,
0000
0001
0000
0100
,
0000
1000
0000
0010
,
0000
0001
0000
1000
,
0000
0100
0000
0100
,
0000
0010
0000
0100
,
0000
0020
0000
0030
,
0000
0200
0000
0300
,
0000
0002
0000
0003
,
0000
2000
0000
3000
,
0000
0001
0001
1000
,
0000
0010
0010
0100
,
0000
1000
1000
0100
,
0000
0100
0100
0010
,
0000
1000
0100
1000
,
0100
1000
1000
0010
,
0000
0001
0100
0001
,
0100
0100
0010
0000
,
1000
0100
0010
0001
,
0000
0010
0100
1000
,
0000
0010
0001
0100
,
0000
0010
1000
0100
,
0000
0220
0000
0000
,
0000
0000
0000
0000
,
0000
0330
0000
0010
;

//---------------dance-single - ----------------
#NOTES:
     dance-single:
     :
     Medium:
     6:
     0.313487,0.378601,0.164798,0.147450,0.017347,253.000000,234.000000,19.000000,17.000000,0.000000,0.000000,0.313487,0.378601,0.164798,0.147450,0.017347,253.000000,234.000000,19.000000,17.000000,0.000000,0.000000:
0000
0000
0000
0000
,
0000
0000
0000
0000
,
0000
0000
0000
0000
,
0000
0000
0000
0000
,
0000
0010
0001
0010
,
0000
1000
0100
0010
,
0000
1000
0100
1000
,
0000
0001
0010
0100
,
0000
1000
0100
0001
,
0000
0010
0001
0100
,
0000
0001
0010
1000
,
0000
0100
1000
0010
,
0000
0100
0100
0001
,
1000
0100
0010
0001
,
0000
0010
0010
0001
,
0100
1000
0010
0100
,
0000
1000
1000
0001
,
0100
0010
1000
0001
,
0100
0010
0000
0100
,
0000
0010
1000
0100
,
0000
0010
0010
0100
,
0010
0001
0010
0100
,
0000
0100
0100
0001
,
0100
1000
0010
0100
,
0000
0001
0001
0010
,
0100
1000
0100
0010
,
0001
0100
0000
0010
,
0000
1000
1000
0100
,
0000
0010
1100
0010
,
1100
0000
0010
0100
,
0000
0001
0001
0100
,
1000
0010
0100
0000
,
0001
0100
0011
0100
,
0011
0000
1000
0100
,
0000
1000
1000
0001
,
0000
0001
0001
1000
,
0000
0020
0230
0302
,
0013
1100
0000
0101
,
0000
1001
0010
1001
,
0100
0100
0000
0001
,
1000
0110
0001
0110
,
1000
0100
1000
0001
,
1001
0020
0130
2000
,
3001
1010
0000
0001
,
0100
0002
0013
2000
,
3100
0010
0100
0001
,
0000
0020
0031
0200
,
1300
1010
0000
0010
,
0100
0002
0103
2000
,
3010
0101
0000
0100
,
0010
0011
0100
1100
,
0010
0110
0000
0001
,
0100
2000
3000
0010
,
0000
0200
0300
0020
,
0030
0201
0001
0010
,
1000
0010
0301
0100
,
0001
1000
1000
0001
,
0001
0100
0010
1000
,
0100
0000
0000
0000
0001
0000
0000
0000
1000
0000
0000
0100
0000
0000
0000
0000
,
0000
0000
0000
0000
0010
0000
0000
0000
0100
0000
0000
0001
0000
0000
0000
0000
,
0000
0000
0000
0000
0010
0000
0000
0000
0001
0000
0000
0010
0000
0000
0000
0000
,
0000
0000
0000
0000
0100
0000
0000
0000
0010
0000
0000
1000
0000
0000
0000
0000
,
0000
0000
1000
0100
1000
0000
0010
0100
,
0010
0000
0001
0100
0001
0000
1000
0000
,
0100
0000
0010
0001
0100
0000
0010
1000
,
0100
1000
0010
0100
,
0001
0000
0001
0100
1000
0000
0010
0000
,
0001
0000
1000
0010
0100
0000
0010
0000
,
1000
0000
0001
0000
0001
0100
0010
0000
,
1000
0000
0001
0000
0010
0001
0010
0000
,
0100
0220
0000
0000
,
0000
0000
0000
0000
,
0000
0330
0000
0010
;

//---------------dance-single - ----------------
#NOTES:
     dance-single:
     :
     Hard:
     12:
     0.474567,0.536351,0.242859,0.173471,0.056378,383.000000,355.000000,28.000000,20.000000,0.000000,0.000000,0.474567,0.536351,0.242859,0.173471,0.056378,383.000000,355.000000,28.000000,20.000000,0.000000,0.000000:
0000
0000
0000
0000
,
0000
0000
0000
0000
,
0000
0000
0000
0000
,
0000
0000
0000
0000
,
0000
0000
0010
0001
0010
0000
1000
0100
,
1000
0000
0001
0010
0100
0000
0010
1000
,
0100
0000
1000
0001
0100
0000
0010
0100
,
0010
0000
1000
0100
0010
0000
0001
0100
,
0010
0000
0000
0000
0100
0000
0000
0000
0100
0000
0000
0001
0000
0000
1000
0000
,
0000
0000
0100
0000
0010
0000
0000
0000
0010
0000
0000
0100
0000
0000
0010
0000
,
0000
0000
1000
0000
0001
0000
0000
0000
0001
0000
0000
0010
0000
0000
0100
0000
,
0000
0000
0001
0000
1000
0000
0000
0000
0100
0000
0000
0001
0000
0000
0100
0000
,
0000
0010
0010
0100
0001
0000
0010
0100
,
0010
0100
1000
0000
0010
0001
0000
0001
,
0100
0000
1100
0000
0100
0000
0010
0100
,
1000
0010
1000
0000
0001
0100
0000
0100
,
0001
0000
0011
0000
0010
0000
1000
0010
,
0100
1000
0001
0000
0100
0100
0000
0010
,
0000
1000
0000
0100
0010
0000
0001
0000
,
0100
0000
0010
0000
0010
0100
1000
0000
,
0100
0000
0010
1000
0010
0000
0001
0010
,
0001
0100
0010
0000
1000
0100
0000
0100
,
0001
0000
0101
0000
0100
0000
0010
0100
,
1000
0100
0010
0000
0001
0100
0000
0100
,
1000
1010
0010
0100
,
0001
0010
1000
0000
0010
0100
0000
0010
,
0000
0001
0000
0001
0100
0000
0001
0000
,
0010
0000
0100
0000
0100
0010
0001
0000
,
0100
1010
1001
0101
,
0110
0000
0000
1000
0010
1000
0100
0000
,
0100
0000
0010
0001
0010
0000
0001
1000
,
0100
0000
1000
0000
1000
0010
0000
0000
,
0100
0011
1010
1100
,
0101
0000
0000
1000
0001
1000
0010
0000
,
0100
0000
1000
0010
1000
0010
0100
0000
,
0100
0000
0010
0001
0100
0001
0010
0000
,
0001
0000
1000
0100
0001
0010
0100
1000
,
0010
1100
0001
0011
,
0100
0000
0000
0000
0020
0000
0000
0030
1000
0000
0001
0000
0200
0000
0000
0300
,
0001
0010
0100
0000
1000
0100
1000
0010
,
0100
0000
0001
0000
0002
0000
0000
0003
0100
0000
0010
0000
2000
0000
0000
3000
,
0010
0100
0001
0000
0011
0000
1010
0000
,
1100
0000
0000
0000
0002
0000
0000
0003
0010
0000
1000
0000
0200
0000
0000
0300
,
0010
0001
0100
0000
0100
0000
1000
0100
,
0001
1001
0010
0101
,
1000
0000
0200
0000
0300
0100
0001
0000
,
0000
0000
0010
0000
0020
0000
0000
0030
0001
0000
0100
0000
0002
0000
0000
0003
,
0010
0100
1000
0000
0100
0000
1000
0001
,
0010
0000
0000
0000
2000
0000
0000
3000
0001
0000
0010
0000
0200
0000
0000
0300
,
0001
0100
0010
0000
0100
0000
0001
1000
,
0100
0000
0000
0000
0002
0000
0000
0003
0100
0000
0001
0000
2000
0000
0000
3000
,
0010
0100
1000
0000
0100
0000
0010
0010
,
1000
0011
0100
1100
,
0010
2001
3100
1002
,
0013
0020
1000
0100
,
0001
0000
0000
0000
0100
0000
0000
0000
0130
0000
0000
0001
0000
0000
1000
0000
,
0000
0000
0100
0000
1000
0000
0000
0000
0010
0000
0000
0100
0000
0000
0001
0000
,
0000
0000
0010
0000
0100
0000
0000
0000
1000
0000
0000
0100
0000
0000
0010
0000
,
0000
0000
0001
0000
0100
0000
0000
0000
0110
0000
0000
0010
0000
0000
1000
0000
,
0000
0000
0010
0000
0100
0000
0000
0000
0011
0000
0000
0001
0000
0000
0010
0000
,
0000
0000
1000
0000
0010
0000
0000
0000
1001
0000
0000
0100
0000
0000
0100
0000
,
0000
0000
0010
0000
0100
0000
0000
0000
0110
0000
0000
1000
0000
0000
0001
0000
,
0000
0100
1000
0010
1000
0100
1000
0001
,
0100
0001
0100
0010
1000
0010
1000
0100
,
0010
0001
0100
0100
0010
0010
0001
0100
,
0010
1000
0100
0020
0000
0000
1030
0000
,
1000
0000
0010
0002
0000
0003
0100
0010
,
0001
0100
0010
0000
0010
0000
0100
0000
,
0010
0000
1000
0000
0001
0000
0000
0000
0100
0000
0100
0000
0010
0000
0000
0010
,
0000
0000
1000
0000
0000
0000
0100
0000
0010
0000
0100
0000
0001
0000
0000
1000
,
0000
0010
0220
0000
0000
0000
0000
0000
,
0000
0000
0000
0000
,
0000
0330
0000
0010
;

//---------------dance-double - ----------------
#NOTES:
     dance-double:
     :
     Easy:
     5:
     0.236664,0.283950,0.138777,0.199492,0.000000,191.000000,175.000000,16.000000,23.000000,0.000000,0.000000,0.236664,0.283950,0.138777,0.199492,0.000000,191.000000,175.000000,16.000000,23.000000,0.000000,0.000000:
00000000
00000000
00000000
00000000
,
00000000
00000000
00000000
00000000
,
00000000
00000000
00000000
00000000
,
00000000
00000000
00000000
00000000
,
00000000
00022000
00000000
00033000
,
00000000
00010000
00000000
00100000
,
00000000
20020000
00000000
30030000
,
00000000
00010000
00000000
00001000
,
00000000
00022000
00000000
00033000
,
00000000
00001000
00000000
00000100
,
00000000
00002002
00000000
00003003
,
00000000
00000010
00000000
00001000
,
00000000
00010000
00000000
00010000
,
00000000
01000000
00100000
00010000
,
00000000
00001000
00000000
00001000
,
00000000
00000010
00000100
00000001
,
00000000
00000001
00000000
00000100
,
00000000
00000010
00001000
00000100
,
00000000
00010000
00000000
00010000
,
00000000
00100000
00100000
00100000
,
00000000
10000000
00010000
00100000
,
00000000
00001000
00010000
00000100
,
00000000
00001000
00000100
00000010
,
00000000
00000010
00000001
00000100
,
00000000
00000100
00001000
00010000
,
00100000
01000000
00000000
10000000
,
00000000
00100000
00100000
00000000
,
00000000
00010000
00010000
00010000
,
00000000
10010000
00100000
00010000
,
00001000
00000000
00000100
00000100
,
00000000
00000010
00000001
00000010
,
00000000
00000100
00001000
00000000
,
00100000
00011000
00010000
00100000
,
01000000
00000000
00010000
01000000
,
00000000
00200000
00300000
00010000
,
00000000
00002000
00003000
00000100
,
00000000
00000001
00000100
00001000
,
00000100
00000100
00001000
00010000
,
00000000
00020000
00030000
00100000
,
00000000
01000000
00000000
10000000
,
00010000
00002000
00003000
00000100
,
00000000
00000001
00001000
00000001
,
00000010
00000200
00000300
00000010
,
00000000
00001000
00000000
00010000
,
00010000
01000000
01000000
00100000
,
00000000
10000000
00010000
01000000
,
00000000
20000000
30000000
00010000
,
00000000
01100000
00000000
00010000
,
00001000
00000020
00000030
00000100
,
00000000
00001001
00000000
00000010
,
00000100
00020000
00030000
00100000
,
00000000
01010000
00000000
01000000
,
01000000
10000000
00100000
00010000
,
00000000
00022000
00033000
00011000
,
00000000
00020000
00000000
00032000
,
00000000
00023000
00031000
00001000
,
00000000
00010000
00001000
00000100
,
00000000
00000010
00000001
00000100
,
00000000
00001010
00000000
00000100
,
00000000
00011000
00000000
00100000
,
00000000
10010000
00000000
01000000
,
00000000
01010000
00000000
00001000
,
00000000
00001000
00000100
00000001
,
00000010
00000100
00001000
00010000
,
00010000
00100000
00010000
01000000
,
10000000
00100000
00010000
00000000
,
00001000
00000100
00000100
00001000
,
00000000
00000010
00000001
00000000
,
00000100
00001000
00010000
01000000
,
10000000
00100000
00010000
01000000
,
00000000
02200000
00000000
00000000
,
00000000
00000000
00000000
00000000
,
00000000
03300000
00000000
00010000
;

//---------------dance-double - ----------------
#NOTES:
     dance-double:
     :
     Medium:
     8:
     0.323400,0.378601,0.164798,0.268880,0.000000,261.000000,242.000000,19.000000,31.000000,0.000000,0.000000,0.323400,0.378601,0.164798,0.268880,0.000000,261.000000,242.000000,19.000000,31.000000,0.000000,0.000000:
00000000
00000000
00000000
00000000
,
00000000
00000000
00000000
00000000
,
00000000
00000000
00000000
00000000
,
00000000
00000000
00000000
00000000
,
00000000
00001000
00010000
00100000
,
00000000
00010000
01000000
10000000
,
00000000
00100000
00010000
00001000
,
00000000
00001000
00000100
00000001
,
00000000
00000010
00000100
00001000
,
00001000
00010000
00100000
01000000
,
01000000
10000000
01000000
10000000
,
10000000
00100000
00010000
00001000
,
00001000
00000200
00000300
00000020
,
00000030
00000100
00000010
00000001
,
00000000
00000200
00000300
00020000
,
00030000
00100000
01000000
00010000
,
00000000
20000000
30000000
00200000
,
00300000
00010000
00001000
00000100
,
00001000
00000010
00000010
00000100
,
00000000
00000001
00000100
00000100
,
00010000
00000000
00001000
00010000
00001000
00000000
00010000
00000000
,
00100000
00010000
01000000
10000000
,
00100000
00000000
00010000
00001000
00010000
00000000
00001000
00000000
,
00000100
00000010
00000001
00000100
,
00000001
00000000
00000010
00000100
00000010
00000000
00001000
00000000
,
00000100
00010000
00100000
01000000
,
10000000
01000000
01000000
00010000
,
00000000
00100000
00100000
00010000
,
00000000
00011000
00010000
00011000
,
00001000
00000000
00001000
00000010
,
00000000
00000100
00000001
00000010
,
00000100
00001000
00010000
00000000
,
00100000
10010000
01000000
10010000
,
00100000
00000000
00100000
00010000
,
00000000
00000000
00010000
00010000
00010000
00000000
00001000
00000000
,
00000100
00000000
00000010
00000010
00000010
00000000
00000001
00000000
,
00000100
00001000
00011000
00100000
,
00110000
02000000
03000000
00100000
,
00000000
00020000
00030100
00002000
,
00003010
00001000
00000001
00000100
,
00000010
00000200
00000310
00000020
,
00001030
00000100
00001100
00001100
,
00011000
00200000
00310000
02000000
,
03010000
00100000
00000000
00010000
,
01000000
11000000
00100000
00110000
,
00001000
00020000
00030000
00001000
,
00000000
00002000
00003100
00000020
,
00000031
00000110
00000100
00001000
,
00000100
00020000
00031000
00200000
,
00310000
01010000
10000000
00100000
,
00010000
00002000
00003010
00000200
,
00000301
00001010
00000000
00001000
,
00000010
00000200
00000300
00000010
,
00000000
00000000
00020000
00000000
00000000
00030000
00002000
00000000
,
00000000
00003000
00200000
00000000
00010000
00000000
00310000
00000000
,
00000000
20000000
01000000
31000000
,
00000000
00200000
00010000
00310000
,
00000000
00002000
00000100
00003100
,
00000000
00001010
00000100
00000001
,
00000000
00011000
00100000
01000000
,
00000000
00110000
01000000
00001000
,
00000000
00000110
00000001
00000100
,
00000000
00000000
00000100
00001000
00010000
00000000
00010000
00100000
,
00010000
00000000
00100000
01000000
10000000
00000000
00100000
00000000
,
00010000
00000000
00001000
00000100
00000010
00000000
00001000
00000001
,
00001000
00000200
00002300
00003100
,
00010000
00000000
00001000
00010000
00001000
00000000
00100000
00000000
,
00010000
00010000
01000000
00000000
10000000
00000000
00100000
00000000
,
00010000
00000000
00001000
00000000
00010000
00001000
00000100
00000000
,
00000001
00000000
00000010
00000000
00000100
00001000
00000100
00000000
,
00000010
00000220
00000000
00000000
,
00000000
00000000
00000000
00000000
,
00000000
00000330
00000000
00001000
;

//---------------dance-double - ----------------
#NOTES:
     dance-double:
     :
     Hard:
     12:
     0.455981,0.536351,0.156124,0.199492,0.060715,368.000000,350.000000,18.000000,23.000000,0.000000,0.000000,0.455981,0.536351,0.156124,0.199492,0.060715,368.000000,350.000000,18.000000,23.000000,0.000000,0.000000:
// measure 0
00000000
00000000
00000000
00000000
,  // measure 1
00000000
00000000
00000000
00000000
,  // measure 2
00000000
00000000
00000000
00000000
,  // measure 3
00000000
00000000
00000000
00000000
,  // measure 4
00000000
00000000
00000001
00000010
00001000
00000000
00010000
00000000
,  // measure 5
00000100
00000000
00001000
00010000
00100000
00000000
01000000
00000000
,  // measure 6
00010000
00000000
00010000
01000000
10000000
00000000
00100000
00000000
,  // measure 7
00010000
00000000
00010000
00001000
00000100
00000000
00001000
00000000
,  // measure 8
00000010
00000000
00000000
00000000
00001000
00000000
00000000
00000000
00001000
00000000
00000000
00000100
00000000
00000000
00001000
00000000
,  // measure 9
00000000
00000000
00010000
00000000
00100000
00000000
00000000
00000000
00100000
00000000
00000000
00010000
00000000
00000000
01000000
00000000
,  // measure 10
00000000
00000000
10000000
00000000
01000000
00000000
00000000
00000000
01000000
00000000
00000000
00010000
00000000
00000000
00010000
00000000
,  // measure 11
00000000
00000000
00001000
00000000
00000010
00000000
00000000
00000000
00000010
00000000
00000000
00000100
00000000
00000000
00000001
00000000
,  // measure 12
00000000
00000010
00000010
00000000
00001000
00000000
00010000
00001000
,  // measure 13
00010000
00000000
00001000
00000000
00010000
00100000
00000000
00100000
,  // measure 14
01000000
00000000
10000000
00000000
00100000
00000000
00010000
00001000
,  // measure 15
00010000
00000000
00000100
00000000
00001000
00000010
00000000
00000010
,  // measure 16
00000001
00000100
00000010
00001000
,  // measure 17
00010000
00001000
00010000
00000000
00100000
00010000
00000000
01000000
,  // measure 18
00000000
01000000
00000000
10000000
10000000
00000000
00100000
00000000
,  // measure 19
01000000
00010000
00010000
00001000
,  // measure 20
00000100
00000000
00001000
00000100
00001000
00000000
00000010
00001000
,  // measure 21
00000001
00000000
00000100
00000000
00000010
00001000
00000000
00001000
,  // measure 22
00010000
00000000
00100000
01000000
10000000
00000000
01000000
00010000
,  // measure 23
01000000
10000000
00100000
00000000
00010000
00001000
00000000
00000100
,  // measure 24
00001000
00000000
00000100
00000000
00000010
00000000
00000010
00000100
,  // measure 25
00000001
00000100
00000010
00000000
00000100
00001000
00000000
00000100
,  // measure 26
00000000
00010000
00000000
00010000
00001000
00000000
00010000
00000000
,  // measure 27
00010000
00100000
00100000
00010000
,  // measure 28
01000000
00110000
00010000
00001000
,  // measure 29
00011000
00000000
00000000
00000100
00001000
00000000
00000010
00000000
,  // measure 30
00000100
00000000
00000001
00000010
00001000
00000000
00001000
00010000
,  // measure 31
00100000
00000000
10000000
00010000
01000000
00000000
00010000
00000000
,  // measure 32
01000000
00110000
00011000
00001000
,  // measure 33
00001010
00000000
00000000
00010000
00001000
00010000
00000100
00000000
,  // measure 34
00000010
00000000
00000100
00000100
00000001
00000000
00000100
00000000
,  // measure 35
00001000
00000000
00010000
00010000
00100000
00000000
00010000
00000000
,  // measure 36
01000000
00000000
10000000
01000000
00010000
00001000
00000100
00000000
,  // measure 37
00000100
00000000
00000010
00000100
00000010
00000000
00000100
00000000
,  // measure 38
00001000
00000000
00000000
00000000
00000020
00000000
00000000
00000030
00000001
00000000
00001000
00000000
00000200
00000000
00000000
00000300
,  // measure 39
00001000
00000100
00001000
00000000
00001000
00010000
00100000
00100000
,  // measure 40
01000000
00000000
10000000
00000000
02000000
00000000
00000000
03000000
00010000
00000000
01000000
00000000
00020000
00000000
00000000
00030000
,  // measure 41
00100000
00010000
00100000
00000000
00001000
00001000
00000100
00000100
,  // measure 42
00000010
00000000
00000000
00000000
00002000
00000000
00000000
00003000
00000010
00000000
00001000
00000000
00000002
00000000
00000000
00000003
,  // measure 43
00000100
00000010
00001000
00000000
00000100
00000000
00001000
00010000
,  // measure 44
00100000
00011000
00110000
01010000
,  // measure 45
10000000
00000000
00200000
00000000
00310000
01000000
00010000
00000000
,  // measure 46
00001000
00000000
00000100
00000000
00002000
00000000
00000000
00003000
00000100
00000000
00001000
00000000
00000020
00000000
00000000
00000030
,  // measure 47
00000001
00000100
00000001
00000000
00000100
00000010
00000000
00001000
,  // measure 48
00000100
00000000
00000000
00000000
00020000
00000000
00000000
00030000
00001000
00000000
00100000
00000000
02000000
00000000
00000000
03000000
,  // measure 49
10000000
01000000
00100000
00000000
00100000
00001000
00010000
00000100
,  // measure 50
00001000
00000000
00000100
00000000
00000020
00000000
00000000
00000030
00000100
00000000
00001000
00000000
00000002
00000000
00000000
00000003
,  // measure 51
00000100
00000010
00000001
00000000
00000010
00000000
00001000
00000010
,  // measure 52
00001000
00001010
00000100
00011000
,  // measure 53
00010000
00202000
00303000
00020200
,  // measure 54
00030300
00000000
00000000
00000000
00012000
00000000
00000000
00000000
00010000
00000000
00000000
00010000
00000000
00000000
00013000
00000000
,  // measure 55
00000000
00000000
00001000
00000000
00000100
00000000
00000000
00000000
00001000
00000000
00000000
00001000
00000000
00000000
00000100
00000000
,  // measure 56
00000000
00000000
00000010
00000000
00000010
00000000
00000000
00000000
00000001
00000000
00000000
00000001
00000000
00000000
00000001
00000000
,  // measure 57
00000000
00000000
00000100
00000000
00001000
00000000
00000000
00000000
00001000
00000000
00000000
00001000
00000000
00000000
00010000
00000000
,  // measure 58
00000000
00000000
00010000
00000000
00110000
00000000
00000000
00000000
00100000
00000000
00000000
10000000
00000000
00000000
00100000
00000000
,  // measure 59
00000000
00000000
00010000
00000000
00011000
00000000
00000000
00000000
00000100
00000000
00000000
00001000
00000000
00000000
00000100
00000000
,  // measure 60
00000000
00000000
00001000
00000000
00001010
00000000
00000000
00000000
00000100
00000000
00000000
00000001
00000000
00000000
00000100
00000000
,  // measure 61
00000000
00000000
00000010
00000000
00000011
00000000
00000000
00000000
00000100
00000000
00000000
00001000
00000000
00000000
00000100
00000000
,  // measure 62
00000000
00001000
00010000
00001000
00010000
00001000
00100000
00010000
,  // measure 63
00100000
00010000
01000000
10000000
00010000
10000000
00100000
00010000
,  // measure 64
00001000
00010000
00000100
00001000
00010000
00000100
00001000
00000010
,  // measure 65
00001000
00000001
00000100
00000020
00000000
00000000
00001030
00000000
,  // measure 66
00001000
00000000
00000100
00010000
00002000
00000000
00013000
00001000
,  // measure 67
00100000
00010000
02000000
00000000
03010000
00000000
00100000
00000000
,  // measure 68
00010000
00000000
00000000
00000000
00001000
00000000
00000100
00000000
00000010
00000000
00000001
00000000
00000010
00000000
00000000
00000100
,  // measure 69
00000000
00000000
00001000
00000000
00000000
00000000
00010000
00000000
00100000
00000000
00010000
00000000
01000000
00000000
00000000
10000000
,  // measure 70
00000000
00100000
02200000
00000000
00000000
00000000
00000000
00000000
,  // measure 71
00000000
00000000
00000000
00000000
,  // measure 72
00000000
03300000
00000000
00010000
;
