#VERSION:0.83;
#TITLE:Psycho;
#SUBTITLE:;
#ARTIST:레드벨벳;
#TITLETRANSLIT:Psycho;
#SUBTITLETRANSLIT:;
#ARTISTTRANSLIT:Red Velvet;
#GENRE:K-POP;
#ORIGIN:;
#CREDIT:SAIKIO;
#BANNER:Psycho-banner.png;
#BACKGROUND:bg.png;
#PREVIEWVID:;
#JACKET:Psycho-jacket.png;
#CDIMAGE:;
#DISCIMAGE:;
#LYRICSPATH:;
#CDTITLE:Saikio Simfiles.png;
#MUSIC:Psycho.ogg;
#OFFSET:-0.029000;
#SAMPLESTART:41.624016;
#SAMPLELENGTH:16.000046;
#SELECTABLE:YES;
#BPMS:0.000=140.020;
#STOPS:;
#DELAYS:;
#WARPS:;
#TIMESIGNATURES:0.000=4=4;
#TICKCOUNTS:0.000=4;
#COMBOS:0.000=1;
#SPEEDS:0.000=1.000=0.000=0;
#SCROLLS:0.000=1.000;
#FAKES:;
#LABELS:0.000=Song Start;
#BGCHANGES:-0.100=Psycho.avi=1.000=0=0=0=StretchNoLoop====,
99999=-nosongbg-=1.000=0=0=0 // don't automatically add -songbackground-
;
#KEYSOUNDS:;
#ATTACKS:
;

//---------------dance-single - ----------------
#NOTEDATA:;
#CHARTNAME:;
#STEPSTYPE:dance-single;
#DESCRIPTION:;
#CHARTSTYLE:;
#DIFFICULTY:Beginner;
#METER:3;
#RADARVALUES:0.129288,0.170575,0.000000,0.094436,0.000000,115.000000,115.000000,0.000000,12.000000,0.000000,0.000000,0.000000,0.000000,0.000000,0.129288,0.170575,0.000000,0.094436,0.000000,115.000000,115.000000,0.000000,12.000000,0.000000,0.000000,0.000000,0.000000,0.000000;
#CREDIT:;
#NOTES:
0000
0000
0000
0000
,
0000
0000
0000
0000
,
0000
0000
0000
0000
,
0000
0000
0000
0000
,
0000
0000
0000
0000
,
0000
0000
0000
0000
,
0000
0000
0000
0000
,
0000
0100
0000
0000
,
0000
0010
0000
0010
,
0000
0000
0000
0010
,
0000
0001
0000
0001
,
0000
0000
0000
0001
,
0000
0100
0000
0100
,
0000
0000
0000
1000
,
0000
0100
0000
0100
,
0000
0100
0000
0000
,
0000
0010
0000
1000
,
0000
0100
0000
0000
,
0000
0010
0000
0001
,
0000
0010
0000
0000
,
0000
0100
0000
0100
,
0000
0010
0000
0010
,
0000
0001
0000
0001
,
0000
0010
0000
0000
,
0000
0100
0100
0100
,
0000
0010
0000
0100
,
0000
0001
0000
0100
,
0000
0010
0000
1000
,
0000
0100
0000
0001
,
0000
0100
0000
0001
,
0000
0010
0000
0010
,
0000
0010
0000
0000
,
0000
2000
3000
0000
,
0002
0003
0000
0100
,
0000
0200
0300
0000
,
0020
0030
0000
0010
,
0000
0001
0001
0000
,
0000
1000
1000
0000
,
0000
0010
0000
1000
,
0000
0001
0000
1000
,
0000
0200
0300
0000
,
0020
0030
0000
1000
,
0000
0002
0003
0000
,
2000
3000
0000
0001
,
0000
0100
0100
0000
,
0000
0010
0010
0000
,
0000
0010
0000
1000
,
0000
0001
0000
0010
,
0000
0100
0000
0100
,
0000
0010
0000
0010
,
0000
0100
0000
0100
,
0000
0000
0000
0010
,
0000
0001
0000
0001
,
0000
0100
0000
0100
,
0000
1000
0000
1000
,
0000
0010
0000
0000
,
0000
0200
0300
0000
,
0002
0003
0000
0010
,
0000
2000
3000
0000
,
0020
0030
0000
0100
,
0000
0001
0001
0000
,
0100
0000
0010
0000
,
0000
1000
1000
0000
,
0000
0100
0100
0000
,
0000
0010
0100
0000
,
0000
0001
1000
0000
,
0000
0100
0001
0000
,
0000
0010
1000
0000
,
0100
0000
0100
0000
,
0000
0010
0010
0000
,
0001
0000
0100
0000
,
0000
0001
0000
0010
,
0000
0100
0000
0000
;

//---------------dance-single - ----------------
#NOTEDATA:;
#CHARTNAME:;
#STEPSTYPE:dance-single;
#DESCRIPTION:;
#CHARTSTYLE:;
#DIFFICULTY:Easy;
#METER:5;
#RADARVALUES:0.206860,0.284784,0.070827,0.062957,0.000000,184.000000,175.000000,9.000000,8.000000,0.000000,0.000000,0.000000,0.000000,0.000000,0.206860,0.284784,0.070827,0.062957,0.000000,184.000000,175.000000,9.000000,8.000000,0.000000,0.000000,0.000000,0.000000,0.000000;
#CREDIT:;
#NOTES:
0000
0000
0000
0000
,
0000
0000
0000
0000
,
0000
0000
0000
0000
,
0000
0000
0000
0000
,
0000
0000
0000
0000
,
0000
0000
0000
0000
,
0000
0000
0000
0000
,
0000
0010
0000
0000
,
0000
0001
0000
0100
,
0000
1000
0000
0010
,
0000
0100
0000
0001
,
0000
0010
0000
0100
,
0010
0100
0000
0001
,
1000
0001
0000
1000
,
0100
1000
0000
0010
,
0001
0010
0000
1000
,
0010
0001
0010
0200
,
0000
0310
0000
0001
,
0100
1000
0100
0020
,
0000
0130
0000
0100
,
0100
0001
0000
0100
,
1000
0010
0000
1000
,
0000
0001
0100
1000
,
0000
0020
0030
0010
,
0000
0001
0010
0100
,
1000
0100
0010
0001
,
0000
1000
0000
1001
,
0000
0100
0000
0110
,
0000
0001
0000
0011
,
0000
0100
0000
1100
,
0000
0010
0000
0010
,
0000
0000
0100
0001
,
0100
0000
1000
1000
0000
0000
0000
0000
,
0001
0001
0000
0000
0100
0000
0010
0000
,
0000
0000
0100
0100
0000
0000
0000
0000
,
0010
0010
0000
0000
0000
0000
0001
0000
,
0100
1000
1000
0010
,
0000
0100
0001
0010
,
0000
1000
0001
0100
,
0000
0001
1000
0010
,
0000
0000
1000
1000
0000
0000
0000
0000
,
0001
0001
0000
0000
0100
0000
0001
0000
,
0000
0000
0010
0010
0000
0000
0000
0000
,
0100
0100
0000
0000
0000
0000
0010
0000
,
0000
0100
1000
0010
,
0000
0100
0001
0010
,
0000
0001
1000
0100
,
0000
1000
0010
0100
,
0000
0002
0000
1003
,
0000
2000
0000
3001
,
0000
0100
0000
0010
,
0000
0100
0000
0110
,
0000
0001
0100
1000
,
0000
1000
0100
0010
,
0000
0010
0100
0001
,
0000
0100
0000
0010
,
0000
0000
1000
1000
0000
0000
0000
0000
,
0100
0100
0000
0000
0010
0000
1000
0000
,
0100
0000
0010
0010
0000
0000
0000
0000
,
0001
0001
0000
0000
0000
0000
0010
0000
,
0001
0200
0000
0310
,
0000
0020
0000
0130
,
0000
0100
0001
0100
,
0000
1000
0010
1000
,
0000
1000
0100
1001
,
0000
0100
0010
0110
,
0000
0001
0010
1001
,
0000
0010
0100
0110
,
0000
1000
0000
0001
,
0000
0000
0020
0000
0000
0030
0000
0000
,
0000
0100
0000
0010
,
0000
1000
0100
0001
,
0000
0000
0100
0100
0000
0000
0000
0000
;

//---------------dance-single - ----------------
#NOTEDATA:;
#CHARTNAME:;
#STEPSTYPE:dance-single;
#DESCRIPTION:;
#CHARTSTYLE:;
#DIFFICULTY:Medium;
#METER:9;
#RADARVALUES:0.292302,0.313262,0.039348,0.133785,0.000000,260.000000,255.000000,5.000000,17.000000,0.000000,0.000000,0.000000,0.000000,0.000000,0.292302,0.313262,0.039348,0.133785,0.000000,260.000000,255.000000,5.000000,17.000000,0.000000,0.000000,0.000000,0.000000,0.000000;
#CREDIT:;
#NOTES:
0000
0000
0000
0000
,
0000
0000
0000
0000
,
0000
0000
0000
0000
,
0000
0000
0000
0000
,
0000
0000
0000
0000
,
0000
0000
0000
0000
,
0000
0000
0000
0000
,
0000
0000
0010
0010
0000
0000
0100
0000
,
0001
0100
0100
2000
,
0000
0000
3010
0000
0000
0000
0100
0001
,
0010
0100
0001
0020
,
0000
0031
0000
0100
,
0010
0001
0010
0000
0100
0000
1000
0000
,
0100
0010
0001
0000
0100
0000
0001
0000
,
0000
0000
1000
0000
0000
0000
0001
0010
,
0100
1000
0000
0100
,
0100
0010
0001
0200
,
0000
0000
1300
0000
0000
0000
0100
0001
,
0010
0100
0010
0002
,
0000
0103
0000
0010
,
1000
0001
0001
0100
,
0010
0110
0000
1000
,
0000
0000
0100
0000
1000
0010
1000
0000
,
0000
0200
0000
0310
,
0000
0000
0001
0000
0001
0100
1000
0000
,
0010
1000
0100
0010
,
0001
0100
0010
0000
0000
0000
1001
0000
,
0000
0000
0001
0100
1000
0000
0010
0000
,
0100
0000
0001
0101
,
0000
0000
1000
0100
0010
0000
0001
0000
,
0100
0010
0000
1000
,
0001
0000
0100
0000
0010
1000
0010
0000
,
0100
0000
0001
0002
0000
0003
0000
0000
,
1000
2000
0000
3000
0000
0000
0010
0000
,
0001
0000
0100
0200
0000
0300
0000
0000
,
0010
0020
0000
0030
0000
0000
0100
0000
,
0010
0000
0001
0010
0100
0000
1000
0000
,
0100
0000
1000
0100
0010
0000
0001
0000
,
0000
0000
1000
0100
1000
0000
0001
0000
,
0100
0000
0010
0001
0010
0000
0100
0000
,
0010
0000
1000
2000
0000
3000
0000
0000
,
0001
0002
0000
0003
0100
0000
1000
0000
,
0010
0000
0100
0200
0000
0300
0000
0000
,
0010
0020
0000
0030
0000
0000
0100
0000
,
0010
0000
1000
0100
0010
0000
0001
0000
,
0100
0000
0001
0010
0100
0000
1000
0000
,
0000
0000
0100
0001
1000
0000
0100
0000
,
0000
0000
0010
1000
0001
0000
0010
0000
,
0000
1000
0000
1100
,
0000
0010
0001
0100
,
0000
0000
0010
0001
0100
0000
0010
0000
,
1000
0001
0000
0110
,
0000
0000
0100
0000
0100
0010
0100
0000
,
0001
0000
0001
0000
1000
0010
1000
0000
,
0010
0000
0100
0000
0100
1000
0010
0000
,
0001
0000
0100
0000
0010
0001
0100
0000
,
0010
0000
1000
2000
0000
3000
0000
0000
,
0100
0200
0000
0300
1000
0000
0010
0000
,
1000
0000
0010
0020
0000
0030
0000
0000
,
0001
0002
0000
0003
0000
0000
0010
0000
,
0100
0000
0001
1000
0010
0000
0001
0000
,
0100
0000
1000
0001
0100
0000
0010
0000
,
1000
0000
0100
0010
0001
0000
0010
0000
,
0010
0000
1000
0100
0001
0000
0100
0000
,
0001
0000
0010
0100
1000
0000
0010
0000
,
0100
0000
1000
0010
0001
0000
1000
0000
,
0100
0000
0001
0100
1000
0000
0010
0000
,
0001
0000
1000
0100
0010
0000
0001
0000
,
0100
1000
0000
0000
0010
0000
0100
0000
,
0001
0000
0010
0000
0010
0001
0100
0000
,
0010
0001
0000
0000
0100
0000
0010
0000
,
0100
1000
0100
0001
,
0010
0000
0100
0100
0000
0000
0000
0000
;

//---------------dance-single - ----------------
#NOTEDATA:;
#CHARTNAME:;
#STEPSTYPE:dance-single;
#DESCRIPTION:;
#CHARTSTYLE:;
#DIFFICULTY:Hard;
#METER:12;
#RADARVALUES:0.437329,0.512611,0.267569,0.157394,0.047218,389.000000,355.000000,34.000000,20.000000,0.000000,0.000000,0.000000,0.000000,0.000000,0.437329,0.512611,0.267569,0.157394,0.047218,389.000000,355.000000,34.000000,20.000000,0.000000,0.000000,0.000000,0.000000,0.000000;
#CREDIT:;
#NOTES:
0000
0000
0000
0000
,
0000
0000
0000
0000
,
0000
0000
0000
0000
,
0000
0000
0000
0000
,
0000
0000
0000
0000
,
0000
0000
0000
0000
,
0000
0000
0000
0000
,
0000
0000
0010
0010
0000
0000
0100
0001
,
0100
0010
1000
0000
1000
0000
0200
0000
,
0000
0000
0310
0000
0000
1000
0100
1000
,
0010
0100
0001
0000
0001
0000
0020
0000
,
0000
0000
0130
0000
0010
0001
0010
0100
,
1000
0100
0010
0000
1100
0000
0001
0100
,
0010
0000
0100
0000
0001
0000
0000
0000
0101
0000
0000
0000
0010
0000
0000
0010
,
0000
0000
0000
0000
0001
0000
0000
0001
0000
0000
0100
0000
1000
0000
1000
0000
,
0010
0000
0100
0000
0001
0000
0000
0000
0000
0000
0000
0000
0100
1000
0000
0000
,
0010
0001
0000
0000
1000
0000
0000
0000
0100
0000
0000
0000
2001
0000
0000
0000
,
0000
0000
3100
0000
0001
0100
0010
1000
,
0010
0001
0100
0000
0010
0000
1002
0000
,
0000
0000
0013
0000
1000
0001
0010
0100
,
0010
1000
0100
0000
0010
0001
0100
0000
,
0001
0000
0000
0000
0110
0000
0000
0000
0000
0000
0000
0000
0010
0000
0000
0100
,
0000
0000
0010
0000
0100
0000
0000
1000
0000
0000
0001
0000
1000
0000
0000
0000
,
0000
0000
0200
0000
0000
0310
0001
0000
,
0100
0000
0010
0100
0001
0001
0100
0000
,
0010
1000
0100
0000
1010
0000
0010
0000
,
0100
0001
0100
0000
0010
0000
1001
0000
,
0000
0000
0010
0100
0001
1000
0100
0010
,
0002
0000
0103
0000
0100
0010
1000
0000
,
0100
0000
0010
0001
0100
1000
0100
0010
,
0001
0000
0000
0000
0010
0000
0000
0010
0000
0000
0100
0000
1000
0000
0000
1000
,
0000
0100
0010
1000
0100
0001
1000
0001
,
0010
0100
0010
1002
0000
0000
0103
0000
,
0100
2001
0000
0000
3100
0010
0100
0001
,
1000
0100
0001
0210
0000
0000
0310
0000
,
1000
0120
0000
0000
0130
0000
1000
0100
,
0010
0001
0010
0100
0100
0010
1000
0000
,
0010
0010
0100
1000
0010
0100
0001
0000
,
0100
0000
0001
0010
0100
0010
1000
0000
,
0100
0000
0010
1000
0100
1000
0001
0000
,
0010
0000
0001
2100
0000
0000
3100
0000
,
1000
0102
0000
0000
0013
0100
1000
0010
,
0100
0001
0100
1020
0000
0000
1030
0000
,
0010
0201
0000
0000
0301
0000
0010
1000
,
0100
0010
0001
0010
1000
0100
1000
0000
,
0001
1000
0001
0100
0010
0100
0001
0000
,
0100
0000
0010
0010
1000
0100
1000
0000
,
0001
0000
0100
0010
0100
0001
0011
0000
,
0100
1100
0010
0101
,
0000
0110
0001
1010
,
0000
0000
0010
0100
0001
1000
0100
0000
,
1000
0010
0000
0110
,
0000
0000
0000
0000
0001
0000
0000
0100
0000
0000
0100
0000
0010
0000
0000
1000
,
0000
0000
1000
0000
0100
0000
0000
0001
0000
0000
0010
0000
0001
0000
0000
0100
,
0000
0000
0010
1000
0100
0010
0100
0001
,
0010
0001
0100
0000
0010
0100
0001
1000
,
0100
0001
1010
2001
0000
0000
3010
0000
,
0011
0201
0000
0000
0310
1000
0001
1000
,
0100
0010
1100
0021
0000
0000
0130
0000
,
1001
0102
0000
0000
0013
0000
0100
0010
,
0001
0010
1000
0100
0010
0001
0100
0000
,
0010
1000
0100
0001
0100
1000
0010
0000
,
0100
0000
1000
0010
1000
0100
0010
0000
,
0001
0000
0100
0010
1000
0001
1001
0000
,
0100
0000
0010
1000
0100
0010
0110
0000
,
0001
0000
0010
0100
1000
0100
1100
0000
,
0001
0000
0100
0010
1000
0001
0101
0000
,
0010
0000
0100
0001
1000
0100
0110
0000
,
0001
0200
0000
0300
0010
0000
1000
0000
,
0100
0000
0010
0001
0100
0010
1000
0000
,
0100
0020
0000
0030
0001
0000
0100
0000
,
1000
0100
0010
0000
0100
0000
1000
0000
,
0001
0000
0100
0100
0000
0000
0000
0000
;

//---------------dance-double - ----------------
#NOTEDATA:;
#CHARTNAME:;
#STEPSTYPE:dance-double;
#DESCRIPTION:;
#CHARTSTYLE:;
#DIFFICULTY:Easy;
#METER:5;
#RADARVALUES:0.248457,0.284784,0.070827,0.149524,0.000000,221.000000,212.000000,9.000000,19.000000,0.000000,0.000000,0.000000,0.000000,0.000000,0.248457,0.284784,0.070827,0.149524,0.000000,221.000000,212.000000,9.000000,19.000000,0.000000,0.000000,0.000000,0.000000,0.000000;
#CREDIT:;
#NOTES:
00000000
00000000
00000000
00000000
,
00000000
00000000
00000000
00000000
,
00000000
00000000
00000000
00000000
,
00000000
00000000
00000000
00000000
,
00000000
00000000
00000000
00000000
,
00000000
00000000
00000000
00000000
,
00000000
00000000
00000000
00000000
,
00000000
00000000
00000010
00000010
00000000
00000000
00000000
00000000
,
00000000
00001000
00010000
02000000
,
00000000
03010000
00000000
01000000
,
00100000
00010000
00001000
00000020
,
00000000
00001030
00000000
00000010
,
00001000
00000001
00000001
00000100
,
00001000
00000100
00000100
00010000
,
00000000
00001000
00000000
00010000
,
00100000
01000000
00000000
10000000
,
00010000
10000000
00100000
00020000
,
00000000
00031000
00000000
00001000
,
00000100
00000001
00000010
00002000
,
00000000
00013000
00000000
00010000
,
01000000
10000000
10000000
00100000
,
00010000
00001000
00000000
00000010
,
00000000
00001000
00000010
00000100
,
00000000
00000020
00000030
00000100
,
00000100
00000001
00000100
00001000
,
00010000
00100000
00010000
01000000
,
10000000
00100000
00000000
10010000
,
00000000
00001000
00000100
00000010
,
00000001
00000000
00000010
00000100
,
00000000
00000001
00000100
00000010
,
00001000
00020000
00030000
00200000
,
00300000
01000000
00010000
01000000
,
10000000
00020000
01030000
00010000
,
00002000
00003010
00000010
00001000
,
00000001
00000200
00001300
00010000
,
00200000
01300000
00000000
00010000
,
00100000
01000000
01000000
10000000
,
00000000
01000000
00100000
00010000
,
00000000
00001000
00000100
00000001
,
00000000
00000010
00001000
00010000
,
00100000
20000000
30010000
10000000
,
00020000
10030000
01000000
00010000
,
00001000
00000200
00000310
00000001
,
00000020
00000130
00001000
00000100
,
00001000
00000010
00000010
00000100
,
00000000
00001000
00001000
00010000
,
00000000
00010000
01000000
10000000
,
00000000
00100000
00010000
00001000
,
00000000
00010000
00000100
00001100
,
00000000
00000010
00001000
00010100
,
00000000
00001000
00100000
00010000
,
01000000
00000000
00000000
00011000
,
00000000
00010000
00100000
00010000
,
00000000
01000000
10000000
00100000
,
00000000
00010000
00001000
00000100
,
00000010
00000100
00000000
00001000
,
00010000
20000000
30100000
10000000
,
02000000
03010000
00100000
00001000
,
00000100
00000020
00000130
00001000
,
00000002
00001003
00000100
00001000
,
00010000
00100000
00100000
00010000
,
00000000
00001000
00001000
00000100
,
00000000
00001000
00000100
00000001
,
00000000
00001000
00100000
01010000
,
00000000
00100000
00001000
00101000
,
00000000
00010000
00001000
00001010
,
00000000
00000100
00000001
00000101
,
00000000
00000010
00001000
00010100
,
00100000
00010000
00000000
00010000
,
00000000
10000000
00100000
00010000
,
00001000
00000100
00000000
00000100
,
00000000
00000010
00000100
00001000
,
00010000
00000000
01000000
01000000
00000000
00000000
00000000
00000000
;

//---------------dance-double - ----------------
#NOTEDATA:;
#CHARTNAME:;
#STEPSTYPE:dance-double;
#DESCRIPTION:;
#CHARTSTYLE:;
#DIFFICULTY:Medium;
#METER:9;
#RADARVALUES:0.326030,0.341741,0.078697,0.133785,0.000000,290.000000,280.000000,10.000000,17.000000,0.000000,0.000000,0.000000,0.000000,0.000000,0.326030,0.341741,0.078697,0.133785,0.000000,290.000000,280.000000,10.000000,17.000000,0.000000,0.000000,0.000000,0.000000,0.000000;
#CREDIT:;
#NOTES:
00000000
00000000
00000000
00000000
,
00000000
00000000
00000000
00000000
,
00000000
00000000
00000000
00000000
,
00000000
00000000
00000000
00000000
,
00000000
00000000
00000000
00000000
,
00000000
00000000
00000000
00000000
,
00000000
00000000
00000000
00000000
,
00000000
00000000
00100000
00100000
00000000
00000000
00010000
00000000
,
00001000
00010000
00001000
00000200
,
00000000
00000000
00001300
00000000
00000010
00000000
00001000
00000001
,
00001000
00000100
00001000
00200000
,
00000000
01300000
00010000
01000000
,
10000000
00100000
00010000
00000000
00001000
00000000
00001000
00000000
,
00000010
00001000
00000100
00000000
00000010
00000000
00000001
00000001
,
00000000
00000000
00001000
00000000
00010000
00000000
00100000
00010000
,
00100000
01000000
00000000
01000000
,
01000000
00010000
00001000
00021000
,
00000000
00031000
00000100
00000010
,
00001000
00000100
00000001
00000000
00000100
00000000
00012000
00000000
,
00000000
00013000
00100000
01000000
,
00010000
01000000
10000000
00000000
00100000
00000000
00010000
00000000
,
00001000
00011000
00000000
00000010
,
00001000
00000000
00000100
00000000
00000010
00000001
00000010
00000000
,
00000000
00000020
00000030
00000100
,
00000100
00000000
00001000
00000000
00001000
00010000
01000000
00000000
,
10000000
00100000
00010000
00000000
00010000
00000000
00011000
00000000
,
00000100
00001000
00000000
00001001
,
00000000
00000000
00000100
00001000
00010000
00000000
00100000
00000000
,
00010000
00000000
01000000
00000000
10000000
00100000
00010000
00000000
,
00000000
00000000
00010000
00001000
00000100
00000000
00001000
00000000
,
00000010
00000100
00000010
00001000
,
00000100
00001000
00010000
00000000
00100000
00000000
01000000
00000000
,
00100000
00000000
10000000
20000000
00000000
00000000
30010000
00000000
,
00010000
00020000
00000000
00000000
10030000
00000000
00010000
00000000
,
00001000
00000000
00000010
00000200
00000000
00000000
00000310
00000000
,
00000100
00000020
00000000
00000000
00000130
00000000
00000001
00000000
,
00000010
00000000
00000100
00001000
00000100
00000000
00010000
00000000
,
00001000
00000000
00100000
00010000
00100000
00000000
00010000
00000000
,
01000000
00000000
00100000
00010000
00001000
00000000
00000100
00000000
,
00000010
00000000
00001000
00010000
00100000
00000000
00010000
00000000
,
01000000
00000000
00010000
20000000
00000000
00000000
30010000
00000000
,
00010000
00002000
00000000
00000000
00013000
00000000
00000100
00000000
,
00000010
00000000
00001000
00000020
00000000
00000000
00000130
00000000
,
00000001
00000200
00000000
00000000
00000310
00000000
00000010
00000000
,
00001000
00000000
00000100
00001000
00010000
00000000
00100000
00000000
,
00010000
00000000
00100000
10000000
01000000
00000000
00010000
00000000
,
00001000
00000000
00010000
00001000
00010000
00000000
00000100
00000000
,
00001000
00000000
00001000
00000100
00000001
00000000
00000010
00000000
,
00000000
00000101
00001000
00001100
,
00000000
00011000
00100000
00110000
,
00000000
00000000
00010000
01000000
10000000
00000000
00100000
00000000
,
00010000
00000000
00000000
00011000
,
00000000
00000000
00000100
00000000
00000100
00001000
00000100
00000000
,
00000010
00000000
00000010
00000001
00000010
00000000
00000100
00000000
,
00001000
00000000
00000100
00000000
00000100
00001000
00010000
00000000
,
00100000
00010000
01000000
10000000
,
00100000
00000000
00010000
20000000
00000000
00000000
31000000
00000000
,
00100000
02000000
00000000
00000000
03010000
00000000
00001000
00000000
,
00000100
00000000
00001000
00000020
00000000
00000000
00001030
00000000
,
00000100
00000002
00000000
00000000
00001003
00000000
00000100
00000000
,
00000010
00000000
00001000
00000100
00001000
00000000
00010000
00000000
,
00100000
00010000
00100000
00000000
01000000
00000000
00010000
00000000
,
10000000
00000000
00100000
00010000
00001000
00000000
00000010
00000000
,
00001000
00000000
00001000
00010000
00100000
00000000
00010000
00000000
,
00100000
00000000
00010000
01000000
10000000
00000000
00100000
00000000
,
00010000
00000000
00001000
00000100
00000001
00000000
00000010
00000000
,
00000100
00000000
00000100
00001000
00010000
00000000
00100000
00000000
,
00010000
00000000
00010000
01000000
10000000
00000000
00100000
00000000
,
00010000
00010000
00000000
00000000
00001000
00000000
00000100
00000000
,
00001000
00000000
00000010
00000000
00000010
00000100
00000001
00000000
,
00000010
00000010
00000000
00000000
00000100
00000000
00001000
00000000
,
00010000
01000000
10000000
00000000
00010000
00000000
00001000
00000000
,
00000010
00000000
00000100
00000100
00000000
00000000
00000000
00000000
;

//---------------dance-double - ----------------
#NOTEDATA:;
#CHARTNAME:;
#STEPSTYPE:dance-double;
#DESCRIPTION:;
#CHARTSTYLE:;
#DIFFICULTY:Hard;
#METER:12;
#RADARVALUES:0.436205,0.484133,0.267569,0.173133,0.051153,388.000000,354.000000,34.000000,22.000000,0.000000,0.000000,0.000000,0.000000,0.000000,0.436205,0.484133,0.267569,0.173133,0.051153,388.000000,354.000000,34.000000,22.000000,0.000000,0.000000,0.000000,0.000000,0.000000;
#CREDIT:;
#NOTES:
// measure 0
00000000
00000000
00000000
00000000
,  // measure 1
00000000
00000000
00000000
00000000
,  // measure 2
00000000
00000000
00000000
00000000
,  // measure 3
00000000
00000000
00000000
00000000
,  // measure 4
00000000
00000000
00000000
00000000
,  // measure 5
00000000
00000000
00000000
00000000
,  // measure 6
00000000
00000000
00000000
00000000
,  // measure 7
00000000
00000000
00100000
00100000
00000000
00000000
00010000
00001000
,  // measure 8
00000100
00000010
00000001
00000000
00000010
00000000
00000200
00000000
,  // measure 9
00001000
00000000
00001300
00000000
00000100
00000000
00001000
00010000
,  // measure 10
00100000
00010000
01000000
00000000
10000000
00000000
00200000
00000000
,  // measure 11
00010000
00000000
00310000
00000000
00001000
00000000
00010000
00001000
,  // measure 12
00000100
00000001
00000100
00000000
00001100
00000000
00001000
00000100
,  // measure 13
00010000
00000000
00001000
00000000
00000100
00000000
00000000
00000000
00000101
00000000
00000000
00000000
00001000
00000000
00000000
00001000
,  // measure 14
00000000
00000000
00000000
00000000
00010000
00000000
00000000
01000000
00000000
00000000
10000000
00000000
00100000
00000000
00010000
00000000
,  // measure 15
00001000
00000000
00010000
00000000
00000100
00000000
00000000
00000000
00000000
00000000
00000000
00000000
00001000
00000100
00000000
00000000
,  // measure 16
00000010
00000001
00000000
00000000
00000100
00000000
00000000
00000000
00001000
00000000
00000000
00000000
00000012
00000000
00000000
00000000
,  // measure 17
00000100
00000000
00000103
00000000
00000001
00000100
00001000
00000100
,  // measure 18
00010000
00100000
01000000
00000000
10000000
00000000
21000000
00000000
,  // measure 19
01000000
00000000
31000000
00000000
00010000
00000000
00100000
00010000
,  // measure 20
10000000
01000000
00010000
00000000
00001000
00010000
00000100
00000000
,  // measure 21
00011000
00000000
00000000
00000000
00010010
00000000
00000000
00000000
00000000
00000000
00001000
00000000
00001000
00000000
00000000
00000100
,  // measure 22
00000000
00000000
00000010
00000000
00000010
00000000
00000000
00000001
00000000
00000000
00000100
00000000
00000010
00000000
00000000
00000000
,  // measure 23
00000000
00000200
00000300
00001000
,  // measure 24
00001000
00000000
00010000
00100000
01000000
10000000
00100000
00000000
,  // measure 25
00010000
00001000
00011000
00000000
00010100
00000000
00001000
00000000
,  // measure 26
00000010
00000100
00000020
00000000
00000030
00000000
00001001
00000000
,  // measure 27
00000000
00000000
00000100
00001000
00010000
00100000
00010000
01000000
,  // measure 28
10000000
00000000
00100000
00000000
00010000
00001000
00000100
00000000
,  // measure 29
00010000
00000000
00001000
00000100
00000010
00000001
00000010
00000100
,  // measure 30
00000010
00000000
00000000
00000000
00001000
00000000
00000000
00010000
00000000
00000000
00010000
00000000
00100000
00000000
00000000
01000000
,  // measure 31
00000000
01000000
10000000
00000000
10000000
00100000
01000000
00100000
,  // measure 32
00010000
01000000
00011000
00200000
00000000
00000000
00310000
00000000
,  // measure 33
00011000
00000200
00000000
00000000
00001300
00000010
00000100
00000001
,  // measure 34
00000010
00000100
00001100
00020000
00000000
00000000
00031000
00000000
,  // measure 35
00011000
00002000
00000000
00000000
00003100
00000000
00000010
00001000
,  // measure 36
00000100
00001000
00010000
00100000
01000000
10000000
01000000
00000000
,  // measure 37
00100000
01000000
00100000
00010000
00001000
00000100
00000010
00000000
,  // measure 38
00000001
00000000
00000010
00000100
00000001
00000010
00000110
00000000
,  // measure 39
00001000
00000000
00000100
00001000
00010000
00001000
00011000
00000000
,  // measure 40
00100000
00010000
01100000
20000000
00000000
00000000
30010000
00000000
,  // measure 41
00011000
00002000
00000000
00000000
00003100
00000010
00000001
00000010
,  // measure 42
00001000
00000100
00000110
00000020
00000000
00000000
00000130
00000000
,  // measure 43
00001001
00000200
00000000
00000000
00000310
00000000
00001000
00000100
,  // measure 44
00001000
00010000
00100000
00010000
01000000
10000000
00100000
00000000
,  // measure 45
00010000
00001000
00000100
00000001
00000010
00001000
00000100
00000000
,  // measure 46
00001000
00000000
00001000
00010000
00100000
00010000
01000000
00000000
,  // measure 47
00000000
00000000
10000000
01000000
00010000
00100000
00110000
00000000
,  // measure 48
01000000
00200000
00310000
00011000
,  // measure 49
00000000
00002000
00003100
00001100
,  // measure 50
00000000
00000000
00001000
00000100
00000010
00000010
00000001
00000000
,  // measure 51
00000100
00001000
00000000
00011000
,  // measure 52
00000000
00000000
00000000
00000000
00010000
00000000
00000000
01000000
00000000
00000000
10000000
00000000
00100000
00000000
00000000
00010000
,  // measure 53
00000000
00000000
00001000
00000000
00000100
00000000
00000000
00000001
00000000
00000000
00000010
00000000
00000100
00000000
00000000
00001000
,  // measure 54
00000000
00000000
00000000
00000000
00010000
00000000
00001000
00000000
00010000
00000000
00001000
00000000
00100000
00000000
00000000
00010000
,  // measure 55
00000000
01000000
11000000
00000000
00100000
00010000
00001000
00010000
,  // measure 56
00000100
00000100
00001000
00002010
00000000
00000000
00003010
00000000
,  // measure 57
00000001
00000210
00000000
00000000
00000310
00001000
00010000
00100000
,  // measure 58
00100000
01000000
00010000
00210000
00000000
00000000
00301000
00000000
,  // measure 59
00001000
00001002
00000000
00000000
00000013
00000000
00000100
00001000
,  // measure 60
00000010
00001000
00000001
00000010
00000100
00001000
00000010
00000000
,  // measure 61
00001000
00010000
00100000
01000000
00010000
10000000
00100000
00000000
,  // measure 62
00010000
00000000
00001000
00010000
00000100
00000010
00001010
00000000
,  // measure 63
00000100
00000000
00000100
00001000
00010000
00001000
00101000
00000000
,  // measure 64
00010000
00000000
00010000
10000000
00100000
01000000
01100000
00000000
,  // measure 65
00010000
00000000
00001000
00000100
00000010
00001000
00001100
00000000
,  // measure 66
00000100
00000000
00000001
00000010
00000100
00001000
00000101
00000000
,  // measure 67
00000010
00000000
00000010
00001000
00000100
00010000
00011000
00000000
,  // measure 68
00010000
00200000
00000000
00300000
00010000
00000000
01000000
00000000
,  // measure 69
10000000
00000000
00100000
00010000
00001000
00000100
00010000
00000000
,  // measure 70
00000010
00002000
00000000
00003000
00000100
00000000
00001000
00000000
,  // measure 71
00000010
00000100
00000001
00000000
00000100
00000000
00001000
00000000
,  // measure 72
00010000
00000000
00000100
00000100
00000000
00000000
00000000
00000000
;
