#VERSION:0.83;
#TITLE:Pop Star;
#SUBTITLE:;
#ARTIST:平井 堅;
#TITLETRANSLIT:Pop Star;
#SUBTITLETRANSLIT:;
#ARTISTTRANSLIT:Ken Hirai;
#GENRE:J-POP;
#ORIGIN:;
#CREDIT:SAIKIO;
#BANNER:Pop Star-banner.png;
#BACKGROUND:bg.png;
#PREVIEWVID:;
#JACKET:Pop Star-jacket.png;
#CDIMAGE:;
#DISCIMAGE:;
#LYRICSPATH:;
#CDTITLE:Saikio Simfiles.png;
#MUSIC:Pop Star.ogg;
#OFFSET:0.186498;
#SAMPLESTART:72.935028;
#SAMPLELENGTH:13.280001;
#SELECTABLE:YES;
#BPMS:0.000=139.870;
#STOPS:;
#DELAYS:;
#WARPS:;
#TIMESIGNATURES:0.000=4=4;
#TICKCOUNTS:0.000=4;
#COMBOS:0.000=1;
#SPEEDS:0.000=1.000=0.000=0;
#SCROLLS:0.000=1.000;
#FAKES:;
#LABELS:0.000=Song Start;
#LASTSECONDHINT:133.669006;
#BGCHANGES:0.000=Pop Star.avi=1.000=0=0=0=StretchNoLoop====,
99999=-nosongbg-=1.000=0=0=0 // don't automatically add -songbackground-
;
#KEYSOUNDS:;
#ATTACKS:
;

//---------------dance-single - ----------------
#NOTEDATA:;
#CHARTNAME:;
#STEPSTYPE:dance-single;
#DESCRIPTION:;
#CHARTSTYLE:;
#DIFFICULTY:Beginner;
#METER:3;
#RADARVALUES:0.131190,0.181444,0.007406,0.000000,0.000000,124.000000,123.000000,1.000000,0.000000,0.000000,0.000000,0.000000,0.000000,0.000000,0.131190,0.181444,0.007406,0.000000,0.000000,124.000000,123.000000,1.000000,0.000000,0.000000,0.000000,0.000000,0.000000,0.000000;
#CREDIT:;
#NOTES:
0000
0000
0000
0000
,
0000
0000
0000
0000
,
0000
0000
0000
0000
,
0000
0000
0000
0000
,
0000
0000
0000
0000
,
0000
0000
0000
0000
,
0000
0000
0000
0000
,
0000
0000
0000
0000
,
0000
0000
0000
0000
,
0000
0010
0000
0010
,
0000
1000
0000
1000
,
0000
0100
0100
0000
,
0010
0000
0000
0000
,
0000
0001
0000
0001
,
0000
0100
0000
0100
,
0000
0010
0010
0000
,
0100
0000
0000
0000
,
0000
0010
0000
0000
,
0000
1000
1000
0000
,
0100
0000
0000
0000
,
0000
0001
0001
0000
,
0010
0000
0000
1000
,
0000
0001
0000
1000
,
0000
0001
0000
0010
,
0000
0100
0100
0100
,
0000
0000
0010
0001
,
0000
0010
0000
0010
,
0000
0000
1000
0100
,
0000
0100
0000
0100
,
0000
0000
0000
0010
,
1000
0000
0000
0100
,
0001
0000
0000
0001
,
0000
1000
1000
1000
,
0000
0000
0000
0100
,
0000
0001
0000
0100
,
0000
1000
0000
0100
,
0000
0001
0000
0010
,
0000
1000
0000
0000
,
0000
1000
1000
0100
,
0000
0001
0001
0010
,
0000
0100
0000
0010
,
0000
1000
0000
0001
,
0000
0110
0000
0000
,
0000
0001
1000
0000
,
0000
0010
0000
0100
,
0000
1000
1000
0100
,
0000
0001
0000
1000
,
0001
1000
0000
0100
,
0000
0001
0000
0100
,
0100
0010
0000
0001
,
0000
0100
0000
0010
,
0100
0010
0000
1000
,
0000
1000
0000
0010
,
0000
0001
0000
0100
,
0000
0100
0000
1000
,
0001
0001
0000
0010
,
0000
0001
0000
0100
,
0000
0010
0000
0100
,
0010
0000
0000
0001
,
0000
0010
0000
0010
,
0000
0001
0000
0001
,
0000
0010
0010
0000
,
1000
0000
1000
0000
,
0000
0100
0000
0001
,
0000
0010
0000
0100
,
0100
0100
0000
1000
,
0000
0010
0000
0010
,
0000
0001
0001
0000
,
0000
0000
1000
1000
,
0000
0000
0000
0000
,
0010
0000
0000
0000
;

//---------------dance-single - ----------------
#NOTEDATA:;
#CHARTNAME:;
#STEPSTYPE:dance-single;
#DESCRIPTION:;
#CHARTSTYLE:;
#DIFFICULTY:Easy;
#METER:5;
#RADARVALUES:0.180915,0.249948,0.022218,0.140712,0.000000,171.000000,168.000000,3.000000,19.000000,0.000000,0.000000,0.000000,0.000000,0.000000,0.180915,0.249948,0.022218,0.140712,0.000000,171.000000,168.000000,3.000000,19.000000,0.000000,0.000000,0.000000,0.000000,0.000000;
#CREDIT:;
#NOTES:
0000
0000
0000
0000
,
0000
0000
0000
0000
,
0000
0000
0000
0000
,
0000
0000
0000
0000
,
0000
0000
0000
0000
,
0000
0000
0000
0000
,
0000
0000
0000
0000
,
0000
0000
0000
0000
,
0000
0000
0000
0000
,
0000
1000
0010
0000
,
0001
0000
0010
0000
,
0100
0100
0000
1000
,
0200
0000
0000
0000
,
0300
0010
0001
0000
,
0100
0000
0010
0000
,
1000
0010
0000
0001
,
0200
0000
0000
0000
,
0300
0000
0010
0000
,
0000
1000
0100
1000
,
1000
0000
0010
0000
,
0000
0001
0100
0001
,
0001
0000
0000
0100
,
0010
0000
0000
1000
,
0001
0000
0000
1000
,
0000
0010
0100
0010
,
0000
0100
1000
1000
,
0000
0010
1000
0010
,
0100
0000
0001
0001
,
0010
0100
0000
1000
,
0100
0000
0000
0002
,
0103
0000
0000
2000
,
3010
0000
0000
1000
,
0000
0010
0010
0100
,
0001
0000
0000
0001
,
0100
1000
1000
0100
,
0000
0001
0001
0010
,
0000
1000
0010
0001
,
0000
0010
0000
0100
,
0000
1000
1000
0001
,
0000
0100
0100
0010
,
0000
2000
3001
0020
,
0130
0001
0100
1000
,
0000
0110
0000
1000
,
0000
0001
0010
1000
,
1000
0100
0000
0010
,
0001
1000
1000
0001
,
0001
1000
0000
1000
,
1000
0100
0010
0001
,
0100
0100
0000
0001
,
0100
0100
0001
0001
,
0100
0000
0000
0010
,
1000
0100
1010
0010
,
0100
0100
0000
0010
,
0001
0200
0300
0020
,
0030
0001
0000
1000
,
1000
0001
0101
0100
,
1000
0100
0000
0010
,
1000
0100
0100
1000
,
1000
0000
0000
0010
,
0100
0020
0001
0000
,
1000
0000
0130
0000
,
0001
0100
1000
0010
,
0001
0000
0001
0000
,
0000
0200
1000
0000
,
0001
0000
0310
0000
,
0001
0100
1000
0000
,
0020
0000
0000
0000
,
0000
0030
2000
3000
,
0200
0300
0002
0003
,
0010
0010
0100
0000
,
0200
0000
0000
0300
,
0000
0002
0003
0020
,
0030
2000
3000
0100
,
0100
0000
1000
0000
,
0020
0000
0000
0000
,
0030
0000
0000
0000
;

//---------------dance-single - ----------------
#NOTEDATA:;
#CHARTNAME:;
#STEPSTYPE:dance-single;
#DESCRIPTION:;
#CHARTSTYLE:;
#DIFFICULTY:Medium;
#METER:7;
#RADARVALUES:0.250742,0.361638,0.096276,0.229582,0.000000,237.000000,224.000000,13.000000,31.000000,0.000000,0.000000,0.000000,0.000000,0.000000,0.250742,0.361638,0.096276,0.229582,0.000000,237.000000,224.000000,13.000000,31.000000,0.000000,0.000000,0.000000,0.000000,0.000000;
#CREDIT:;
#NOTES:
0000
0000
0000
0000
,
0000
0000
0000
0000
,
0000
0000
0000
0000
,
0000
0000
0000
0000
,
0000
0000
0000
0000
,
0000
0000
0000
0000
,
0000
0000
0000
0000
,
0000
0000
0000
0000
,
0000
0000
0000
0000
0000
0100
0100
0000
,
0010
0020
0000
0100
,
0000
1000
0000
0130
,
0001
0100
1000
0000
,
0010
0200
0000
0000
0000
0000
0000
0000
,
0300
0000
0010
0000
0001
0010
0000
0000
,
0100
1000
0000
0000
0010
0100
0000
0000
,
0100
0000
0001
0000
0001
0010
0000
0000
,
1000
0200
0000
0000
0000
0000
0000
0000
,
0300
0000
0100
0100
,
0000
0000
0010
0000
0100
0010
0000
0010
,
0000
0001
0000
0000
1000
0000
1000
0000
,
0001
0000
0100
0000
0010
1000
0000
1000
,
0000
0100
0000
0000
0000
0000
0001
0000
,
0010
0000
0101
0010
,
1000
0000
1100
0000
,
0010
0000
0100
0000
0100
0010
0000
1000
,
0000
0010
0000
0000
0000
0000
0100
0000
,
0100
0000
0001
0000
0001
0100
0000
1000
,
0000
0100
0000
0000
0010
0000
0010
0000
,
1000
0000
1000
0000
0100
0001
0000
0010
,
0000
0001
0000
0000
0000
0000
1000
0000
,
0100
0000
1010
0100
,
0001
0000
0011
1000
,
0100
0000
0001
0000
0001
0100
0000
0000
,
0010
0000
0000
1000
,
1000
0002
1003
2000
,
3001
0020
0130
0200
,
0310
2000
3100
0002
,
0013
0000
0000
1000
,
0001
0000
2000
0000
3100
0000
0010
0100
,
0001
0000
0002
0000
0103
0000
0010
1000
,
0001
0020
0130
0200
,
0310
0000
0001
0100
0010
0000
0100
0000
,
0010
1001
0000
0100
,
1000
0000
0020
0000
1030
0000
0010
0001
,
0100
0110
0000
1000
,
1000
0001
0101
1000
,
1100
0000
0010
0000
0000
0000
1000
1000
,
0001
0200
1300
0010
,
0100
1000
0100
0000
0000
0000
0100
0000
,
0100
0010
2000
0000
3001
0000
0100
0000
,
0010
0001
0000
0100
,
0010
0000
0002
0000
0013
0000
0010
1000
,
0100
0000
0110
0000
0000
0000
0010
0010
,
1000
0001
0011
1000
,
1010
0000
0100
0000
0000
0000
1000
1000
,
0010
0000
1001
0000
0101
0000
0010
0001
,
0010
1000
0000
0001
,
0001
0000
0100
0000
0100
0010
0000
0100
,
0000
0010
0000
0000
0000
0000
1000
0000
,
0001
0020
1000
0000
,
0001
0000
0000
0000
0100
0000
0000
0030
,
0001
0000
0010
0000
0100
0001
0000
0000
,
1000
0200
0000
0000
0000
0000
0000
0300
,
0000
2000
3100
0002
,
0103
2000
3100
0010
,
1000
0010
1000
0000
0001
0000
1000
0000
,
0100
0002
0000
0000
0000
0000
0000
0000
,
0000
0003
0000
0000
0010
0020
0000
0030
,
0100
0200
0000
0300
0010
0020
0000
0030
,
0000
0000
0100
0000
0010
1000
0000
0000
,
0100
2000
0000
0000
0000
0000
0000
3000
,
0000
0002
0003
2000
,
3000
0002
0003
1000
,
0100
0010
0100
0000
,
0020
0000
0000
0000
,
0000
0030
0000
0000
0000
0000
0000
0000
;

//---------------dance-single - ----------------
#NOTEDATA:;
#CHARTNAME:;
#STEPSTYPE:dance-single;
#DESCRIPTION:;
#CHARTSTYLE:;
#DIFFICULTY:Hard;
#METER:9;
#RADARVALUES:0.352308,0.416580,0.155523,0.251800,0.000000,333.000000,312.000000,21.000000,34.000000,0.000000,0.000000,0.000000,0.000000,0.000000,0.352308,0.416580,0.155523,0.251800,0.000000,333.000000,312.000000,21.000000,34.000000,0.000000,0.000000,0.000000,0.000000,0.000000;
#CREDIT:;
#NOTES:
// measure 0
0000
0000
0000
0000
,  // measure 1
0000
0000
0000
0000
,  // measure 2
0000
0000
0000
0000
,  // measure 3
0000
0000
0000
0000
,  // measure 4
0000
0000
0000
0000
,  // measure 5
0000
0000
0000
0000
,  // measure 6
0000
0000
0000
0000
,  // measure 7
0000
0000
0000
0000
,  // measure 8
0000
0000
0000
0000
0000
0100
0100
0000
,  // measure 9
0001
0000
0100
0000
0010
2000
0000
3000
,  // measure 10
0100
0020
0000
0030
0001
0020
0000
0030
,  // measure 11
0100
1000
0100
0000
0001
0100
0000
0000
,  // measure 12
0010
0200
0000
0000
0000
0000
0000
0000
,  // measure 13
0300
0000
0010
0000
0010
0002
0000
0003
,  // measure 14
1000
0200
0000
0300
0001
0020
0000
0030
,  // measure 15
1000
0001
1000
0001
0010
1000
0000
0100
,  // measure 16
0010
0200
0000
0000
0000
0000
0000
0000
,  // measure 17
0300
0000
0100
0100
,  // measure 18
0100
0000
0010
0000
1000
0001
0000
1000
,  // measure 19
0000
1010
0000
0010
0100
0001
0100
0000
,  // measure 20
0010
0000
0100
0000
0100
0010
0000
0001
,  // measure 21
0000
0011
0000
0000
0000
1000
1000
0100
,  // measure 22
1000
0010
0000
0000
1100
0001
0001
0010
,  // measure 23
0001
0100
0000
0000
0101
0000
0010
0000
,  // measure 24
1000
0000
0010
0000
0010
0100
0000
0100
,  // measure 25
0000
0010
0000
0001
0100
0001
0100
0000
,  // measure 26
1000
0000
0020
0000
0130
0001
0000
0100
,  // measure 27
0000
0010
0000
1000
0100
1000
0100
0000
,  // measure 28
0010
0000
0002
0000
0103
0010
0000
1000
,  // measure 29
0000
0100
0000
0000
0000
0010
0010
0100
,  // measure 30
1000
0010
0000
0000
1010
0100
0100
0010
,  // measure 31
0001
0100
0000
0000
0011
0000
0100
0000
,  // measure 32
1000
0000
0001
0000
0001
0100
0000
0010
,  // measure 33
1000
0100
0000
0000
0000
0000
1000
1000
,  // measure 34
0001
0000
0010
0000
0001
0100
0000
1000
,  // measure 35
0001
0200
0000
0300
0001
1000
0000
1000
,  // measure 36
0000
0200
0000
0300
0001
0100
0000
0100
,  // measure 37
0000
0010
0000
0000
0000
1000
1000
0001
,  // measure 38
1000
0000
0000
0010
0100
0001
0100
0000
,  // measure 39
0010
0000
0000
1000
0100
1000
0010
0000
,  // measure 40
1000
1100
0101
0010
,  // measure 41
0001
1010
0001
0100
,  // measure 42
0010
0000
1001
0000
0000
1000
0100
0010
,  // measure 43
0001
0000
1001
0000
1010
0000
0001
0010
,  // measure 44
0100
2000
0000
3001
0000
0010
0100
0000
,  // measure 45
0001
0000
1000
0100
0001
0000
0001
0100
,  // measure 46
1000
0100
0010
0010
0000
1000
1000
0010
,  // measure 47
0100
0000
0100
0000
1010
0000
0100
0010
,  // measure 48
0001
0100
0100
1000
0000
0100
0001
0000
,  // measure 49
0010
0010
0002
0000
0103
0010
0000
0100
,  // measure 50
0000
1100
0000
0000
0000
0001
0010
0100
,  // measure 51
1000
0000
1001
0000
1010
0000
1000
0100
,  // measure 52
0010
0002
0000
0103
0000
0001
0010
0000
,  // measure 53
0100
0000
1000
0010
0001
0000
0001
0010
,  // measure 54
1000
0100
0010
0100
0000
1000
1000
0010
,  // measure 55
1000
0000
1100
0000
1001
0000
0100
0010
,  // measure 56
0100
0001
0100
0001
0000
0010
0010
0000
,  // measure 57
0100
0000
1001
0000
0100
1001
0000
0010
,  // measure 58
0000
0220
0000
0330
0000
1000
0100
0000
,  // measure 59
0001
0000
0001
0010
1000
0002
0000
1003
,  // measure 60
0010
2000
0000
3010
0001
0020
0000
0031
,  // measure 61
0100
1000
0001
1000
0100
0020
0000
0031
,  // measure 62
0001
0200
0000
0000
0010
0000
0010
0000
,  // measure 63
0310
0000
0001
0100
1000
0002
0000
1003
,  // measure 64
0010
2000
0000
3100
0001
0200
0000
0301
,  // measure 65
0010
0100
0010
1000
0001
0100
0000
0100
,  // measure 66
1000
0020
0000
0000
0100
0000
0100
0000
,  // measure 67
0130
0000
0000
0010
1000
0002
0000
0003
,  // measure 68
1000
0200
0000
0300
0001
0020
0000
0030
,  // measure 69
1000
0000
0100
0010
0100
0000
0000
0000
,  // measure 70
0100
0020
0000
0000
0000
0000
0000
0030
,  // measure 71
0000
0000
0001
0000
0001
2000
0000
3000
,  // measure 72
0001
0020
0000
0030
1000
0200
0000
0300
,  // measure 73
0001
0000
1000
0010
1000
0000
0000
0000
,  // measure 74
0010
0020
0000
0000
0000
0000
0000
0000
,  // measure 75
0030
0000
0000
0000
;

//---------------dance-double - ----------------
#NOTEDATA:;
#CHARTNAME:;
#STEPSTYPE:dance-double;
#DESCRIPTION:;
#CHARTSTYLE:;
#DIFFICULTY:Easy;
#METER:5;
#RADARVALUES:0.189379,0.277720,0.051841,0.222176,0.000000,179.000000,172.000000,7.000000,30.000000,0.000000,0.000000,0.000000,0.000000,0.000000,0.189379,0.277720,0.051841,0.222176,0.000000,179.000000,172.000000,7.000000,30.000000,0.000000,0.000000,0.000000,0.000000,0.000000;
#CREDIT:;
#NOTES:
00000000
00000000
00000000
00000000
,
00000000
00000000
00000000
00000000
,
00000000
00000000
00000000
00000000
,
00000000
00000000
00000000
00000000
,
00000000
00000000
00000000
00000000
,
00000000
00000000
00000000
00000000
,
00000000
00000000
00000000
00000000
,
00000000
00000000
00000000
00000000
,
00000000
00000000
00000000
00000000
,
00000000
00001000
00000020
00000030
,
00020000
00030000
00200000
00300000
,
00010000
00100000
01000000
00000000
,
20000000
00000000
00000000
00000000
,
30000000
01000000
00200000
00300000
,
00002000
00003000
00000200
00000300
,
00000010
00000100
00000001
00000000
,
00000020
00000000
00000000
00000000
,
00000030
00000000
00001000
00001000
,
00000000
00010000
00100000
10000000
,
00100000
00000000
00010000
00010000
,
00000000
00001000
00000100
00000001
,
00000100
00000000
00000000
00000010
,
00001000
00000000
00000000
00010000
,
01000000
00000000
00000000
00100000
,
00000000
00010000
00001000
00000010
,
00000001
00000000
00000001
00000001
,
00000100
00000010
00001000
00000000
,
00010000
00000000
00100000
00100000
,
00010000
01000000
00000000
00100000
,
10000000
00000000
00000000
00010000
,
01000000
00000000
00010000
00100000
,
00010000
00000000
00001000
00000100
,
00000000
00000010
00000010
00000100
,
00001000
00000000
00000000
00000001
,
00000100
00000020
00000030
00000100
,
00001000
00020000
00030000
00100000
,
00010000
02000000
03000000
00100000
,
20000000
30000000
00000000
01000000
,
00100000
00010000
00010000
00001000
,
00001000
00000100
00000100
00010000
,
00010000
00200000
00300000
02000000
,
03000000
10000000
01000000
00100000
,
00000000
10010000
00000000
00001000
,
00010000
00101000
00000000
00001000
,
00000100
00001100
00000000
00010000
,
00001000
00000200
00010300
02000000
,
03001000
00010000
00000000
00000100
,
00001000
00000010
00010010
00000100
,
00001000
00000101
00000000
00000010
,
00000100
00001000
00000000
00010000
,
00010000
00000000
00000000
00100000
,
00010000
00110000
00000000
00001000
,
00000100
00010100
00000000
00010000
,
00100000
00200000
00310000
00000020
,
00001030
00010000
00000000
00100000
,
00100000
00010000
00001000
00000100
,
00000010
00001000
00000000
00000001
,
00000100
00002000
00003000
00010000
,
02000000
03000000
00000000
00010000
,
01000000
00200000
00300000
00020000
,
00030000
00002000
00003000
00000100
,
00000010
00000001
00000100
00000000
,
00000020
00000000
00000000
00000000
,
00000030
00001000
00000200
00000300
,
00002000
00003000
00020000
00030000
,
00100000
01000000
10000000
00000000
,
02000000
00000000
00000000
00000000
,
03000000
00100000
00010000
00000000
,
00001000
00000000
00000010
00000000
,
00000100
00001000
00000010
00000000
,
00002000
00000000
00003000
00000100
,
00000000
00010000
01000000
00000000
,
00010000
00000000
00000100
00000000
,
00001000
00000010
00000001
00000000
,
00002000
00000000
00000000
00000000
,
00003000
00000000
00000000
00000000
;

//---------------dance-double - ----------------
#NOTEDATA:;
#CHARTNAME:;
#STEPSTYPE:dance-double;
#DESCRIPTION:;
#CHARTSTYLE:;
#DIFFICULTY:Medium;
#METER:8;
#RADARVALUES:0.266611,0.361036,0.081465,0.170335,0.000000,252.000000,241.000000,11.000000,23.000000,0.000000,0.000000,0.000000,0.000000,0.000000,0.266611,0.361036,0.081465,0.170335,0.000000,252.000000,241.000000,11.000000,23.000000,0.000000,0.000000,0.000000,0.000000,0.000000;
#CREDIT:;
#NOTES:
00000000
00000000
00000000
00000000
,
00000000
00000000
00000000
00000000
,
00000000
00000000
00000000
00000000
,
00000000
00000000
00000000
00000000
,
00000000
00000000
00000000
00000000
,
00000000
00000000
00000000
00000000
,
00000000
00000000
00000000
00000000
,
00000000
00000000
00000000
00000000
,
00000000
00000000
00000000
00000000
,
00000000
00000010
00020000
00031000
,
00200000
00301000
00000200
00010300
,
00100000
00000000
00010000
00001000
00010000
00001000
00000000
00000000
,
00001000
00000200
00000000
00000000
00000000
00000000
00000300
00000000
,
00000000
00100000
00002000
00013000
,
00000200
00010300
00200000
00301000
,
00000100
00000000
00001000
00010000
00001000
00010000
00000000
00000000
,
00001000
00200000
00000000
00000000
00000000
00000000
00000000
00300000
,
00000000
00000000
00010000
00010000
,
00010000
00000000
00001000
00000000
00010000
00001000
00000000
00010000
,
00000000
00000100
00000000
00000000
00000010
00000000
00000010
00000000
,
00000010
00000000
00000001
00000000
00000100
00000001
00000000
00000100
,
00000000
00000010
00000000
00000000
00000000
00001000
00000000
00100000
,
00010000
00000000
01000000
10000000
,
01000000
10000000
00000000
00000000
00010000
00000000
00100000
00000000
,
00010000
00000000
01000000
00000000
00100000
00010000
00000000
00001000
,
00000000
00000100
00000000
00000000
00000010
00000000
00000001
00000000
,
00000100
00000000
00000010
00000000
00000010
00001000
00000000
00000100
,
00000000
00010000
00000000
00000000
00100000
00000000
01000000
00000000
,
00010000
00000000
00100000
00000000
00100000
00010000
00000000
10000000
,
00000000
01000000
00000000
00000000
00000000
00000000
00001000
00000000
,
00001000
00010000
00000000
00000000
00110000
00000000
00001000
00000000
,
00001000
00000100
00000000
00000000
00001010
00000000
00000100
00000000
,
00010000
00000000
01000000
00000000
01000000
00100000
00000000
10000000
,
00000000
00100000
00000000
00000000
00000000
00000000
00010000
00000000
,
01000000
00000000
00200000
00000000
01300000
01000000
00000000
00010000
,
00000000
00002000
00000000
00003000
00000100
00000100
00000000
00000001
,
00000000
00000020
00000000
00000030
00000001
00000001
00000000
00000010
,
00000000
00001000
00000000
00000000
00000000
00010000
00010000
00000000
,
00001000
00000000
00200000
00000000
00310000
00000000
01000000
00010000
,
00001000
00000000
00000020
00000000
00001030
00000000
00010000
00001000
,
00010000
00001100
00010000
00110000
,
00010000
10000000
00100000
00000000
,
00000000
00011000
00000000
00001000
,
01000000
00000000
00110000
00000000
00110000
00000000
00001000
00010000
,
00001000
00100000
00000000
00010000
,
01000000
00000000
01000000
00010000
00001000
00000000
00001000
00010000
,
01000000
00000000
00010000
00000000
00000000
10000000
10000000
00000000
,
01000000
00000000
00100000
00000000
01100000
00000000
00001000
00010000
,
00010000
00000010
00000000
00010000
,
00000100
00001000
00000100
00000010
,
00000001
00000000
00000000
00001000
,
00100000
00000000
01010000
00000000
01010000
00000000
00001000
00010000
,
00001000
00000100
00000000
00000010
,
00000001
00000000
00000010
00001000
00010000
00000000
00010000
00001000
,
00000010
00000000
00001000
00000000
00000000
00001000
00001000
00000000
,
00000100
00000000
00001000
00000000
00001100
00000000
00010000
00010000
,
00001000
00001000
00000000
00001000
,
00100000
00010000
00100000
01000000
,
10000000
00000000
00000000
00000000
00000000
00010000
00000100
00000000
,
00001000
00000000
00000010
00000000
00000010
00000100
00000000
00000000
,
00000100
00000010
00000000
00000000
00000010
00001000
00000000
00000000
,
00001000
00000100
00001000
00000000
00010000
00001000
00000000
00000000
,
01000000
02000000
00000000
00000000
00000000
00000000
00000000
03000000
,
00000000
00000000
01000000
00000000
01000000
00100000
00000000
00000000
,
00100000
01000000
00000000
00000000
00100000
00010000
00000000
00000000
,
00001000
00000000
00000010
00001000
00000100
00001000
00000000
00000000
,
00000010
00000020
00000000
00000000
00000000
00000000
00000000
00000000
,
00000030
00000100
00020000
00030000
,
00200000
00300000
20000000
30000000
,
00010000
00000000
01000000
00000000
00100000
00100000
00000000
00000000
,
00001000
00002000
00000000
00000000
00000000
00000000
00000000
00003000
,
00000000
00010000
00000200
00000300
,
00000020
00000030
00000002
00000003
,
00001000
00000000
00001000
00000100
00010000
00001000
00000000
00000000
,
00010000
00020000
00000000
00000000
00000000
00000000
00000000
00000000
,
00030000
00000000
00000000
00000000
;

//---------------dance-double - ----------------
#NOTEDATA:;
#CHARTNAME:;
#STEPSTYPE:dance-double;
#DESCRIPTION:;
#CHARTSTYLE:;
#DIFFICULTY:Hard;
#METER:10;
#RADARVALUES:0.360772,0.444352,0.111088,0.274017,0.000000,341.000000,326.000000,15.000000,37.000000,0.000000,0.000000,0.000000,0.000000,0.000000,0.360772,0.444352,0.111088,0.274017,0.000000,341.000000,326.000000,15.000000,37.000000,0.000000,0.000000,0.000000,0.000000,0.000000;
#CREDIT:;
#NOTES:
00000000
00000000
00000000
00000000
,
00000000
00000000
00000000
00000000
,
00000000
00000000
00000000
00000000
,
00000000
00000000
00000000
00000000
,
00000000
00000000
00000000
00000000
,
00000000
00000000
00000000
00000000
,
00000000
00000000
00000000
00000000
,
00000000
00000000
00000000
00000000
,
00000000
00000000
00000000
00000000
,
00000000
00000000
00010000
00001000
00100000
00020000
00000000
00031000
,
00000100
00000020
00000000
00001030
00010000
00200000
00000000
00310000
,
01000000
00010000
00100000
01000000
00100000
10000000
00000000
01000000
,
01000000
00200000
00000000
00000000
00000000
00000000
00000000
00000000
,
00300000
00000000
00001000
00010000
00000100
00002000
00000000
00013000
,
00100000
02000000
00000000
03100000
00001000
00000200
00000000
00001300
,
00000010
00001000
00000100
00000010
00000100
00000001
00000000
00000010
,
00000010
00000200
00000000
00000000
00000000
00000000
00000000
00000000
,
00000300
00000000
00000000
00000000
00010000
00000000
00010000
00001000
,
00010000
00000000
00100000
00000000
00010000
01000000
00000000
00100000
,
00000000
10000000
00000000
00010000
00001000
00000100
00000010
00000000
,
00000001
00000000
00000100
00000000
00000010
00001000
00000000
00010000
,
00000000
00001000
00000000
00000000
00000000
00100000
00010000
00100000
,
00010000
01000000
00000000
00000000
01010000
00000000
00001000
00010000
,
00000100
00010000
00000000
00000000
00001010
00000000
00001000
00000000
,
00000100
00000000
00010000
00000000
00001000
00000100
00000000
00000010
,
00000000
00000001
00000000
00000010
00000100
00001000
00010000
00000000
,
00001000
00000000
00200000
00000000
00310000
01000000
00000000
00100000
,
00000000
10000000
00000000
01000000
00010000
00001000
00000100
00000000
,
00000010
00000000
00000020
00000000
00000130
00000001
00000000
00001000
,
00000000
00000010
00000000
00000000
00000000
00010000
00001000
00100000
,
00001000
00010000
00000000
00000000
00011000
00000000
00000100
00010000
,
00001000
00010000
00000000
00000000
00011000
00000000
00100000
00000000
,
00010000
00000000
10000000
00000000
01000000
00100000
00000000
00010000
,
01000000
00200000
00000000
00300000
00000000
00000000
00010000
01000000
,
00010000
00000000
00200000
00000000
00301000
00010000
00000000
00001000
,
00000000
00000200
00000000
00000300
00000001
00001000
00000000
00002000
,
00000000
00003100
00000000
00000000
00010000
00001000
00000000
00010000
,
00000000
00200000
00000000
00300000
00000000
00010000
00100000
01000000
,
10000000
00000000
01010000
00000000
00010000
00001000
00000100
00000010
,
00000100
00000000
00000011
00000000
00000100
00001000
00010000
00100000
,
00010000
00000000
10010000
00010000
01000000
00000000
00011000
00001000
,
00000100
00000000
00001000
00000010
00000100
00000010
00001000
00000000
,
00000100
00000000
00000110
00000000
00000000
00000010
00000100
00001000
,
00010000
00100000
00010000
00000000
00110000
00000000
00100000
00010000
,
00100000
01000000
00000000
00100000
00000000
00010000
00001000
00000000
,
00000100
00001000
00020000
00000000
01030000
20000000
00000000
31000000
,
00010000
00100000
00010000
01000000
00000000
00001000
00001000
00000100
,
00000100
00010000
00010100
00000000
00011000
00000000
00010000
00001000
,
00000100
00000001
00000100
00000010
00000000
00001000
00010000
00000000
,
00100000
10000000
00100000
00000000
01000000
00010000
00000000
01000000
,
00000000
00200000
00000000
00300000
00000000
01000000
00010000
00001000
,
00000100
00000010
00000100
00000000
00001010
00000000
00001000
00000100
,
00001000
00000010
00000000
00000100
00000000
00001000
00010000
00000100
,
00001000
00000000
00002000
00000000
00003010
00000002
00000000
00000013
,
00001000
00000100
00001000
00000010
00000000
00010000
00010000
00100000
,
00100000
00001000
00110000
00000000
00011000
00000000
00100000
00010000
,
01000000
00100000
10000000
01000000
00000000
00100000
00100000
00000000
,
00010000
00000100
00001000
00000000
00000010
00001000
00000000
00000010
,
00000000
00000200
00000000
00000300
00000000
00010000
00000010
00001000
,
00000100
00000000
00000010
00010000
00001000
00020000
00000000
01030000
,
00100000
02000000
00000000
03100000
00010000
00002000
00000000
00003100
,
00000010
00000100
00000010
00000001
00000010
00000100
00000000
00001000
,
00010000
00000200
00000000
00000000
00001000
00000000
00001000
00000000
,
00001300
00000000
00010000
00000010
00000100
00002000
00000000
00003100
,
00000010
00000200
00000000
00010300
00001000
00020000
00000000
01030000
,
10000000
01000000
00100000
01000000
00100000
00010000
00000000
01000000
,
00001000
00200000
00000000
00000000
00000000
00000000
00000000
00000000
,
00000000
00300000
00000000
00000000
00001000
00020000
00000000
00030000
,
00000100
00000020
00000000
00000030
00000001
00000200
00000000
00000300
,
00000000
00000000
00000001
00000100
00001000
00010000
00000000
00000000
,
00001000
00200000
00000000
00000000
00000000
00000000
00000000
00300000
,
00000000
00000000
00001000
00000000
00010000
00002000
00000000
00003000
,
00100000
02000000
00000000
03000000
10000000
00020000
00000000
00030000
,
00100000
00000000
01000000
00010000
00001000
00000100
00000000
00000000
,
00010000
00002000
00000000
00000000
00000000
00000000
00000000
00000000
,
00003000
00000000
00000000
00000000
;
