#TITLE:Pelo;
#SUBTITLE:;
#ARTIST:The Idol Formerly Known As LADYBABY;
#TITLETRANSLIT:;
#SUBTITLETRANSLIT:;
#ARTISTTRANSLIT:;
#GENRE:J-POP;
#CREDIT:SAIKIO;
#BANNER:Pelo-banner.png;
#BACKGROUND:bg.png;
#LYRICSPATH:;
#CDTITLE:Saikio Simfiles.png;
#MUSIC:Pelo.ogg;
#OFFSET:0.220000;
#SAMPLESTART:75.254990;
#SAMPLELENGTH:14.099989;
#SELECTABLE:YES;
#BPMS:0.000000=210.000000
;
#STOPS:
;
#BGCHANGES:0.500=Pelo.avi=1.000=0=0=0=StretchNoLoop====,
99999=-nosongbg-=1.000=0=0=0 // don't automatically add -songbackground-
;
#KEYSOUNDS:;
#ATTACKS:;

//---------------dance-single - ----------------
#NOTES:
     dance-single:
     :
     Beginner:
     4:
     0.202824,0.385323,0.112298,0.032085,0.000000,177.000000,163.000000,14.000000,4.000000,0.000000,0.000000,0.202824,0.385323,0.112298,0.032085,0.000000,177.000000,163.000000,14.000000,4.000000,0.000000,0.000000:
0000
0000
0000
0000
,
0000
0000
0000
0000
,
0000
0000
0000
0000
,
0000
0000
0000
0000
,
0000
0000
0001
0000
,
0000
0000
1000
0000
,
0000
0000
0001
0000
,
0000
0000
0000
0000
,
0000
0000
1001
0000
,
0000
0000
0000
0000
,
0000
0000
1001
0000
,
0000
0000
0000
0000
,
0000
0000
0110
0000
,
0000
0000
0000
0000
,
0000
0000
0110
0000
,
0000
0000
0100
0100
,
0000
0000
0010
0000
,
1000
0000
0010
0000
,
1000
0000
0010
0000
,
1000
0000
0000
0000
,
0000
0000
0100
0000
,
0001
0000
0100
0000
,
0001
0000
0100
0000
,
0001
0000
0000
0000
,
0000
0000
0000
0000
,
0000
0000
1000
1000
,
0000
0000
0010
0000
,
0000
0000
0001
0001
,
0000
0000
0100
0000
,
0000
0000
0100
0100
,
0000
0000
1000
0000
,
0000
0000
0010
0000
,
0100
0000
0010
0000
,
0100
0000
1001
0000
,
0000
0000
1001
0000
,
0000
0000
0100
0100
,
0000
0000
0010
0000
,
0000
0000
0010
0010
,
0000
0000
0001
0000
,
0000
0000
0001
0001
,
0000
0000
0100
0000
,
0000
0000
0001
0000
,
1000
0000
0001
0000
,
1000
0000
0110
0000
,
0000
0000
0110
0000
,
0000
0000
1000
1000
,
1000
0000
0010
0010
,
0010
0000
0001
0001
,
0001
0000
0000
0100
,
1000
0000
1000
1000
,
1000
0000
0100
0100
,
0100
0000
0010
0010
,
0010
0000
0000
0001
,
0010
0000
0002
0000
,
0003
0000
0100
0000
,
0000
0000
0010
0000
,
1000
0000
0010
0000
,
1000
0000
2000
0000
,
3000
0000
0001
0000
,
0000
0000
1000
0000
,
0100
0000
1000
0000
,
1000
0000
0100
0000
,
0100
0000
0100
0000
,
0000
0000
0000
0000
,
0000
0000
0110
0000
,
0000
0000
1001
0000
,
0000
0000
0001
0001
,
0000
0000
0100
1000
,
0000
0000
0010
0010
,
0000
0000
0001
0010
,
0000
0000
1000
0000
,
0001
0000
0100
0000
,
0100
0010
0000
0000
,
0000
0000
1000
0000
,
0000
0000
0001
0000
,
0100
0000
1000
0000
,
0000
0000
1000
0000
,
0010
0000
0001
0000
,
0000
0000
0001
0000
,
0100
0000
1000
0000
,
0010
0000
0100
0000
,
0001
0000
0100
0000
,
0100
0000
1000
0000
,
0010
0000
0001
0000
,
0100
0000
0010
0000
,
1000
0000
0010
0000
,
0100
0000
1000
0000
,
0100
0100
0000
0000
,
0010
0010
0000
0000
,
1000
1000
0000
0000
,
0001
0000
1000
1000
,
0001
0001
1000
1000
,
0001
0001
0100
0000
,
0010
0000
0100
0010
,
0100
0000
0200
0000
,
0300
0000
0020
0000
,
0000
0030
0000
0000
,
0000
0000
0000
0000
,
0000
0000
1001
0000
,
0100
0000
0001
0000
,
0010
0000
1000
0000
,
0000
0000
1001
0000
,
0000
0000
0110
0000
,
1000
0000
0100
0000
,
0001
0000
0010
0000
,
0000
0000
0110
0000
,
0000
0000
0100
0100
;

//---------------dance-single - ----------------
#NOTES:
     dance-single:
     :
     Easy:
     7:
     0.394190,0.685019,0.425129,0.088234,0.000000,344.000000,291.000000,53.000000,11.000000,0.000000,0.000000,0.394190,0.685019,0.425129,0.088234,0.000000,344.000000,291.000000,53.000000,11.000000,0.000000,0.000000:
0000
0000
0000
0000
,
0000
0000
0000
0000
,
0000
0000
0000
0000
,
0000
0000
0000
0000
,
0000
0000
0001
0001
,
0100
0000
0010
0010
,
0100
0000
1000
1000
,
0001
0000
2002
0000
,
3003
0000
0110
0110
,
0000
0000
0000
0000
,
0000
0000
1001
1001
,
0000
0000
0000
0000
,
0000
0000
0100
0001
,
0100
0000
0010
1000
,
0000
0000
0100
0010
,
0100
0000
0010
1000
,
0010
0000
1000
0001
,
1100
0000
0010
0100
,
0011
0000
0100
1000
,
0110
0000
0001
0100
,
0000
0000
0001
0100
,
1001
0000
0010
0100
,
1010
0000
1000
0010
,
0101
0000
0100
0001
,
0100
0000
0020
0000
,
0030
0000
0100
0100
,
0001
0000
1000
0100
,
0001
0000
0010
0010
,
1000
0000
0001
0100
,
1000
0000
0100
0100
,
0001
0000
0001
1000
,
0100
0000
0001
0101
,
1000
1100
0001
0100
,
0010
0000
1001
0000
,
1001
0000
0000
0000
,
0010
0000
1000
1000
,
0001
0000
0100
0001
,
0010
0000
1000
1000
,
0010
0000
1000
0010
,
0100
0000
0100
0100
,
1000
0000
1000
0010
,
0001
0000
1000
1010
,
0001
0011
0100
0010
,
1000
0000
0110
0000
,
0110
0000
0001
0100
,
0010
0000
1000
0100
,
0001
0100
1000
0010
,
0001
0010
1000
0100
,
0001
0010
1000
1000
,
0010
0010
0001
0010
,
1000
0010
0001
0100
,
1000
0100
0001
0100
,
1000
0010
0001
0001
,
0100
0100
0020
0000
,
1030
0000
0100
0001
,
1000
0000
1000
1000
,
0100
0100
0010
0010
,
0001
0001
0200
0000
,
0310
0000
0010
1000
,
0100
0000
1000
1000
,
0010
0001
0002
1000
,
0100
1003
0020
0100
,
0100
0100
0200
0000
,
0000
0000
0000
0330
,
0000
0000
0101
0000
,
1100
0000
0110
0000
,
0000
0000
0010
0010
,
0001
0100
1000
0010
,
0000
0000
0100
0100
,
0001
1000
0010
0100
,
0000
0000
1000
0001
,
1000
0010
0001
0010
,
0100
0001
0000
0100
,
0100
0010
0010
0000
,
1000
0000
0100
0001
,
0100
0010
1000
1100
,
0000
0000
1000
0010
,
1000
0100
0001
0011
,
0000
0000
1100
0100
,
0001
1000
0110
0010
,
0100
0010
0011
0100
,
1000
0100
0011
0011
,
1100
1100
0011
0001
,
1000
0001
0110
0010
,
0001
0100
1001
1000
,
0001
0100
1000
0100
,
0010
0200
0300
0000
,
0001
0100
0000
0000
,
0100
0010
0000
0000
,
0100
1000
0000
0000
,
1000
0010
1001
0011
,
1100
0110
0101
1001
,
1010
0000
0010
0010
,
0100
0100
0001
0100
,
0010
0000
0200
0000
,
0300
0000
0020
0000
,
0000
0030
0000
0000
,
0000
0000
0000
0000
,
0000
0000
1001
0100
,
1010
0000
1100
0010
,
0101
0000
0110
1000
,
0011
0000
1000
0000
,
0100
0000
1001
0010
,
0101
0000
0110
0001
,
1100
0000
0011
0100
,
1010
0000
1000
0100
,
0010
0000
0100
0100
;

//---------------dance-single - ----------------
#NOTES:
     dance-single:
     :
     Medium:
     10:
     0.493883,0.642206,0.553470,0.176469,0.000000,431.000000,362.000000,69.000000,22.000000,0.000000,0.000000,0.493883,0.642206,0.553470,0.176469,0.000000,431.000000,362.000000,69.000000,22.000000,0.000000,0.000000:
0000
0000
0000
0000
,
0000
0000
0000
0000
,
0000
0000
0000
0000
,
0000
0000
0000
0000
,
0000
0000
1000
0001
,
0100
0100
0010
0001
,
0010
0010
0100
1000
,
0100
0100
2002
0000
,
0000
3003
0000
0000
1010
0000
0011
0000
,
0000
0000
0000
0000
,
0000
0000
1100
0101
,
0000
0000
0000
0000
,
0000
0000
0000
0000
1000
0000
1000
0001
,
0100
0010
0100
0001
,
1000
0000
0010
0100
0010
0000
1000
0001
,
1000
0100
0001
0001
,
0100
0000
1100
0001
,
1100
0001
0011
1000
,
0011
1000
1100
1001
,
0110
0000
0000
0000
1000
0100
1000
0000
,
0010
0000
0011
1000
,
0011
1000
1100
0001
,
1100
0001
1010
0110
,
0101
0000
0000
0000
1000
0001
1000
0000
,
0010
0000
0100
0000
,
0020
0030
0100
0100
,
1000
0001
0000
0000
0100
0000
1000
0000
,
0010
0000
1000
1000
,
0001
0100
0000
0000
0010
0000
0100
0000
,
0001
0000
0001
0001
,
0100
0010
0000
0000
0001
0000
1000
0000
,
0100
0000
1001
0001
,
1001
1000
0110
0101
,
1001
0100
1001
0000
,
0110
0000
1000
0001
,
0100
0000
0010
0010
,
1000
0010
0000
0000
0100
0000
1000
0000
,
0010
0000
0001
0001
,
1000
0001
0000
0000
0100
0000
0010
0000
,
1000
0000
0100
0100
,
0001
0100
0000
0000
0001
0000
1000
0000
,
0100
0000
1010
1000
,
1010
0001
0011
1100
,
0110
0000
0110
0000
,
1100
0000
0101
0000
,
0000
0000
0000
0000
1000
0000
1000
0001
,
0001
0000
0100
0000
0010
0000
0010
1000
,
1000
0000
0010
0000
0100
0000
0100
0010
,
0010
0001
0110
1000
,
0110
0000
0001
0000
0100
0000
0100
0010
,
0001
0000
1000
0000
0010
0000
0010
1000
,
0100
0000
0001
0000
0100
0000
0010
0100
,
0010
0001
0011
1100
,
0011
0000
2100
0000
,
0001
3000
0000
0000
0100
0000
0100
0000
,
0010
0000
0002
0103
,
2000
3001
0100
0010
,
0001
0100
0020
0000
,
0230
0000
0301
1000
,
0100
0000
1000
0010
,
0100
0001
2000
3200
,
0302
0023
2030
3002
,
0203
2300
3020
0000
,
0000
0000
0000
0000
,
0000
0030
0000
0000
0101
0000
0000
0000
,
1100
0000
1001
0000
,
0000
0000
0000
0000
1000
0000
0001
0100
,
0000
0000
0001
0000
0010
0000
1000
0010
,
0000
0000
1000
0000
0100
0000
0010
0100
,
0000
0000
0010
0000
0001
0000
1000
0100
,
0000
0010
1001
0000
,
1100
0000
0010
0010
,
0100
0001
0000
0100
0000
0100
0000
0010
,
0000
0010
0000
1000
0000
1000
0001
0000
,
0100
0000
0010
0000
1000
0000
0100
0001
,
0000
0000
0100
0000
0010
0000
1000
0001
,
0000
0000
1000
0000
0001
0000
0010
1000
,
0000
0000
0100
0000
0001
0000
0100
0010
,
0000
0000
1000
0000
0010
1000
0000
0001
,
0100
0000
0010
0000
1000
0100
0000
0010
,
0001
0000
0100
0000
0010
0100
0000
0010
,
1000
0010
0101
0001
,
1100
0000
1000
0000
0010
0100
0000
0001
,
0100
0000
0010
0000
0001
0100
0000
1000
,
0010
0000
0100
0000
0010
1000
0000
0010
,
0001
0100
0110
0101
,
0100
0010
0000
0200
0000
0000
0300
0000
,
1000
0100
0000
0002
0000
0000
0000
0003
,
0010
0010
0000
0200
0000
0000
0000
0300
,
0001
0001
0000
2000
0000
0000
3000
0000
,
0100
0001
1010
0001
,
1100
0001
0011
1100
,
0110
0000
0101
0000
1000
0100
1000
0000
,
0010
0001
0010
0000
1000
0000
0010
0000
,
0100
0000
0001
0000
0100
0010
1000
0000
,
1000
0000
0100
0000
0100
0010
0100
0010
,
0100
0100
0020
0000
,
0000
0000
0000
0000
,
0000
0030
0000
0000
1001
0000
0100
0000
,
0011
0110
1100
0001
,
1010
0100
0101
1000
,
1010
0000
0000
0000
0100
0001
0100
0000
,
0010
0000
0011
1000
,
0101
1001
0110
0010
,
1001
0100
0011
0010
,
1100
0000
0000
0000
1000
0010
0100
0000
,
0010
0000
0100
0100
;

//---------------dance-single - ----------------
#NOTES:
     dance-single:
     :
     Hard:
     14:
     0.680665,0.813461,0.737960,0.184490,0.000000,594.000000,502.000000,92.000000,23.000000,0.000000,0.000000,0.680665,0.813461,0.737960,0.184490,0.000000,594.000000,502.000000,92.000000,23.000000,0.000000,0.000000:
// measure 0
0000
0000
0000
0000
,  // measure 1
0000
0000
0000
0000
,  // measure 2
0000
0000
0000
0000
,  // measure 3
0000
0000
0000
0000
,  // measure 4
0000
0000
0000
0000
1001
0000
0000
0001
,  // measure 5
0100
0000
1000
0000
0110
0000
0000
0001
,  // measure 6
0100
0000
0010
0000
0101
0000
0000
1000
,  // measure 7
0100
0010
2002
0000
,  // measure 8
0000
3003
0110
0110
,  // measure 9
1000
0000
0100
0000
0010
0000
0001
0100
,  // measure 10
0000
0010
1000
0000
0101
0000
0101
0000
,  // measure 11
0010
0000
1000
0200
0000
0000
0000
0000
,  // measure 12
0300
0010
0101
0001
,  // measure 13
1100
0000
1000
0000
0100
0010
0100
0001
,  // measure 14
0000
0100
1001
1100
,  // measure 15
1001
0000
0100
0010
0001
0000
0001
0000
,  // measure 16
1000
0010
0000
0000
1001
0000
0100
0001
,  // measure 17
0100
0000
0010
1000
0100
0000
0001
0010
,  // measure 18
0001
0000
0100
0001
0010
0000
1000
0000
,  // measure 19
1010
0000
0000
0000
0100
0001
1000
0000
,  // measure 20
0010
0000
0100
0000
1001
0000
0001
0100
,  // measure 21
1000
0000
0100
0010
0001
0000
1000
0010
,  // measure 22
0100
0000
0001
1000
0010
0000
0100
0000
,  // measure 23
0101
0000
0000
0000
0100
0001
1000
0000
,  // measure 24
0010
0100
1010
1010
,  // measure 25
0100
0000
0001
0000
0100
0010
0100
0001
,  // measure 26
0100
0010
0000
0000
1000
0000
1000
0100
,  // measure 27
0000
0100
0001
0000
0010
1000
0010
0100
,  // measure 28
0010
1000
0000
0000
0001
0000
0001
0000
,  // measure 29
0100
0000
0100
0000
0001
1000
0001
0010
,  // measure 30
0001
1000
0000
0000
0001
0010
0100
0010
,  // measure 31
0000
0100
0010
0001
0100
0110
0000
0000
,  // measure 32
1000
1001
0000
0000
1100
0000
0001
0000
,  // measure 33
0100
0000
0010
0000
1001
0101
0000
0000
,  // measure 34
1001
1100
0000
0000
1001
0000
0100
0000
,  // measure 35
0010
0000
1000
0000
0001
1000
0100
1000
,  // measure 36
0001
1000
0000
0010
0100
0000
0100
0001
,  // measure 37
0000
0100
1000
0000
0010
0001
0010
0100
,  // measure 38
0010
0001
0000
1000
0100
0000
1000
0000
,  // measure 39
0010
0000
0001
0000
1000
0100
0010
0100
,  // measure 40
1000
0100
0000
0010
0100
0010
0001
0100
,  // measure 41
0000
0010
0100
0000
1000
1100
0000
0000
,  // measure 42
0001
0011
0000
0000
0101
0000
0001
0000
,  // measure 43
1000
0000
0100
0000
1001
0110
0000
0000
,  // measure 44
0110
1001
0000
0000
0010
0000
1000
0000
,  // measure 45
0001
0000
0100
0000
1000
0001
1000
0001
,  // measure 46
0100
0001
0100
0001
0010
0100
0010
0100
,  // measure 47
0001
1000
0001
0010
1000
0100
1000
0100
,  // measure 48
0010
0100
0010
0001
0100
0000
0101
0000
,  // measure 49
0010
0000
1001
0000
0001
0010
0001
0010
,  // measure 50
0100
0010
0100
1000
0001
1000
0001
0010
,  // measure 51
0100
0010
1000
0100
1000
0100
0010
0001
,  // measure 52
0010
0001
1000
0001
0100
0100
0010
0000
,  // measure 53
0100
0001
0210
0000
,  // measure 54
0302
0000
2003
3010
,  // measure 55
0100
0000
0002
0103
,  // measure 56
0020
1030
0200
0310
,  // measure 57
0001
0100
1020
0000
,  // measure 58
2030
0000
3001
0100
,  // measure 59
0020
0000
0000
0030
1100
0000
0001
0000
,  // measure 60
0100
0010
2100
3100
,  // measure 61
0012
0103
0210
1300
,  // measure 62
2001
3100
0220
0000
,  // measure 63
0000
0000
0000
0000
,  // measure 64
0000
0330
0000
0000
1001
1010
0000
0000
,  // measure 65
1001
0101
0000
0000
1100
0110
0000
0000
,  // measure 66
0001
0000
0010
0000
0100
0000
0100
0001
,  // measure 67
0000
1000
0001
0100
0010
0000
1000
0001
,  // measure 68
0000
0001
0100
1000
0100
0000
0001
0100
,  // measure 69
0000
0100
1000
0010
0001
0000
0100
0010
,  // measure 70
0000
0100
0001
0100
0010
0000
1001
0000
,  // measure 71
1100
0000
0010
0001
0100
0000
0010
0000
,  // measure 72
1000
0100
0000
1000
0000
1000
0010
0100
,  // measure 73
0000
0100
0001
0010
0000
0010
0100
0100
,  // measure 74
0001
0000
1100
0000
1000
0000
0100
0001
,  // measure 75
0000
0001
0010
0100
1000
0000
1000
0010
,  // measure 76
0000
0100
0010
0100
0001
0000
0011
1000
,  // measure 77
0000
0001
0100
1000
0010
0000
0010
0001
,  // measure 78
0000
0001
0010
0000
0100
0101
0000
1000
,  // measure 79
0100
0000
0010
0100
1000
1100
0000
0010
,  // measure 80
0011
0000
0001
1000
1001
0001
0000
0100
,  // measure 81
0110
0001
1001
1100
,  // measure 82
1001
0000
0011
0000
0100
1010
0000
0010
,  // measure 83
0100
0000
1000
0010
0001
0110
0000
1000
,  // measure 84
0100
0000
0010
1001
0100
0010
0000
0101
,  // measure 85
0010
1000
1001
0100
,  // measure 86
1010
1010
0000
0001
0000
0010
1000
0100
,  // measure 87
0001
1000
0000
0120
0000
0000
0130
0000
,  // measure 88
0001
0010
0000
0201
0000
0000
0310
0000
,  // measure 89
0010
1000
0000
0102
0000
0000
0003
0000
,  // measure 90
0100
0000
0010
0000
1001
0100
0000
1100
,  // measure 91
0010
0000
0001
0101
0010
1010
0000
1100
,  // measure 92
0100
0000
0001
0011
0100
0010
0100
1000
,  // measure 93
0010
1000
0001
0010
0100
0000
0100
0000
,  // measure 94
1000
0010
0000
1000
0100
0001
0100
0001
,  // measure 95
0100
0010
0100
0010
1000
0001
0010
1000
,  // measure 96
0010
0100
0010
0000
2002
0000
0000
0000
,  // measure 97
0000
0000
0000
0000
,  // measure 98
0000
3003
0000
0000
0110
0000
0001
1100
,  // measure 99
0001
0000
0100
0010
0101
0000
1000
0010
,  // measure 100
1001
0000
0100
0010
1100
0000
0001
0010
,  // measure 101
0101
0000
0010
0000
1000
0001
0100
0000
,  // measure 102
0010
0000
1000
0000
0011
0000
0100
0001
,  // measure 103
1100
0000
0001
1000
0110
0000
1000
0100
,  // measure 104
1001
0000
0010
0100
0011
0000
1000
0100
,  // measure 105
1010
0000
0100
0000
1000
0010
0100
0000
,  // measure 106
0001
1000
0100
0100
;

//---------------dance-double - ----------------
#NOTES:
     dance-double:
     :
     Easy:
     8:
     0.377001,0.685019,0.360959,0.112298,0.000000,329.000000,284.000000,45.000000,14.000000,0.000000,0.000000,0.377001,0.685019,0.360959,0.112298,0.000000,329.000000,284.000000,45.000000,14.000000,0.000000,0.000000:
00000000
00000000
00000000
00000000
,
00000000
00000000
00000000
00000000
,
00000000
00000000
00000000
00000000
,
00000000
00000000
00000000
00000000
,
00000000
00000000
00001000
00010000
,
00000000
00000000
00100000
00010000
,
00000000
00000000
00010000
00000100
,
00000000
00000000
00022000
00000000
,
00033000
00000000
00001000
00001000
,
00000000
00010000
00000000
00100000
,
00000000
00000000
01000000
01000000
,
00000000
00100000
00000000
00000000
,
00000000
00000000
10000000
00010000
,
00100000
00000000
00010000
00001000
,
00010000
00000000
00001000
00000100
,
00000010
00000000
00000001
00000100
,
00000010
00000000
00001100
00000000
,
00011000
00000000
00110000
00000000
,
01010000
00000000
01100000
00000000
,
10010000
00000000
00100000
00010000
,
01000000
00000000
01010000
00000000
,
00110000
00000000
00011000
00000000
,
00001100
00000000
00001010
00000000
,
00000110
00000000
00000001
00000100
,
00000000
00000000
00000010
00000010
,
00000000
00000000
00010000
00100000
,
01000000
00000000
00010000
00000000
,
00001000
00000000
00001000
00000100
,
00000010
00000000
00010000
00010000
,
00001000
00000000
00100000
01000000
,
00100000
00000000
00010000
00001000
,
00010000
00000000
00000100
00001000
,
00000010
00000001
00000100
00000000
,
00000010
00000000
00001010
00000000
,
00011000
00000000
00100000
00000000
,
00010000
00000000
10000000
00100000
,
01000000
00000000
00100000
00010000
,
00010000
00000000
00010000
00001000
,
00000100
00000000
00000010
00001000
,
00000010
00000000
00000001
00000010
,
00000100
00000000
00000010
00001000
,
00000100
00000000
00010000
01000000
,
00100000
10000000
01000000
00010000
,
00100000
00000000
01010000
00000000
,
00011000
00000000
00001000
00000000
,
00000100
00000000
00000001
00000001
,
00000100
00000010
00000010
00001000
,
00001000
00010000
00100000
00100000
,
01000000
00010000
00100000
01000000
,
00100000
00000000
10000000
10000000
,
00010000
00100000
00100000
00010000
,
00001000
00001000
00000100
00000010
,
00000010
00000001
00000100
00000010
,
00000100
00000000
00002000
00000000
,
00003200
00000000
00010300
00001000
,
00001000
00000000
00001000
00010000
,
00100000
01000000
10000000
00100000
,
01000000
00010000
00020000
00000000
,
00230000
00000000
00301000
00010000
,
00010000
00000000
00001000
00000100
,
00000010
00000001
00000100
00001100
,
00011000
00100000
00100000
01000000
,
01000000
01000000
00200000
00000000
,
00000000
00000000
00000000
00300000
,
00000000
00000000
00011000
00000000
,
00101000
00000000
00010100
00000000
,
00000000
00000000
00100000
00010000
,
01000000
00100000
00010000
01000000
,
00000000
00000000
00001000
00000100
,
00000010
00001000
00000100
00000010
,
00000000
00000000
00002000
00000000
,
00003010
00000000
00001000
00000100
,
00000010
00000001
00000100
00000000
,
00000100
00000000
00001000
00000000
,
00100000
00000000
00001000
00010000
,
01000000
00100000
00010000
00100000
,
00000000
00000000
00010000
00001000
,
00000100
00001000
00000010
00000100
,
00000000
00000000
00001001
00001000
,
00000100
00011000
00110000
00100000
,
00010000
01000000
10010000
01000000
,
00100000
00010000
00110000
00011000
,
00001100
00001010
00000110
00001000
,
00010000
01100000
00110000
01000000
,
10000000
01000000
01100000
00010000
,
01000000
00100000
10000000
01000000
,
01000000
00200000
00000000
00300000
,
00010000
00002000
00000000
00013000
,
00100000
00200000
00000000
00300000
,
00010000
00000200
00000000
00000300
,
00001000
00010000
00011000
00001000
,
00000100
00001100
00001010
00000100
,
00000010
00000101
00001000
00000100
,
00000001
00000001
00000100
00000010
,
00001000
00000000
00000200
00000000
,
00000000
00000300
00000020
00000000
,
00000000
00000030
00001001
00000000
,
00000000
00000000
00000000
00000000
,
00000000
00000000
00110000
00010000
,
01000000
00000000
00011000
00010000
,
00000100
00000000
00000110
00001000
,
00000001
00000000
00001000
00000100
,
00001000
00000000
00001010
00001000
,
00000100
00000000
00011000
00001000
,
01000000
00000000
10010000
00100000
,
01000000
00000000
00100000
00001000
,
00010000
00000000
00000100
00000100
;

//---------------dance-double - ----------------
#NOTES:
     dance-double:
     :
     Medium:
     11:
     0.496175,0.642206,0.368980,0.136362,0.000000,433.000000,387.000000,46.000000,17.000000,0.000000,0.000000,0.496175,0.642206,0.368980,0.136362,0.000000,433.000000,387.000000,46.000000,17.000000,0.000000,0.000000:
00000000
00000000
00000000
00000000
,
00000000
00000000
00000000
00000000
,
00000000
00000000
00000000
00000000
,
00000000
00000000
00000000
00000000
,
00000000
00000000
00000000
00000000
00000001
00000000
00000000
00000001
,
00000100
00000000
00010000
00000000
00001000
00000000
00000000
00010000
,
00000100
00000000
00100000
00000000
00010000
00000000
00000000
01000000
,
00010000
00100000
02000000
00000000
,
00000000
03000000
00000000
00000000
00011000
00000000
00011000
00000000
,
00000100
00000000
00000010
00000000
,
00000100
00000000
00001001
00001001
,
00000100
00000000
00010000
00000000
,
00100000
00000000
10010000
00100000
,
00001000
00010000
00001000
00000100
,
00000000
00001010
00001000
00110000
,
00010000
00100000
01000000
00010000
,
00100000
00000000
01010000
10000000
,
00010000
00100000
00110000
00001000
,
00000100
00001000
00000110
00000001
,
00001000
00000000
00000010
00000010
,
00000100
00000000
00000101
00000010
,
00001000
00000100
00001100
00010000
,
00100000
01000000
01100000
10000000
,
01000000
00000000
00100000
00010000
,
00001000
00000000
00000000
00000000
00000200
00000000
00000000
00000300
,
00000010
00000010
00000001
00000100
,
00000010
00001000
00000000
00000000
00010000
00000000
00010000
00000000
,
00100000
00000000
01000000
01000000
,
10000000
01000000
00000000
00000000
01000000
00000000
00010000
00000000
,
00001000
00001000
00010000
00010000
,
00001000
00000100
00000000
00000000
00000010
00000000
00000001
00000000
,
00000010
00001000
00001100
00000010
,
00000110
00000001
00000100
00000010
,
00001000
00000100
00101000
00000000
,
00010100
00000000
00010000
00001000
,
01000000
00010000
00100000
00100000
,
01000000
00100000
00000000
00000000
10000000
00000000
01000000
00000000
,
00100000
00010000
00100000
00100000
,
00010000
00001000
00000000
00000000
00000100
00000000
00001000
00000000
,
00001000
00000010
00000100
00000010
,
00000001
00000010
00000000
00000000
00001000
00000000
00000100
00000000
,
00000010
00001000
00001100
00010000
,
00011000
00100000
01000000
00010000
,
00100000
00000000
01001000
00000000
,
00010010
00000000
00010000
00001000
,
00010000
00000000
00001000
00000000
00001000
00010000
00000000
00001000
,
00010000
00000000
00000100
00000000
00001000
00000100
00000000
00001000
,
00000100
00000000
00000010
00000000
00000010
00000100
00000000
00000010
,
00000100
00000001
00000100
00000010
,
00001000
00000000
00000100
00000000
00010000
00001000
00000000
00010000
,
00001000
00000000
00100000
00000000
00010000
01000000
00000000
00010000
,
01000000
00000000
00100000
00000000
10000000
01000000
00000000
10000000
,
01000000
00100000
00010000
00010000
,
01000000
00010000
00200000
00000000
,
00310000
00000000
00001000
00010000
,
00001000
00000100
00000200
00000310
,
00000002
00001003
00000200
00002300
,
00013000
00100000
00020000
00000000
,
02030000
00000000
03010000
10000000
,
00200000
00300000
00100000
00010000
,
00001000
00010000
00021000
00030100
,
00010200
00001300
00210000
00310000
,
01100000
01000000
20020000
00000000
,
00000000
00000000
00000000
00000000
00000000
00000000
00000000
30030000
,
00000000
00000000
00011000
00000000
,
00101000
00000000
00010100
00000000
,
00000000
00000000
00000000
00000000
00010000
00000000
00010000
00001000
,
00000000
00000100
00000010
00000000
00000100
00000000
00000001
00000000
,
00000100
00000000
00000100
00000000
00001000
00000000
00010000
00001000
,
00000000
00100000
00010000
00000000
00010000
00000000
01000000
00000000
,
00010000
00000000
00100000
00000000
10000000
00000000
00010000
10000000
,
00010000
01000000
00100000
00100000
,
00010000
00001000
00000000
00001000
00000000
00000010
00000000
00000010
,
00000000
00000100
00000000
00000001
00000000
00000001
00001000
00000000
,
00000100
00000000
00001000
00000000
00010000
00000000
00010000
00001000
,
00000000
00010000
01000000
00000000
00100000
00000000
01000000
00000000
,
01000000
00000000
10000000
00000000
01000000
00000000
01000000
00100000
,
00000000
00001000
00100000
00000000
00010000
00000000
00001000
00000000
,
00000010
00000000
00001000
00000000
00000100
00001000
00000000
00000010
,
00001000
00000000
00000100
00000000
00000100
00001000
00000000
00010000
,
00100000
00000000
00010000
00000000
00010000
00100000
00000000
00010000
,
00000100
00000010
00000101
00000101
,
00001010
00000000
00001010
00000000
00010000
00001000
00000000
00100000
,
00010000
00000000
01000000
00010000
01000000
00100000
00000000
10000000
,
01000000
00000000
00010000
00000000
00001000
00010000
00000000
00000010
,
00000100
00000010
00001100
00010000
,
00010000
00100000
00000000
01000000
00000000
00000000
00000000
00000000
,
00010000
00100000
00000000
01010000
00000000
00000000
00100000
00000000
,
01000000
00000000
00000000
00010100
00000000
00000000
00001000
00000000
,
00000100
00001000
00000000
00000110
00000000
00000000
00001000
00000000
,
00010000
00000000
00000100
00000000
00001000
00010000
00000000
00100000
,
00010000
00000000
00100000
00001000
00100000
00001000
00000000
00010000
,
00000100
00010000
00001000
00001000
,
00000100
00000010
00000001
00000100
,
00000010
00001000
00000000
00010000
00001000
00010000
00001000
00010000
,
00001000
00000000
00100000
00000000
00010000
00100000
00010000
00100000
,
00010000
00010000
00022000
00000000
,
00000000
00000000
00000000
00000000
,
00033000
00000000
00010000
00110000
,
01000000
10010000
00100000
00110000
,
00010000
00011000
00001000
00100000
,
00010000
00000000
00000000
00000000
00001000
00010000
00001000
00000000
,
00010000
00000000
00001000
00001100
,
00000010
00000011
00000100
00000110
,
00001000
00001010
00010000
00001000
,
00100000
00000000
00000000
00000000
00010000
01000000
00100000
00000000
,
10000000
00000000
01000000
01000000
;

//---------------dance-double - ----------------
#NOTES:
     dance-double:
     :
     Hard:
     14:
     0.616495,0.813461,0.505342,0.240639,0.000000,538.000000,475.000000,63.000000,30.000000,0.000000,0.000000,0.616495,0.813461,0.505342,0.240639,0.000000,538.000000,475.000000,63.000000,30.000000,0.000000,0.000000:
00000000
00000000
00000000
00000000
,
00000000
00000000
00000000
00000000
,
00000000
00000000
00000000
00000000
,
00000000
00000000
00000000
00000000
,
00000000
00000000
00000000
00000000
00000001
00001000
00000000
00001000
,
00000100
00000000
00010000
00001000
00001000
00100000
00000000
00100000
,
01000000
00000000
10000000
00010000
10000000
01000000
00000000
00010000
,
01000000
00010000
00022000
00000000
,
00000000
00033000
00000000
00000000
00001100
00000000
00001100
00000000
,
00100000
00000000
00010000
00000000
01000000
00000000
01000000
00010000
,
00000000
00100000
01010000
01010000
,
00100000
00000000
00010000
00002000
00000000
00000000
00000000
00003000
,
00000000
00010000
00010100
00000100
,
00101000
00000000
00001000
00000000
00010000
00000100
00010000
00000100
,
00000000
00000100
00001010
00001100
,
00001100
00000001
00001000
00000100
,
00020000
00000000
00030000
00000000
00110000
00000000
00100000
01000000
,
00010000
00000000
00010000
00001000
00000100
00000000
00001000
00000010
,
00000100
00000000
00000001
00000100
00001000
00000000
00010000
00001000
,
00100000
00000000
00001000
00000000
00001000
00000010
00001000
00000000
,
00000010
00000000
00000100
00000000
00011000
00000000
00001000
00000100
,
00000010
00000000
00001000
00010000
00100000
00000000
10000000
01000000
,
00010000
00000000
00100000
00010000
01000000
00000000
00010000
00100000
,
00001000
00000000
00000100
00000000
00010000
00001000
00010000
00000000
,
00001000
00000100
00000010
00000010
,
00000100
00000000
00000100
00000000
00000010
00000001
00000010
00000000
,
00000100
00000000
00000010
00000000
00010000
00000000
00010000
00001000
,
00000000
00100000
00010000
00000000
01000000
00010000
01000000
00000000
,
00100000
00010000
10000000
10000000
,
00010000
00000000
00010000
00000000
00100000
01000000
00100000
00000000
,
00001000
00010000
00001000
00000100
,
00010000
00001000
00001010
00000100
,
00001100
00000010
00000011
00000100
,
00001010
00000000
00001000
00000000
00010000
00110000
00000000
00000000
,
00001000
00011000
00000000
00000000
01000000
00000000
00010000
00000000
,
00100000
00000000
00100000
00000000
10000000
01000000
10000000
00000000
,
00100000
00000000
00010000
00000000
10000000
00000000
10000000
00010000
,
00000000
00100000
00010000
00000000
00001000
00000100
00001000
00000000
,
00000100
00001000
00000010
00000010
,
00000100
00000000
00000100
00000000
00000001
00001000
00000001
00000000
,
00000010
00000000
00001000
00000000
00000100
00001000
00010000
00000000
,
00010000
00001000
00110000
01000000
,
01010000
00100000
11000000
00010000
,
00100000
00000000
00010000
00000000
00001000
00011000
00000000
00000000
,
00000100
00001100
00000000
00000000
00010000
00000000
00010000
00000000
,
00001000
00000000
00100000
00000000
00100000
00010000
00000000
01000000
,
00010000
00000000
00100000
10000000
00100000
01000000
00000000
01000000
,
00010000
00000000
00001000
00000100
00001000
00000100
00000000
00000010
,
00000001
00000100
00001100
00001010
,
00001100
00000000
00001010
00000000
00010000
00001000
00000000
00100000
,
00010000
00000000
01000000
00001000
01000000
00001000
00000000
00010000
,
00100000
00000000
10000000
01000000
10000000
01000000
00000000
00100000
,
00010000
00000000
00001000
00000100
00001000
00000000
00000010
00000000
,
00000100
00001000
00000020
00000000
,
00000230
00000000
00000301
00001000
,
00000200
00000300
00002000
00203000
,
20300000
32000000
03020000
00032000
,
00003100
00000010
00020000
00000000
,
00230000
00000000
00310000
01000000
,
00010000
00000000
00020000
00030200
,
00000302
00000023
00002030
00003100
,
00012000
00103000
00201000
00310000
,
20010000
31000000
00022000
00000000
,
00000000
00000000
00000000
00000000
,
00000000
00033000
00000000
00000000
00001100
00001010
00000000
00000000
,
00011000
00101000
00000000
00000000
00110000
00000000
00000000
00000000
,
00010000
00000000
10000000
00000000
00100000
00000000
00100000
00010000
,
00000000
00001000
00100000
00001000
00010000
00000000
00000100
00001000
,
00000000
00000010
00001000
00000010
00000100
00000000
00000100
00000010
,
00000000
00000001
00000100
00000001
00000010
00000000
00000010
00001000
,
00000000
00010000
00001000
00100000
00010000
00000000
01000000
00000000
,
00100000
00000000
00010000
10000000
00010000
00000000
00100000
00000000
,
00010000
00001000
00000000
00010000
00000000
00010000
00001000
00100000
,
00000000
00100000
00010000
00001000
00000000
00001000
00000100
00000000
,
00000001
00000000
00001000
00000000
00000100
00000000
00000100
00001000
,
00000000
00001000
00010000
00100000
00010000
00000000
00100000
01000000
,
00000000
10000000
01000000
00100000
01000000
00000000
00010000
00001000
,
00000000
00001000
00000100
00000001
00000100
00000000
00000010
00001000
,
00000100
00000000
00000100
00000000
00101000
00101000
00000000
01000000
,
00010000
00000000
00110000
00110000
10000000
01000000
00000000
00100000
,
00010000
00000000
00001100
00001100
00010000
00001000
00000000
00000100
,
00000010
00001000
00001010
00001100
,
00001010
00000000
00001100
00000000
00001001
00001001
00000000
00000100
,
00010000
00000000
00011000
00011000
00100000
00010000
00000000
00001000
,
00100000
00000000
00010000
01000000
00100000
00100000
00000000
10000000
,
00010000
00000000
00010000
00001000
00000100
00000000
00001000
00000000
,
00000010
00001000
00000000
00000200
00000000
00000000
00000300
00000000
,
00000010
00000001
00000000
00000120
00000000
00000000
00000130
00000000
,
00001000
00000100
00000000
00120000
00000000
00000000
00130000
00000000
,
00010000
01000000
00000000
01010000
00000000
00000000
00100000
00000000
,
00001000
00000000
00010000
00000000
00001000
00011000
00000000
00100000
,
00010000
00000000
00100000
00010000
01000000
00010000
00000000
00100000
,
00010000
00000000
00001000
00000000
00010000
00000000
00100000
01000000
,
00100000
10000000
01000000
00100000
00010000
00000000
00100000
00000000
,
00001000
00010000
00000000
00000100
00000010
00000001
00000100
00001000
,
00000100
00001000
00010000
00100000
00001000
00010000
00100000
01000000
,
10000000
01000000
00100000
00000000
20020000
00000000
00000000
00000000
,
00000000
00000000
00000000
00000000
,
00000000
30030000
00000000
00000000
00011000
00000000
00100000
00010000
,
01000000
00000000
00010000
00001000
00001100
00000000
00000010
00000100
,
00000001
00000000
00001000
00000100
00001010
00000000
00010000
00000100
,
00001000
00100000
00110000
00010000
,
00011000
00000000
00100000
00000000
00010100
00000000
00010000
00001000
,
00000100
00000000
00001000
00010000
00110000
00000000
00010000
01000000
,
10000000
00000000
00010000
00100000
01010000
00000000
00001000
00010000
,
00000100
00000000
00000010
00000000
00000010
00000001
00000100
00000000
,
00000010
00001000
00000100
00000100
;
