#VERSION:0.83;
#TITLE:PAPAYAPA BASS;
#SUBTITLE:;
#ARTIST:かめりあ feat. ななひら;
#TITLETRANSLIT:PAPAYAPA BASS;
#SUBTITLETRANSLIT:;
#ARTISTTRANSLIT:Masaya Oya feat. Nanahira;
#GENRE:beatmania IIDX;
#ORIGIN:;
#CREDIT:SAIKIO;
#BANNER:PAPAYAPA BASS-banner.png;
#BACKGROUND:bg.png;
#PREVIEWVID:;
#JACKET:PAPAYAPA BASS-jacket.png;
#CDIMAGE:;
#DISCIMAGE:;
#LYRICSPATH:;
#CDTITLE:IIDX.png;
#MUSIC:PAPAYAPA BASS.ogg;
#OFFSET:0.080000;
#SAMPLESTART:80.450035;
#SAMPLELENGTH:12.700000;
#SELECTABLE:YES;
#BPMS:0.000=147.000;
#STOPS:;
#DELAYS:;
#WARPS:;
#TIMESIGNATURES:0.000=4=4;
#TICKCOUNTS:0.000=4;
#COMBOS:0.000=1;
#SPEEDS:0.000=1.000=0.000=0;
#SCROLLS:0.000=1.000;
#FAKES:;
#LABELS:0.000=Song Start;
#BGCHANGES:0.000=PAPAYAPA BASS.avi=1.000=0=0=0=StretchNoLoop====,
99999=-nosongbg-=1.000=0=0=0 // don't automatically add -songbackground-
;
#KEYSOUNDS:;
#ATTACKS:
;

//---------------dance-single - ----------------
#NOTEDATA:;
#CHARTNAME:;
#STEPSTYPE:dance-single;
#DESCRIPTION:;
#CHARTSTYLE:;
#DIFFICULTY:Beginner;
#METER:3;
#RADARVALUES:0.149189,0.177899,0.064764,0.000000,0.000000,129.000000,121.000000,8.000000,0.000000,0.000000,0.000000,0.000000,0.000000,0.000000,0.149189,0.177899,0.064764,0.000000,0.000000,129.000000,121.000000,8.000000,0.000000,0.000000,0.000000,0.000000,0.000000,0.000000;
#CREDIT:;
#NOTES:
0000
0000
0000
0000
,
0000
0000
0000
0000
,
0000
0000
0000
0000
,
0000
0000
0000
0000
,
0000
0000
0000
0110
,
0000
0100
0000
0010
,
0000
0000
0000
0001
,
0000
1000
0000
0001
,
0000
0000
0000
0110
,
0000
0100
0000
0010
,
0000
0000
0000
1001
,
0000
1000
0000
0001
,
0000
1000
0000
0100
,
0000
0100
0000
0010
,
0000
0010
0000
0001
,
0000
0001
0000
0100
,
0100
0000
0000
0010
,
0000
1000
0000
0010
,
0000
0000
0000
0100
,
0000
0001
0000
0100
,
0100
0100
0000
0010
,
0000
1000
0000
0100
,
0000
0000
0000
0010
,
0000
0001
0000
0100
,
0000
0000
0000
1000
,
0000
0001
0000
0100
,
0000
0100
0000
0010
,
0000
1000
0000
0001
,
0001
0001
0000
0010
,
0000
0100
0000
1000
,
0000
1000
0000
0100
,
0000
0100
0000
0001
,
0000
0001
0000
0010
,
0000
0000
0000
0000
,
0000
0000
0000
1000
,
0000
0000
0000
0000
,
0000
0000
0000
0001
,
0000
0000
0000
0100
,
0000
0000
0000
0010
,
0000
0000
0000
1000
,
0000
0000
0000
1000
,
1000
0000
0001
0000
,
0001
0000
0000
0010
,
0000
0010
0000
0100
,
0100
0000
0000
0001
,
0000
0100
0000
0001
,
0000
0100
0000
1000
,
0000
0010
0000
1000
,
0000
0010
0000
0001
,
0000
0000
0000
0110
,
0000
0010
0000
0100
,
0000
0000
0000
1001
,
0000
0001
0000
1000
,
0000
0001
0000
0100
,
0000
0100
0000
0001
,
0000
0001
0000
0010
,
0000
0010
0000
1000
,
0000
0000
0000
0110
,
0000
0010
0000
1000
,
0000
0000
0000
1001
,
0000
0001
0000
0100
,
0000
0001
0000
1000
,
0000
1000
0000
0010
,
0000
0010
0000
0100
,
0000
0100
0000
0001
,
0001
0000
0000
0100
,
0000
0100
0000
0010
,
0000
0010
0000
0001
,
0000
0001
0000
1000
,
1000
1000
0000
0010
,
0000
0100
0000
0001
,
0000
1000
0000
0100
,
0000
0001
0000
0010
,
0000
0110
0000
0000
;

//---------------dance-single - ----------------
#NOTEDATA:;
#CHARTNAME:;
#STEPSTYPE:dance-single;
#DESCRIPTION:;
#CHARTSTYLE:;
#DIFFICULTY:Easy;
#METER:5;
#RADARVALUES:0.293752,0.356406,0.170006,0.137624,0.000000,254.000000,233.000000,21.000000,17.000000,0.000000,0.000000,0.000000,0.000000,0.000000,0.293752,0.356406,0.170006,0.137624,0.000000,254.000000,233.000000,21.000000,17.000000,0.000000,0.000000,0.000000,0.000000,0.000000;
#CREDIT:;
#NOTES:
0000
0000
0000
0000
,
0000
0000
0000
0000
,
0000
0000
0000
0000
,
0000
0000
0000
0000
,
0000
0000
0010
0110
,
1000
0100
0001
0010
,
0000
0100
0001
0200
,
0300
0010
0100
0020
,
0030
0000
0100
0110
,
0001
0100
1000
0010
,
0000
0100
0001
1001
,
0100
0010
0001
0100
,
0020
0030
0000
1001
,
1000
0100
0010
0100
,
0000
0010
0001
0100
,
0000
0010
0001
1001
,
0020
0000
0030
0100
,
0100
0010
0010
0001
,
0010
0100
1000
0001
,
0001
1000
1000
0010
,
0010
0100
0010
1000
,
0100
0001
0010
0100
,
0001
0001
0100
0020
,
0030
1000
0100
0020
,
0030
0001
0100
0101
,
1000
0010
0010
1000
,
0100
1000
0010
0110
,
0001
0001
0100
0010
,
0010
1000
0100
1001
,
1000
0010
0100
0001
,
0010
0001
0100
0110
,
1000
0100
0001
0110
,
1000
0100
0010
1000
,
0000
0001
0000
0100
,
0000
0000
0010
0000
0010
0010
0010
0000
,
0000
0100
0000
0001
,
0000
0000
0100
0000
0100
0100
0100
0000
,
0000
0010
0000
1000
,
0100
0000
1000
0000
1000
1000
1000
0000
,
0000
0010
0000
0200
,
0000
0000
0300
0010
,
0001
0100
1000
0020
,
0130
0001
0000
0000
,
0100
1000
1000
0002
,
1003
0000
0100
0020
,
1030
0100
0001
2000
,
3100
0010
0001
0100
,
0100
0010
0010
0100
,
0100
0010
0010
0110
,
0000
0000
0100
0110
,
0001
0100
1000
0010
,
0000
0100
0001
0101
,
1000
0100
0001
0001
,
0020
0030
1000
1100
,
0010
0100
0100
0010
,
0000
0001
0100
0002
,
0003
0100
0010
2000
,
3000
0010
0100
0011
,
0010
1000
0100
0100
,
0000
0010
1000
1001
,
0100
0001
0010
1000
,
0200
0300
0000
0101
,
0100
1000
0010
1010
,
0100
0100
0001
0110
,
0000
1000
0001
0110
,
2002
0000
3003
0100
,
0000
0010
0000
0010
,
1000
0100
0010
0001
,
0000
0001
0100
0010
,
0010
0100
0001
1000
,
1000
0010
0000
0001
,
0100
0010
0000
1000
,
0100
1000
0100
0010
,
0001
0000
0010
0010
0000
0000
0000
0000
;

//---------------dance-single - ----------------
#NOTEDATA:;
#CHARTNAME:;
#STEPSTYPE:dance-single;
#DESCRIPTION:;
#CHARTSTYLE:;
#DIFFICULTY:Medium;
#METER:9;
#RADARVALUES:0.398994,0.475207,0.331917,0.161911,0.008096,345.000000,304.000000,41.000000,20.000000,0.000000,0.000000,0.000000,0.000000,0.000000,0.398994,0.475207,0.331917,0.161911,0.008096,345.000000,304.000000,41.000000,20.000000,0.000000,0.000000,0.000000,0.000000,0.000000;
#CREDIT:;
#NOTES:
0000
0000
0000
0000
,
0000
0000
0000
0000
,
0000
0000
0000
0000
,
0000
0000
0000
0000
,
0000
0000
0010
0110
,
1000
0000
0100
0000
0010
0001
0010
0000
,
0100
0000
0100
0020
,
0030
0000
1000
0000
0010
0200
0000
0000
,
0000
0300
0000
0110
,
1000
0010
1000
0000
0010
0000
0001
0000
,
0100
1000
0100
0110
,
0001
1000
0001
0000
0010
0000
1000
0000
,
1000
0200
0000
0000
0310
0000
0110
0000
,
0001
0100
1000
0000
0010
0000
0100
0000
,
0010
0001
0100
0010
,
0000
0000
0100
0010
0100
0000
1001
0000
,
0220
0000
0000
0000
0330
0000
0010
0001
,
0010
0000
1000
0100
0010
0000
0001
0001
,
0100
0000
0010
0010
1000
0000
0100
1000
,
0100
0000
0010
0001
0100
0000
0101
0000
,
0110
1010
1100
0001
,
0100
0000
0010
0000
1000
0000
0100
0010
,
0001
0000
0100
0100
0010
0000
1000
0001
,
1000
0001
1000
0000
0100
0000
0010
0100
,
0010
0100
0010
0000
0100
0000
0110
0000
,
1000
0100
0010
0000
0001
0010
0100
0000
,
1000
1000
0001
0000
0010
0000
0110
0000
,
0001
0000
0010
1000
0100
0000
1010
0000
,
1001
1100
0101
0110
,
1000
0000
0100
0000
0010
0000
1000
0100
,
0010
0000
0001
0010
0100
0000
0010
0010
,
0001
0000
1000
1000
0100
0000
0010
0001
,
0100
1000
0100
0020
,
0000
2030
0000
3010
,
0100
0000
0000
0000
0100
0000
0000
0001
0000
0000
0001
0000
0002
0000
0000
0000
,
0000
0203
0000
0320
,
0000
0000
0000
0000
0130
0000
0000
1000
0000
0000
1000
0000
2000
0000
0000
0000
,
0000
3020
0000
0230
,
0000
0301
0010
0110
,
0000
0010
0000
0020
,
0000
0000
0030
0110
,
0001
0010
0100
0000
1000
0100
0010
0000
,
0001
0100
0100
0001
,
1000
0000
0001
1000
0001
0000
1010
0000
,
0100
1100
0001
0011
,
1010
1100
0101
0020
,
0130
0000
0001
0000
0100
0000
0010
1000
,
0100
1000
0100
0000
1000
0000
0010
0100
,
0001
0100
0001
0000
0100
0000
0110
0000
,
0000
0000
0001
0110
,
0001
0010
0100
0000
1000
0100
0010
0000
,
0001
0010
1000
0110
,
1000
0001
0100
0000
0010
0010
0100
0000
,
0010
1000
0010
0110
,
0001
1000
0100
0000
0010
0001
0100
0000
,
0010
1000
0001
0200
,
0310
0000
0001
0000
0100
0020
0000
0000
,
0000
0030
0001
0011
,
0100
0010
1000
0000
0100
0000
0010
0000
,
0001
0100
0010
1010
,
0001
0100
0010
0000
0001
0000
0100
0000
,
0010
2000
0000
0000
3100
0000
1100
0000
,
0001
0000
0100
0000
0010
1000
0001
0000
,
0100
0010
0100
0101
,
0000
1100
0000
0110
,
2002
0000
0000
0000
3003
0000
0100
0010
,
0100
0000
0001
0010
0100
0000
0010
1000
,
0001
1000
0001
0000
0100
0000
0001
1000
,
0100
0000
0010
0001
0100
0000
0110
0000
,
1010
0000
1001
0000
0101
0000
0100
0010
,
1000
0000
0100
0001
0010
0000
1000
0000
,
0010
1000
0010
0000
0100
0000
1000
0001
,
1000
0001
0100
0000
0010
0000
0100
0001
,
0100
0000
0010
0110
0000
0000
0000
0000
;

//---------------dance-single - ----------------
#NOTEDATA:;
#CHARTNAME:;
#STEPSTYPE:dance-single;
#DESCRIPTION:;
#CHARTSTYLE:;
#DIFFICULTY:Hard;
#METER:13;
#RADARVALUES:0.570156,0.653967,0.372394,0.097146,0.437158,493.000000,447.000000,46.000000,12.000000,0.000000,0.000000,0.000000,0.000000,0.000000,0.570156,0.653967,0.372394,0.097146,0.437158,493.000000,447.000000,46.000000,12.000000,0.000000,0.000000,0.000000,0.000000,0.000000;
#CREDIT:;
#NOTES:
0000
0000
0000
0000
,
0000
0000
0000
0000
,
0000
0000
0000
0000
,
0000
0000
0000
0000
,
0000
0000
0000
0000
0000
0000
0010
0000
0100
0000
0010
0000
0110
0000
0000
1000
,
0001
1000
0000
0001
0000
0000
0010
0000
1000
0000
0100
0000
0010
0000
0000
0001
,
0000
0100
0000
0000
0100
0000
0101
0000
,
0000
0000
0001
0000
0010
0000
0000
0001
0000
0000
0200
0000
0000
0000
0000
0000
,
0000
0000
0300
0000
0000
0000
0010
0000
0100
0000
0010
0000
0110
0000
0000
1000
,
0100
1000
0000
0100
0000
0000
0010
0000
0001
0000
0010
0000
0001
0000
0000
0100
,
0000
0000
0010
0000
0000
0000
0100
0000
0001
0000
0100
0000
0110
0000
0000
0001
,
0010
0001
0000
0100
0000
0000
0010
0000
1000
0000
0100
0000
0010
0000
0000
0100
,
0000
0000
0020
0000
0000
0000
0130
0000
1000
0000
0010
0000
0110
0000
0000
0100
,
0010
0100
0000
0010
0000
0000
0001
0000
0100
0000
0010
0000
0100
0000
0000
1000
,
0000
0100
0000
0010
1000
0000
1010
0000
,
0001
0011
1100
0110
,
2002
0000
0000
0000
3003
0000
0100
1000
,
0100
0000
0010
0000
0000
0010
0000
0010
0000
0000
0001
0000
0010
0000
0100
1000
,
0100
1000
0000
0100
0000
0000
0010
0000
0100
0000
0100
0000
0001
0000
0010
0000
,
0001
0000
0100
0000
0000
1000
0000
1000
0000
0000
0100
0000
1010
0000
0000
0000
,
0101
0000
0011
0000
1010
0000
0001
1000
,
0100
0000
1000
0000
0000
0100
0000
0100
0000
0000
0010
0000
0001
0000
0100
0001
,
0100
0001
0000
0100
0000
0000
1000
0000
0010
0000
0100
0000
0010
0000
1000
0001
,
1000
0001
1000
0000
0010
0000
0100
0000
1000
0000
0010
0000
0001
0000
0010
0100
,
0010
0100
0010
0000
0100
0000
0100
0000
0001
0000
0100
0000
0110
0000
0001
0000
,
0010
0000
0001
0000
0000
0010
0000
0100
0000
0000
1000
0000
0000
0000
0100
0000
,
0001
1000
0010
1000
0000
0100
0001
0000
0100
0000
0010
0000
0110
0000
0100
0000
,
1000
0000
0100
0000
0000
0001
0000
0010
0000
0000
1000
0000
0101
0000
0000
0000
,
0110
0000
1010
0000
0011
0000
0110
0010
,
0001
0000
0100
0000
0000
0010
0000
1000
0000
0000
0000
0000
0100
0000
0010
0000
,
0010
0100
0000
0001
0000
0001
0010
0000
1000
0000
0000
0000
0001
0000
0100
0001
,
1000
0001
0100
0000
0010
0000
1000
0000
0001
0000
1000
0000
0010
0000
0100
0010
,
0100
0001
0100
0010
0100
0001
0100
0000
0010
0000
0000
0000
0100
0000
0000
0000
,
0010
0000
1000
0010
0000
0100
0000
0010
,
0000
0000
1000
0000
0100
0000
0000
0010
0000
0000
0001
0000
0100
0000
0000
0000
,
0010
0000
0001
0100
0000
0001
0000
0100
,
0000
0000
0010
0000
0001
0000
0000
0010
0000
0000
0100
0000
1000
0000
0000
0000
,
0010
0000
0001
0100
0000
0010
0000
0100
,
0000
0000
1000
0000
0100
0000
0000
0010
0000
0000
0001
0000
0010
0000
1000
0000
,
0100
1000
0010
0100
0001
0000
0011
0000
,
0100
0110
1000
2010
,
3010
0000
0010
0100
0001
0100
0002
0000
,
0103
0020
0000
0130
0100
0000
0010
0000
,
0100
0000
0010
0001
0100
1000
1100
0000
,
0001
0011
0000
0000
0010
0000
2000
0000
,
3100
0001
0010
0010
0100
1000
1010
0000
,
0100
0000
0101
0000
0000
0000
0000
0000
0100
0000
0000
0000
0010
0000
1000
0001
,
1000
0000
0000
0100
0000
1000
0000
0010
0000
0000
0100
0000
0010
0000
0001
1000
,
0001
0000
0000
0100
0000
0001
0000
0010
0000
0000
0100
0000
0110
0000
0000
0000
,
0000
0000
0000
0000
0000
0000
0100
0000
0010
0000
0100
0000
0110
0000
0000
0001
,
1000
0001
0000
0010
0000
0000
1000
0000
0001
0000
1000
0000
0100
0000
0000
0001
,
0000
0000
0100
0000
0000
0000
0010
0000
1000
0000
0100
0000
1010
0000
0000
0010
,
1000
0010
0000
0100
0000
0000
0010
0000
0100
0000
0001
0000
0011
0000
0000
1010
,
0000
0000
1100
0000
0000
0000
0001
0000
0100
0000
0010
0000
0110
0000
0000
0001
,
0100
0001
0000
0100
0000
0000
0001
0000
1000
0000
0100
0000
0010
0000
0000
0001
,
0000
0010
0000
0000
1000
0000
0002
0000
,
0000
0000
0103
0000
0010
0000
0000
0100
0000
0000
0020
0000
0000
0000
0000
0000
,
0130
0000
0000
0000
0100
0000
0000
0000
0010
0000
1000
0000
1001
0000
0000
0010
,
1000
0100
0000
0010
0000
0000
0001
0000
0010
0000
0100
0000
1000
0000
0000
0100
,
0000
0000
0010
0000
0000
0000
0100
0000
0001
0000
0010
0000
0101
0000
0000
1000
,
0001
0100
0000
0010
0000
0000
0001
0000
0010
0000
1000
0000
0100
0000
0000
0010
,
0000
0000
1000
0000
0000
0000
0010
0000
0100
0000
0001
0000
1010
0000
0000
0100
,
0001
0010
0000
0001
0000
0000
0010
0000
0100
0000
1000
0000
0100
0000
0000
0001
,
0000
0000
0010
0000
0000
0000
0100
0000
1000
0000
0001
0000
0100
0000
0000
0100
,
0000
0010
0100
0001
0100
0000
1001
0000
,
0220
0000
0000
0000
0330
0000
0100
0010
,
1000
0000
0001
0000
0000
1000
0000
1000
0000
0000
0100
0000
0000
0000
0010
0001
,
0010
0001
0000
0100
0000
0010
0100
0000
0001
0000
1000
0000
0010
0000
0100
0000
,
0100
0000
0001
0000
0000
0010
0000
0010
0000
0000
0001
0000
0110
0000
0000
0000
,
0101
0000
1100
0001
1010
0000
0100
0001
,
0100
0000
0010
0000
0000
0100
0000
0100
0000
0000
0000
0000
0010
0000
0010
0100
,
0001
0000
0000
0010
0000
0100
0010
0000
1000
0000
0001
0000
1000
0000
0100
1000
,
0100
1000
0100
1000
0010
0000
1000
0000
0001
0000
1000
0000
0010
0100
0000
0010
,
0000
0010
0000
0000
0110
0000
0000
0110
0000
0000
0000
0000
0000
0000
0000
0000
;

//---------------dance-double - ----------------
#NOTEDATA:;
#CHARTNAME:;
#STEPSTYPE:dance-double;
#DESCRIPTION:;
#CHARTSTYLE:;
#DIFFICULTY:Easy;
#METER:6;
#RADARVALUES:0.285656,0.356406,0.242866,0.137624,0.000000,247.000000,217.000000,30.000000,17.000000,0.000000,0.000000,0.000000,0.000000,0.000000,0.285656,0.356406,0.242866,0.137624,0.000000,247.000000,217.000000,30.000000,17.000000,0.000000,0.000000,0.000000,0.000000,0.000000;
#CREDIT:;
#NOTES:
00000000
00000000
00000000
00000000
,
00000000
00000000
00000000
00000000
,
00000000
00000000
00000000
00000000
,
00000000
00000000
00000000
00000000
,
00000000
00000000
00000010
00000110
,
00000000
00001000
00000100
00010000
,
00000000
00010000
00100000
02000000
,
03000000
10000000
00200000
00000000
,
00300000
00000000
00010000
00011000
,
00000100
00001000
00000010
00000010
,
00000000
00000000
00000100
00000110
,
00000001
00000100
00001000
00010000
,
01000000
00000000
00100000
01100000
,
00010000
01000000
10000000
00100000
,
00000000
00010000
00001000
00000200
,
00000300
00001000
00000100
00000110
,
00002002
00000000
00003003
00000100
,
00001000
00001000
00010000
00100000
,
00010000
01000000
00000000
00100000
,
00010000
00010000
00000000
00110000
,
00011000
00000100
00001100
00000000
,
00000010
00000010
00000000
00000100
,
00000001
00000100
00000000
00001000
,
00010000
01000000
10000000
00100000
,
00010000
00001000
00000010
00000110
,
00000000
00000100
00001000
00000010
,
00000001
00000100
00001000
00011000
,
00000000
00100000
00001000
00101000
,
00010000
00110000
01000000
01100000
,
00000000
00010000
00010000
00001000
,
00000010
00000100
00000000
00000002
,
00000003
00000200
00000300
00002000
,
00003000
00020000
00030000
00000000
,
00100000
01000000
00000000
10000000
,
00000000
00000000
00010000
00000000
00000000
00001000
00001000
00000000
,
00000100
00001000
00000000
00000010
,
00000000
00000000
00000100
00000000
00000000
00000001
00000001
00000000
,
00000010
00000010
00000000
00000100
,
00001000
00000000
00010000
00000000
00000000
01000000
01000000
00000000
,
00000000
00100000
00000000
02000000
,
00000000
03000000
00010000
00010100
,
00001000
00000100
00000010
00000020
,
00000130
00000000
00000100
00000000
,
00000001
00000100
00000010
00002000
,
00013000
00000000
00001000
00101000
,
00010000
01000000
10000000
00200000
,
01300000
00000000
00010000
00001000
,
00000010
00001000
00001000
00000001
,
00000010
00001000
00001000
00001001
,
00000000
00000000
00001000
00000110
,
00000100
00001000
00010000
00001000
,
00000000
00000000
00010000
01100000
,
10000000
01000000
10000000
00100000
,
00010000
00000000
00001000
00000110
,
00000001
00000100
00000100
00000010
,
00000000
00001000
00010000
02000000
,
03000000
10000000
00200000
00000000
,
00300000
00000000
00010000
00011000
,
00000100
00001000
00000010
00000100
,
00000001
00000000
00000100
00000110
,
00001000
00000100
00010000
00001000
,
00100000
00000000
00100000
01100000
,
01000000
10000000
01000000
10000000
,
00000000
00100000
00010000
00011000
,
00000000
00001000
00010000
10010000
,
02200000
00000000
03300000
00010000
,
00010000
00001000
00001000
00000100
,
00001000
00000010
00000000
00000100
,
00000100
00000010
00000000
00001010
,
00011000
00010000
00110000
00100000
,
01000000
10000000
00000000
00100000
,
00100000
00010000
00000000
00001000
,
00000100
00000001
00000010
00000100
,
00001000
00000000
00010000
00011000
00000000
00000000
00000000
00000000
;

//---------------dance-double - ----------------
#NOTEDATA:;
#CHARTNAME:;
#STEPSTYPE:dance-double;
#DESCRIPTION:;
#CHARTSTYLE:;
#DIFFICULTY:Medium;
#METER:10;
#RADARVALUES:0.404776,0.475207,0.348108,0.121433,0.000000,350.000000,307.000000,43.000000,15.000000,0.000000,0.000000,0.000000,0.000000,0.000000,0.404776,0.475207,0.348108,0.121433,0.000000,350.000000,307.000000,43.000000,15.000000,0.000000,0.000000,0.000000,0.000000,0.000000;
#CREDIT:;
#NOTES:
// measure 0
00000000
00000000
00000000
00000000
,  // measure 1
00000000
00000000
00000000
00000000
,  // measure 2
00000000
00000000
00000000
00000000
,  // measure 3
00000000
00000000
00000000
00000000
,  // measure 4
00000000
00000000
00000000
00001000
00001000
00000000
00011000
00000000
,  // measure 5
00100000
00010000
01000000
10000000
,  // measure 6
00000000
00100000
00010000
00002000
,  // measure 7
00003000
00000010
00000100
00000000
00000100
00000002
00000000
00000000
,  // measure 8
00000000
00000003
00000000
00000010
00000010
00000000
00000110
00000000
,  // measure 9
00001000
00000100
00010000
00001000
,  // measure 10
00100000
00000000
00000000
01000000
01000000
00000000
01100000
00000000
,  // measure 11
00010000
01000000
10000000
00100000
,  // measure 12
00010000
00000000
00000000
00000010
00000010
00000000
00000110
00000000
,  // measure 13
00000001
00000000
00000100
00000000
00000010
00000000
00001000
00001000
,  // measure 14
00000000
00000100
00001000
00011000
,  // measure 15
00000000
00110000
00100000
10010000
,  // measure 16
02200000
00000000
00000000
00000000
03300000
00000000
00010000
00100000
,  // measure 17
00001000
00000000
00010000
00001000
00000100
00000000
00001000
00001000
,  // measure 18
00000010
00000000
00000100
00000100
00000001
00000000
00000010
00000100
,  // measure 19
00000010
00000000
00000100
00001000
00000000
00000000
00001100
00000000
,  // measure 20
00011000
00000000
00110000
00000000
01010000
00000000
00100000
01000000
,  // measure 21
10000000
00000000
00100000
00010000
00001000
00000000
00000000
00000100
,  // measure 22
00000010
00000010
00001000
00000000
00000001
00000000
00001000
00000100
,  // measure 23
00000010
00000000
00001000
00000000
00000100
00000000
00000001
00000010
,  // measure 24
00000100
00000000
00001000
00000100
00000100
00000000
00000110
00000000
,  // measure 25
00001000
00010000
00000000
01000000
10000000
00100000
00000000
01000000
,  // measure 26
00100000
00100000
00010000
00100000
00100000
00000000
01100000
00000000
,  // measure 27
00010000
00001000
00000000
00000100
00000010
00000000
00011000
00000000
,  // measure 28
00001100
00000110
00000011
00000110
,  // measure 29
00001000
00000000
00000100
00000010
00001000
00000000
00001000
00010000
,  // measure 30
00001000
00010000
00100000
20000000
,  // measure 31
31000000
00100000
00010000
00002000
,  // measure 32
00013000
00000100
00001000
00000000
,  // measure 33
00000010
00000000
00000010
00000010
00000000
00000100
00000000
00000001
,  // measure 34
00000000
00000100
00000000
00000010
00000000
00001000
00001000
00000000
,  // measure 35
00010000
00000000
00100000
00100000
00000000
10000000
00000000
01000000
,  // measure 36
00000000
00100000
00000000
00010000
00000000
01000000
01000000
00000000
,  // measure 37
00110000
10000000
01100000
00010000
,  // measure 38
00001000
00000000
00000100
00000000
00001000
00001000
00001000
00000000
,  // measure 39
00000010
00000001
00000100
00000120
,  // measure 40
00000000
00000030
00000100
00002000
,  // measure 41
00013000
00200000
01300000
00010000
,  // measure 42
01010000
10000000
00110000
00010000
,  // measure 43
00001000
00000000
00010000
00001000
00000100
00000000
00000110
00000000
,  // measure 44
00000001
00000100
00000010
00000200
,  // measure 45
00001300
00020000
00130000
01000000
,  // measure 46
10000000
00000000
01000000
00000000
00100000
00000000
00010000
00001000
,  // measure 47
00000100
00000000
00000100
00000000
00001000
00000000
00000100
00010000
,  // measure 48
00100000
00100000
00010000
00011000
,  // measure 49
00000000
00000000
00000000
00000010
00000010
00000000
00000110
00000000
,  // measure 50
00000001
00000100
00000010
00000000
00001000
00000000
00010000
00010000
,  // measure 51
00000000
00000000
00100000
01000000
01000000
00000000
01100000
00000000
,  // measure 52
10000000
00000000
01000000
00000000
00010000
00100000
00010000
00000000
,  // measure 53
00001000
00000000
00000100
00000010
00000010
00000000
00000110
00000000
,  // measure 54
00000001
00000000
00000100
00000000
00001000
00000000
00100000
00100000
,  // measure 55
00000000
00010000
00001000
00000020
,  // measure 56
00000030
00000100
00000001
00000000
00000010
00002000
00000000
00000000
,  // measure 57
00000000
00003000
00000000
00001000
00001000
00000000
00101000
00000000
,  // measure 58
00010000
00000000
00100000
00000000
10000000
00100000
10000000
00000000
,  // measure 59
01000000
00000000
00100000
00010000
00010000
00000000
00010100
00000000
,  // measure 60
00000010
00000100
00000001
00001000
,  // measure 61
00010000
00001000
00000000
00001000
00001000
00000000
00011000
00000000
,  // measure 62
00100000
01000000
10000000
00110000
,  // measure 63
00001000
00000100
00001000
00001010
,  // measure 64
00000000
00011000
00001000
00000110
,  // measure 65
00002002
00000000
00000000
00000000
00003003
00000000
00001000
00000100
,  // measure 66
00001000
00000000
00000100
00001000
00010000
00000000
00100000
01000000
,  // measure 67
10000000
00000000
00010000
00010000
00100000
00000000
00010000
00001000
,  // measure 68
00000100
00000000
00000010
00000100
00000100
00000000
00001010
00000000
,  // measure 69
00001100
00011000
00101000
00010000
,  // measure 70
01000000
10000000
00000000
00100000
00010000
00000000
00001000
00000000
,  // measure 71
00010000
00010000
00001000
00000000
00001000
00000000
00000100
00000010
,  // measure 72
00000001
00000010
00000100
00000000
00001000
00000000
00010000
00100000
,  // measure 73
01000000
00000000
00011000
00011000
00000000
00000000
00000000
00000000
;

//---------------dance-double - ----------------
#NOTEDATA:;
#CHARTNAME:;
#STEPSTYPE:dance-double;
#DESCRIPTION:;
#CHARTSTYLE:;
#DIFFICULTY:Hard;
#METER:13;
#RADARVALUES:0.514644,0.564789,0.267152,0.121433,0.295487,445.000000,412.000000,33.000000,15.000000,0.000000,0.000000,0.000000,0.000000,0.000000,0.514644,0.564789,0.267152,0.121433,0.295487,445.000000,412.000000,33.000000,15.000000,0.000000,0.000000,0.000000,0.000000,0.000000;
#CREDIT:;
#NOTES:
00000000
00000000
00000000
00000000
,
00000000
00000000
00000000
00000000
,
00000000
00000000
00000000
00000000
,
00000000
00000000
00000000
00000000
,
00000000
00000000
00000000
00001000
00010000
00001000
00011000
00000000
,
00010000
00000000
00000000
00100000
00000000
00000000
00010000
00000000
00100000
00000000
01000000
00000000
10000000
00000000
00000000
00100000
,
00000000
00010000
00001000
00000200
,
00000000
00000000
00001300
00000000
00000010
00000000
00000000
00000100
00000000
00000000
00000020
00000000
00000000
00000000
00000000
00000000
,
00000000
00000030
00000000
00000001
00000100
00000010
00000110
00000000
,
00001000
00000000
00000000
00010000
00000000
00000000
00001000
00000000
00010000
00000000
00100000
00000000
00010000
00000000
00000000
01000000
,
00000000
10000000
00000000
01000000
00100000
01000000
01100000
00000000
,
00010000
00000000
00000000
00001000
00000000
00000000
00000100
00000000
00010000
00000000
00000010
00000000
00001000
00000000
00000000
00000100
,
00000000
00001100
00000000
00000010
00000100
00001000
00011000
00000000
,
00100000
00000000
00000000
00010000
00000000
00000000
01000000
00000000
10000000
00000000
00100000
00000000
00010000
00000000
00000000
00001000
,
00000000
00000000
00000100
00000000
00000000
00000000
00000010
00000000
00000001
00000000
00000000
00000000
00000100
00000000
00000000
00000100
,
00000000
00000010
00000100
00001000
00000001
00001000
00000110
00000000
,
00002002
00000000
00000000
00000000
00003003
00000000
00000010
00000100
,
00000010
00000000
00001000
00000000
00000000
00010000
00000000
00010000
00000000
00000000
00100000
00000000
00000000
00000000
01000000
00000000
,
10000000
00100000
00010000
00001000
00010000
00000100
00000000
00001000
,
00000100
00000000
00001000
00000000
00000000
00000010
00000000
00000010
00000000
00000000
00000100
00000000
00000110
00000000
00000000
00000000
,
00001010
00000000
00001000
00010000
00001000
00000000
00010000
00100000
,
00010000
00000000
00010000
00000000
00000000
01000000
00000000
10000000
00000000
00000000
00100000
00000000
00000000
00000000
00010000
00000000
,
00001000
00010000
00000000
00001000
00000000
00000000
00010000
00000000
00000100
00000000
00000000
00000000
00001000
00000000
00000100
00000000
,
00000010
00000001
00000010
00000100
00001000
00010000
00100000
00010000
,
01000000
10000000
00100000
00010000
00001000
00010000
00011000
00000100
,
00000010
00000000
00001000
00000000
00000000
00000010
00000000
00000010
00000000
00000000
00001000
00000000
00000000
00000000
00000100
00000000
,
00000010
00000001
00000010
00000000
00000100
00000000
00001000
00000000
00000010
00000000
00001000
00000000
00011000
00000000
00100000
00000000
,
00010000
00000000
01000000
00000000
00000000
00100000
00000000
00100000
00000000
00000000
00010000
00000000
00110000
00000000
00000000
00000000
,
00011000
00000000
00001000
00010000
00001000
00000000
00001010
00000100
,
00000010
00000000
00000001
00000000
00000000
00001000
00000000
00001000
00000000
00000000
00010000
00000000
00000000
00000000
00010000
00100000
,
00010000
01000000
00010000
00000000
00100000
00000000
01000000
00000000
00010000
00000000
00000000
00000000
00010000
00000000
01000000
00000000
,
10000000
00100000
00010000
00001000
00000100
00000001
00000010
00000100
,
00001000
00010000
00100000
00010000
01000000
00000000
00010000
00000000
,
00100000
00000000
00010000
01000000
00000000
10000000
00000000
00100000
,
00000000
00000000
00010000
00000000
00001000
00000000
00000000
00000100
00000000
00000000
00000010
00000000
00000001
00000000
00000000
00000000
,
00000100
00000000
00000010
00001000
00000000
00000100
00000000
00001000
,
00000000
00000000
00010000
00000000
00100000
00000000
00000000
01000000
00000000
00000000
10000000
00000000
01000000
00000000
00000000
00000000
,
10000000
00000000
00100000
00010000
00000000
00001000
00000000
00010000
,
00000000
00000000
00001000
00000000
00000100
00000000
00000000
00000010
00000000
00000000
00000001
00000000
00000100
00000000
00000000
00000000
,
00000010
00001000
00000000
00000100
00001000
00000000
00020000
00000000
,
00031000
00010000
00011000
00201000
,
00310000
00000000
10000000
00010000
01000000
00100000
00020000
00000000
,
00031000
00010000
00000000
00000100
00000010
00000000
00001000
00000000
,
00000010
00000100
00000001
00000010
00000100
00001000
00001020
00000000
,
00001030
00000100
00000000
00000000
00001000
00000000
00102000
00000000
,
00103000
00000000
00010000
01000000
10000000
00100000
00010000
00000000
,
00001000
00010000
00000000
00000100
00001000
00000000
00000010
00001000
,
00000100
00000000
00000000
00000001
00000000
00000100
00000000
00000010
00000000
00000000
00001000
00000000
00000000
00000000
00010000
00000000
,
00100000
00000000
00000000
01000000
00000000
10000000
00000000
00100000
00000000
00000000
01000000
00000000
01100000
00000000
00000000
00000000
,
00000000
00000000
00000000
00010000
00001000
00010000
00011000
00000000
,
00010000
00000100
00000000
00010000
00000000
00000000
00001000
00000000
00000100
00000000
00001000
00000000
00000010
00000000
00000000
00001000
,
00000000
00000000
00000100
00000000
00000000
00000000
00000001
00000000
00000100
00000000
00000010
00000000
00000110
00000000
00000000
00001000
,
00000010
00000000
00000000
00001000
00000000
00000000
00000100
00000000
00001000
00000000
00010000
00000000
00100000
00000000
00000000
00100000
,
00000000
02000000
00000000
03010000
00100000
01000000
01100000
00000000
,
10000000
00010000
00000000
10000000
00000000
00000000
00010000
00000000
00100000
00000000
00010000
00000000
00001000
00000000
00000000
00000100
,
00000000
00000010
00000000
00000000
00000200
00000000
00000320
00000000
,
00000030
00000000
00001000
00000000
00000100
00000000
00000000
00000001
00000000
00000000
00000100
00000000
00002000
00000000
00000000
00000000
,
00013000
00000000
00000000
00000000
01000000
00000000
00100000
00000000
00010000
00000000
00100000
00000000
00101000
00000000
00000000
01000000
,
00010000
00000000
00000000
01000000
00000000
00000000
00100000
00000000
01000000
00000000
10000000
00000000
00010000
00000000
00000000
00010000
,
00000000
00000000
00001000
00000000
00000000
00000000
00001000
00000000
00000100
00000000
00010000
00000000
00010010
00000000
00000000
00000010
,
00001000
00000000
00000000
00000010
00000000
00000000
00000100
00000000
00000010
00000000
00000100
00000000
00000001
00000000
00000000
00000001
,
00000000
00000000
00000011
00000000
00000000
00000000
00000100
00000000
00001000
00000000
00100000
00000000
00101000
00000000
00000000
01000000
,
00010000
00000000
00000000
01000000
00000000
00000000
00100000
00000000
00010000
00000000
01000000
00000000
00010000
00000000
00000000
10000000
,
00000000
00000000
10000000
00000000
00000000
00000000
00010000
00000000
00100000
00000000
00000000
00000000
00001000
00000000
00000000
00001000
,
00000000
00010000
00100000
10000000
00100000
01000000
10010000
00000000
,
02200000
00000000
00000000
00000000
03300000
00000000
00010000
00001000
,
00000100
00000000
00000010
00000000
00000000
00001000
00000000
00000100
00000000
00000000
00000001
00000000
00000000
00000100
00000000
00000000
,
00000010
00001000
00000100
00001000
00000000
00000000
00000100
00000000
00010000
00000000
00000100
00000000
00000000
00010000
00000000
00100000
,
00000000
00000000
00010000
00000000
00000000
01000000
00000000
10000000
00000000
00000000
01000000
00000000
00110000
00000000
00000000
00000000
,
00011000
00000000
00001100
00000010
00001000
00000010
00000000
00001000
,
00000010
00000000
00000010
00000000
00000000
00000100
00000000
00000001
00000000
00000000
00000100
00000000
00000000
00000010
00000000
00001000
,
00000010
00000100
00000000
00001000
00010000
00000000
00001000
00100000
,
00010000
00000000
00100000
00000000
01000000
00000000
10000000
00000000
00100000
00000000
00000000
00000000
00010000
00001000
00000000
00000100
,
00000000
00001000
00000000
00000000
00011000
00000000
00000000
00011000
00000000
00000000
00000000
00000000
00000000
00000000
00000000
00000000
;
