#VERSION:0.83;
#TITLE:オトカドール ~このゆびとまれ~;
#SUBTITLE:;
#ARTIST:NU-KO;
#TITLETRANSLIT:Otoca d'or ~kono yubi tomare~;
#SUBTITLETRANSLIT:;
#ARTISTTRANSLIT:NU-KO;
#GENRE:GAME SOUNDTRACK;
#ORIGIN:;
#CREDIT:SAIKIO;
#BANNER:Otoca d'or ~kono yubi tomare~-banner.png;
#BACKGROUND:bg.png;
#PREVIEWVID:;
#JACKET:Otoca d'or ~kono yubi tomare~-jacket.png;
#CDIMAGE:;
#DISCIMAGE:;
#LYRICSPATH:;
#CDTITLE:otocador.png;
#MUSIC:Otoca d'or ~kono yubi tomare~.ogg;
#OFFSET:-0.016000;
#SAMPLESTART:94.064102;
#SAMPLELENGTH:12.760027;
#SELECTABLE:YES;
#BPMS:0.000=146.000;
#STOPS:;
#DELAYS:;
#WARPS:;
#TIMESIGNATURES:0.000=4=4;
#TICKCOUNTS:0.000=4;
#COMBOS:0.000=1;
#SPEEDS:0.000=1.000=0.000=0;
#SCROLLS:0.000=1.000;
#FAKES:;
#LABELS:0.000=Song Start;
#BGCHANGES:-1.000=Otoca d'or ~kono yubi tomare~.avi=1.000=0=0=0=StretchNoLoop====,
99999=-nosongbg-=1.000=0=0=0 // don't automatically add -songbackground-
;
#KEYSOUNDS:;
#ATTACKS:
;

//---------------dance-single - ----------------
#NOTEDATA:;
#CHARTNAME:;
#STEPSTYPE:dance-single;
#DESCRIPTION:;
#CHARTSTYLE:;
#DIFFICULTY:Beginner;
#METER:1;
#RADARVALUES:0.101279,0.171785,0.000000,0.000000,0.000000,91.000000,91.000000,0.000000,0.000000,0.000000,0.000000,0.000000,0.000000,0.000000,0.101279,0.171785,0.000000,0.000000,0.000000,91.000000,91.000000,0.000000,0.000000,0.000000,0.000000,0.000000,0.000000,0.000000;
#CREDIT:;
#NOTES:
0000
0000
0000
0000
,
0000
0000
0000
0000
,
0000
0000
0000
0000
,
0000
0000
0000
0000
,
0000
0000
0000
0000
,
0000
0000
0000
0010
,
0000
0000
0000
0010
,
0000
0000
0000
0100
,
0000
0000
0000
0100
,
0000
0000
0000
1000
,
0000
0000
0000
1000
,
0000
0000
0000
0001
,
0000
0000
0000
0001
,
0000
0000
0000
0100
,
0000
0000
0000
0100
,
0000
0000
0000
0010
,
0000
0000
0000
0010
,
0000
0000
0000
1000
,
0000
0000
0000
0100
,
0000
0000
0000
0001
,
0000
0000
0000
0100
,
0000
0000
0000
1000
,
0000
0000
0000
0000
,
0010
0010
0010
0000
,
0000
0000
0000
0010
,
0000
0000
0000
0001
,
0000
0000
0000
0100
,
0000
0000
0000
1000
,
0000
0000
0000
0010
,
0000
0000
0000
0001
,
0000
0000
0000
0100
,
0000
0000
0000
0010
,
0000
0000
0000
1000
,
0000
0000
0100
0100
,
0000
0000
0000
0010
,
0000
0000
0000
0001
,
0000
0000
0000
1000
,
0000
0000
0000
0100
,
0000
0000
0000
0010
,
0000
0000
0000
0001
,
0000
0000
0000
0010
,
0000
0010
0000
1000
,
1000
0000
1000
0000
,
0000
0000
0000
0010
,
0010
0000
0010
0000
,
0000
0000
0000
0010
,
0000
0100
0000
0100
,
0000
0000
0000
1000
,
0000
1000
0000
0100
,
0000
0100
0000
0010
,
0010
0000
1000
0000
,
0000
0000
0000
0001
,
0001
0000
0100
0000
,
0000
0000
0000
0010
,
0000
0000
1000
0000
,
0000
0100
0100
0000
,
0000
0000
0000
0010
,
0000
0000
0000
0001
,
0000
1000
0000
0001
,
0000
0000
0000
0010
,
0000
1000
0000
0010
,
0000
0000
0000
0100
,
0100
0000
0001
0001
,
0000
0100
0000
1000
,
0000
0000
0000
0100
,
0000
0000
0000
0010
,
0000
0001
0000
0010
,
0000
0000
0000
1000
,
0000
0001
0000
1000
,
0000
0000
0000
0010
,
0010
0000
1000
1000
,
0000
0000
0100
0000
,
0100
0000
0100
0000
,
0100
0000
0010
0000
;

//---------------dance-single - ----------------
#NOTEDATA:;
#CHARTNAME:;
#STEPSTYPE:dance-single;
#DESCRIPTION:;
#CHARTSTYLE:;
#DIFFICULTY:Easy;
#METER:3;
#RADARVALUES:0.164718,0.200416,0.007791,0.054535,0.000000,148.000000,147.000000,1.000000,7.000000,0.000000,0.000000,0.000000,0.000000,0.000000,0.164718,0.200416,0.007791,0.054535,0.000000,148.000000,147.000000,1.000000,7.000000,0.000000,0.000000,0.000000,0.000000,0.000000;
#CREDIT:;
#NOTES:
0000
0000
0000
0000
,
0000
0000
0000
0000
,
0000
0000
0000
0000
,
0000
0000
0000
0000
,
0000
0000
0000
0000
,
0000
0000
0000
0010
,
0000
0010
0000
0100
,
0000
0100
0000
0001
,
0000
0001
0000
2000
,
0000
0000
3000
0010
,
0000
0010
0000
0100
,
0000
0100
0000
0001
,
0000
0001
0000
1000
,
0000
1000
0000
0010
,
0010
0000
0100
0000
,
0001
0000
0010
0100
,
0100
0000
0010
0000
,
0100
0000
0010
0001
,
0000
0100
0000
1000
,
0000
0010
0000
0001
,
0000
0100
0000
1000
,
0000
0010
0010
1000
,
0000
0001
0000
0100
,
0100
0000
0100
0000
,
0000
0000
0001
0000
,
0100
0000
0000
0010
,
0000
1000
0000
1000
,
0000
0100
0000
0010
,
0000
0010
0000
0001
,
0000
0010
0100
0000
,
0010
0000
1000
0000
,
0010
0010
0001
0000
,
0100
0000
1000
0000
,
0010
0000
0100
0100
,
0000
0001
0000
1000
,
0000
0100
0000
0010
,
0000
0001
0000
0100
,
0000
1000
0000
1000
,
0000
0100
0000
0010
,
0000
0001
0000
0001
,
0000
0010
0000
0200
,
0000
0300
0100
0010
,
0000
0010
0000
0001
,
0000
0001
0001
1000
,
0000
1000
0000
0001
,
0000
0100
0000
0001
,
0000
0010
0100
0000
,
1000
1000
0000
0001
,
0000
0010
0000
0100
,
0000
1000
0000
0100
,
0000
0010
0000
0001
,
0000
0010
0000
0100
,
0000
1000
0000
0100
,
0000
1000
1000
2000
,
0000
0000
3000
0000
,
0010
0010
0010
0000
,
0000
0000
0000
0001
,
0000
0100
0010
0200
,
0000
0310
0000
0001
,
0000
1000
0100
1000
,
0000
0010
0000
0100
,
0010
0010
0000
0001
,
0100
0000
1000
0010
,
0000
0001
0100
0020
,
0000
0130
0000
0010
,
0000
1000
0001
2000
,
0000
3001
0000
0100
,
0000
0010
1000
0100
,
0000
0010
0000
0001
,
0001
0000
0010
0100
,
1000
0000
0010
0001
,
0000
0100
0020
0000
,
0000
0000
0000
0000
,
0000
0030
0110
0000
;

//---------------dance-single - ----------------
#NOTEDATA:;
#CHARTNAME:;
#STEPSTYPE:dance-single;
#DESCRIPTION:;
#CHARTSTYLE:;
#DIFFICULTY:Medium;
#METER:6;
#RADARVALUES:0.252642,0.258116,0.007791,0.202558,0.000000,227.000000,226.000000,1.000000,26.000000,0.000000,0.000000,0.000000,0.000000,0.000000,0.252642,0.258116,0.007791,0.202558,0.000000,227.000000,226.000000,1.000000,26.000000,0.000000,0.000000,0.000000,0.000000,0.000000;
#CREDIT:;
#NOTES:
0000
0000
0000
0000
,
0000
0000
0000
0000
,
0000
0000
0000
0000
,
0000
0000
0000
0000
,
0000
0000
0000
0000
,
0000
0000
0000
0010
,
0010
0100
0100
0001
,
0001
1000
1000
0002
,
0003
2000
3000
0010
,
0100
0020
0030
0100
,
0100
0010
1000
0000
,
0100
0000
0010
0010
,
0001
0001
0100
0000
,
0010
0000
1000
0001
,
0100
0010
1000
0000
,
0100
0100
1000
0100
,
0010
0001
0100
1000
,
0000
0010
0100
0002
,
0103
2000
3010
0010
,
0100
0001
0100
0020
,
1030
0200
0301
0001
,
1000
0100
0100
2000
,
0000
0000
0000
0000
0000
3000
0000
0000
,
0010
0000
0100
0000
0010
0010
0000
0000
,
0000
0000
0010
0200
,
0000
0000
0000
0300
0000
0000
0010
0000
,
0001
0100
0000
0010
,
1000
0100
1000
0000
,
0010
0000
0100
0000
,
0001
0000
0010
0010
,
0001
0000
0100
0100
,
0010
1000
0100
0000
,
0001
0100
0010
0000
,
0100
0010
1000
1001
,
0000
0001
0010
1000
,
1000
0000
0010
0000
0100
0100
0000
0000
,
0010
0001
0100
0000
,
1000
0100
0001
0010
,
0000
0100
1000
0001
,
0000
0010
0001
0200
,
0300
0000
0010
2000
,
3001
0002
1003
0010
,
1000
0100
0010
0002
,
0100
0103
0010
1000
,
0100
1000
0010
2000
,
0010
3010
0100
0001
,
0010
0000
0100
0000
1000
1000
0000
0000
,
0010
0100
0001
0200
,
0310
0002
0103
2000
,
3100
0010
0001
0100
,
0100
0010
0001
0200
,
0300
0010
0001
1000
,
0100
1000
0020
0030
,
0000
0100
0010
2000
,
3000
0010
0000
0001
,
0100
0000
1000
0000
0010
0010
0000
0000
,
0000
0000
0001
0200
,
0300
0010
1000
0002
,
0010
0103
0000
1000
,
0010
0000
0001
0000
0100
0100
0100
0000
,
1000
0010
0000
0100
,
0010
1000
0001
1000
,
1000
0001
0000
0000
0001
0000
0001
1000
,
0000
0100
0010
0200
,
0300
0020
0030
0100
,
0001
1000
0010
2000
,
0001
3010
0000
0100
,
0010
1000
0100
1000
,
0000
0010
0010
0000
0000
0000
0100
0000
,
0001
0001
0000
0000
0010
0000
0100
0000
,
0100
0010
0000
0000
0010
0000
0010
0100
,
0000
0001
1000
0200
,
0000
0010
0010
0010
,
0300
0000
0000
0010
0010
0010
0000
0000
;

//---------------dance-single - ----------------
#NOTEDATA:;
#CHARTNAME:;
#STEPSTYPE:dance-single;
#DESCRIPTION:;
#CHARTSTYLE:;
#DIFFICULTY:Hard;
#METER:9;
#RADARVALUES:0.313854,0.401514,0.046744,0.218140,0.000000,282.000000,276.000000,6.000000,28.000000,0.000000,0.000000,0.000000,0.000000,0.000000,0.313854,0.401514,0.046744,0.218140,0.000000,282.000000,276.000000,6.000000,28.000000,0.000000,0.000000,0.000000,0.000000,0.000000;
#CREDIT:;
#NOTES:
0000
0000
0000
0000
,
0000
0000
0000
0000
,
0000
0000
0000
0000
,
0000
0000
0000
0000
,
0000
0000
0000
0000
,
0000
0000
0000
0010
,
0010
0100
0001
1000
,
1000
0000
0100
0000
0010
0000
0001
0001
,
0100
0000
1000
1000
0100
0000
0010
0100
,
0010
0100
0020
0000
0030
0000
0100
0000
,
0100
0001
0000
0100
0000
0010
1000
0000
,
0100
0010
0001
0010
,
0010
1000
0000
0100
0000
0010
0001
0000
,
0010
0000
0100
0000
1000
1000
0100
0000
,
0010
0001
0000
0100
1000
0010
0000
0000
,
0100
0001
1000
0010
,
0010
1000
0000
0100
0000
0100
0000
0010
,
0001
0100
1000
0200
,
0310
0002
0103
1000
,
0010
1000
1000
0020
,
1030
2000
3001
0010
,
0100
0010
1000
2002
,
0000
0000
0000
0000
0000
3003
0000
0010
,
0100
0010
0100
0001
0100
0010
0000
0000
,
0000
0100
0100
0010
,
0000
1000
0001
0110
,
0000
1000
0100
1000
,
1000
0010
0000
0000
0100
0002
0000
0000
,
0010
0000
0103
0000
,
1000
0000
0000
0000
0100
0001
0000
0000
,
0100
0000
0010
0000
1000
0100
0000
0000
,
1000
0000
0010
0000
0100
0010
0000
0000
,
0001
0000
0010
0000
,
0100
0001
0101
1001
,
0000
0000
0010
0000
1000
0001
1000
0000
,
0100
0100
0000
1000
0010
0200
0000
0000
,
0001
0000
0310
0000
,
0100
0010
0001
0200
,
0300
0000
0000
0100
1000
0100
1000
0000
,
0000
0010
0000
0000
0010
0000
0100
0000
,
0100
0000
0001
0000
1000
0000
0010
1000
,
0001
0100
0010
1000
,
1000
0001
0000
0010
0000
0200
0000
0000
,
1300
0100
0001
0010
,
0010
0100
0000
0010
0000
2000
0000
0000
,
3001
0010
0100
0100
,
0010
1000
0000
0001
1000
0001
0000
0000
,
0100
0010
1000
0002
,
0103
0020
1030
0200
,
0301
2000
3010
0020
,
1000
0100
0001
0130
,
0000
0010
1000
0200
,
0001
0010
1000
0310
,
0000
0001
0100
0020
,
0100
0000
0030
0100
0010
0100
0000
0001
,
0100
0001
0100
0010
0100
0020
0000
0000
,
0000
0000
0030
0100
,
0000
0100
0010
1002
,
0000
0203
0000
0000
0000
0000
0300
0000
,
0010
0010
0000
0100
0001
0000
1000
0000
,
0100
0010
0001
0000
0100
0000
0010
0000
,
2000
0000
3010
0000
0001
0000
1000
0100
,
1000
0010
0000
0000
0010
0100
0001
0100
,
0000
0010
0010
0000
1000
0000
0002
0000
,
0010
0100
1003
0010
,
1000
0100
1000
1200
,
0000
0302
0000
0000
0000
0000
0003
0000
,
0100
0010
0000
1000
1000
0100
0020
0000
,
0030
0001
0100
0000
0010
0000
1000
0000
,
0001
1000
0000
0010
0010
0001
0100
0001
,
0100
0010
0000
0000
1000
0100
1000
0010
,
0000
0100
0100
0001
0000
0100
0020
0000
,
1000
0100
0001
0100
,
1030
0000
0000
0100
0010
0100
0000
0000
;

//---------------dance-double - ----------------
#NOTEDATA:;
#CHARTNAME:;
#STEPSTYPE:dance-double;
#DESCRIPTION:;
#CHARTSTYLE:;
#DIFFICULTY:Easy;
#METER:4;
#RADARVALUES:0.221479,0.268195,0.031163,0.093489,0.000000,199.000000,195.000000,4.000000,12.000000,0.000000,0.000000,0.000000,0.000000,0.000000,0.221479,0.268195,0.031163,0.093489,0.000000,199.000000,195.000000,4.000000,12.000000,0.000000,0.000000,0.000000,0.000000,0.000000;
#CREDIT:;
#NOTES:
00000000
00000000
00000000
00000000
,
00000000
00000000
00000000
00000000
,
00000000
00000000
00000000
00000000
,
00000000
00000000
00000000
00000000
,
00000000
00000000
00000000
00000000
,
00000000
00000000
00000000
00001000
,
00001000
00010000
00000000
00100000
,
00100000
01000000
00000000
10000000
,
10000000
01000000
00000000
00100000
,
00010000
00002000
00003000
00000100
,
00001000
00001000
00000100
00000000
,
00001000
00000000
00000010
00000010
,
00000100
00000001
00000000
00000100
,
00000000
00000010
00000000
00001000
,
00010000
00100000
00000000
00010000
,
00000000
01000000
00000000
10000000
,
10000000
00100000
00000000
00010000
,
00010000
00001000
00000000
00001000
,
00000100
00000001
00000010
00000000
,
00000100
00000000
00001000
00010000
,
00100000
00010000
01000000
00000000
,
00100000
10000000
01000000
01000000
,
00000000
01000000
00000000
00100000
,
00100000
00010000
01000000
00000000
,
00010000
00000000
00001000
00000100
,
00000010
00000001
00000100
00000010
,
00000000
00001000
00000000
00010000
,
00000000
00100000
00010000
00000000
,
00010000
00000000
01000000
00000000
,
01000000
10000000
00100000
00000000
,
00010000
00001000
00000100
00000000
,
00000010
00001000
00000100
00000000
,
00000100
00000000
00000001
00000000
,
00000010
00000100
00001000
00011000
,
00000000
00100000
00010000
01000000
,
00000000
10000000
01000000
00000000
,
00100000
00000000
00100000
00000000
,
01000000
00100000
00010000
00001000
,
00000000
00001000
00000010
00000010
,
00000000
00000100
00000001
00000100
,
00000000
00001000
00000000
00020000
,
00030000
00002000
00003000
01010000
,
01000000
00100000
10000000
00000000
,
00100000
00000000
00010000
00001000
,
00000100
00001000
00000010
00000000
,
00000100
00000000
00000001
00000001
,
00000100
00000000
00001000
00000000
,
00010000
00100000
01000000
20000000
,
30000000
02000000
03000000
00200000
,
00300000
00020000
00030000
00001100
,
00000100
00001000
00000100
00000000
,
00000000
00000001
00000100
00000001
,
00000010
00000100
00001000
00000000
,
00001000
00010000
00100000
01000000
,
00000000
01000000
00000000
01000000
,
01000000
00100000
00010000
00000000
,
01000000
00000000
10000000
00100000
,
00000000
00010000
00001000
00000200
,
00000000
00000310
00000000
00000001
,
00000100
00001000
00000100
00001000
,
00000000
00000100
00000000
00010000
,
00100000
01000000
00000000
00010000
,
01000000
00000000
00100000
10000000
,
00000000
01000000
00010000
00020000
,
00030000
00002000
00003000
00000200
,
00000300
00000010
00001000
00000011
,
00000001
00000100
00000000
00001000
,
00000100
00001000
00010000
00100000
,
00000000
00100000
00000000
00010000
,
01000000
00000000
00100000
00010000
,
00001000
00000000
00000100
00001000
,
00010000
00001000
00000100
00000010
,
00000010
00000001
00000001
00000010
,
00000000
00000000
00001000
00000200
,
00000000
00000000
00000000
00000000
,
00000000
00000000
00000000
00000000
,
00000000
00000000
00000300
00000000
;

//---------------dance-double - ----------------
#NOTEDATA:;
#CHARTNAME:;
#STEPSTYPE:dance-double;
#DESCRIPTION:;
#CHARTSTYLE:;
#DIFFICULTY:Medium;
#METER:7;
#RADARVALUES:0.268223,0.327794,0.070116,0.202558,0.000000,241.000000,232.000000,9.000000,26.000000,0.000000,0.000000,0.000000,0.000000,0.000000,0.268223,0.327794,0.070116,0.202558,0.000000,241.000000,232.000000,9.000000,26.000000,0.000000,0.000000,0.000000,0.000000,0.000000;
#CREDIT:;
#NOTES:
00000000
00000000
00000000
00000000
,
00000000
00000000
00000000
00000000
,
00000000
00000000
00000000
00000000
,
00000000
00000000
00000000
00000000
,
00000000
00000000
00000000
00000000
,
00000000
00000000
00000000
00000010
,
00000010
00000100
00000100
00001000
,
00001000
00010000
00010000
00100000
,
00010000
01000000
00100000
00020000
,
00000000
00031000
00000000
00011000
,
00000100
00001000
00000010
00000001
,
00000000
00000100
00000000
00000110
,
00000010
00001000
00000100
00010000
,
00000000
00100000
00000000
00010000
,
00010000
01000000
00100000
00000000
,
10000000
01000000
00100000
00020000
,
00031000
00000200
00000310
00000020
,
00000031
00000002
00000103
00001010
,
00001000
00000100
00010000
00010000
,
00000000
00100000
00010000
01000000
,
01000000
00100000
10000000
01000000
,
00000000
00100000
00010000
00001000
,
00010000
00001000
00000000
00000000
00000100
00000100
00000000
00000000
,
00000010
00000000
00001000
00000000
00000001
00000200
00000000
00000000
,
00000000
00000000
00000300
00001000
,
00010000
00100000
00010000
01010000
,
00000000
00100000
00100000
00010000
,
01000000
10000000
00100000
00020000
,
00030000
00002000
00003000
00000100
,
00000000
00001000
00000100
00000011
,
00000000
00000100
00000001
00001100
,
00000010
00000000
00001000
00000000
00001000
00010000
00000000
00000000
,
00010000
00000000
00010000
00000000
,
01000000
10000000
10010000
10010000
,
00000000
00010000
00001000
00000100
,
00000010
00000001
00000100
00002000
,
00003000
00020000
00030000
00100000
,
00000000
01000000
00010000
01000000
,
00000000
00100000
00010000
10000000
,
10000000
01000000
00100000
00020000
,
00030000
00000000
00001000
00000000
00000100
00000000
00000010
00000010
,
00000100
00001000
00000010
00000200
,
00001300
00000020
00000031
00000100
,
00010000
00001000
01000000
20000000
,
31000000
00020000
00130000
00001000
,
00010000
00000100
00001000
00000100
,
00000100
00000010
00000000
00000100
00000000
00000100
00000000
00000000
,
00001000
00010000
01000000
20000000
,
30000000
02000000
03000000
00020000
,
00030000
00000020
00000030
00001001
,
00001000
00000100
00000100
00000010
,
00000000
00000001
00000100
00000010
,
00000010
00001000
00001000
00010000
,
00000000
00100000
00010000
02000000
,
03000000
00100000
00010000
00000000
,
10000000
10000000
10000000
00000000
00010000
00000000
00000000
00000000
,
00001000
00000100
00000010
00001000
,
00000000
00000001
00000100
00002000
,
00000000
00013000
00000000
00100000
,
01000000
01000000
00000000
00000000
00010000
00000000
00200000
00000000
,
00300000
10000000
01000000
00010000
,
00100000
00100000
00010000
00100000
,
00010000
00001000
00000000
00000000
00001000
00000000
00000100
00000010
,
00000000
00001000
00000010
00000020
,
00000100
00000100
00001000
00001030
,
00000000
00000100
00001000
00000000
00010000
00000000
00200000
00000000
,
00000000
00301000
00000000
00001000
,
00010000
00010000
01000000
10000000
,
00000000
00100000
00010000
00000000
00001000
00000000
00010000
00000000
,
00000100
00000100
00000000
00000000
00010000
00000000
00100000
00010000
,
00100000
00010000
00000000
00000000
00001000
00010000
00001000
00010000
,
00000000
00000000
00000100
00000000
00001000
00020000
00000000
00000000
,
00000000
00000000
00000000
00000000
00000000
00000000
00000000
00030000
,
00000000
00000000
00000000
00000010
00000010
00000200
00000000
00000000
,
00000000
00000000
00000000
00000000
,
00000000
00000000
00000000
00000000
,
00000000
00000000
00000300
00000000
;

//---------------dance-double - ----------------
#NOTEDATA:;
#CHARTNAME:;
#STEPSTYPE:dance-double;
#DESCRIPTION:;
#CHARTSTYLE:;
#DIFFICULTY:Hard;
#METER:10;
#RADARVALUES:0.393987,0.446992,0.124651,0.249303,0.000000,354.000000,338.000000,16.000000,32.000000,0.000000,0.000000,0.000000,0.000000,0.000000,0.393987,0.446992,0.124651,0.249303,0.000000,354.000000,338.000000,16.000000,32.000000,0.000000,0.000000,0.000000,0.000000,0.000000;
#CREDIT:;
#NOTES:
// measure 0
00000000
00000000
00000000
00000000
,  // measure 1
00000000
00000000
00000000
00000000
,  // measure 2
00000000
00000000
00000000
00000000
,  // measure 3
00000000
00000000
00000000
00000000
,  // measure 4
00000000
00000000
00000000
00000000
,  // measure 5
00000000
00000000
00000000
00000000
00000000
00000000
00000001
00001000
,  // measure 6
00000001
00001000
00000001
00000000
00000100
00000000
00010000
00001000
,  // measure 7
00010000
00001000
00010000
00000000
00100000
00000000
00010000
01000000
,  // measure 8
00100000
01000000
00100000
00000000
10000000
00000000
00010000
00010000
,  // measure 9
00001000
00001000
00200000
00000000
00310000
00000000
01000000
00000000
,  // measure 10
01010000
00000000
00001000
00000000
00011000
00000000
00001000
00000100
,  // measure 11
00000010
00000001
00000100
00000000
00000010
00000000
00000001
00000000
,  // measure 12
00000101
00000000
00001000
00000000
00011000
00000000
00010000
00100000
,  // measure 13
01000000
10000000
00010000
00000000
00100000
00010000
00010000
00000000
,  // measure 14
00001000
00010000
00000000
00001000
00000100
00001000
00000000
00000000
,  // measure 15
00000010
00000100
00000001
00000020
,  // measure 16
00000031
00000200
00000310
00002000
,  // measure 17
00013000
00020000
01030000
00110000
,  // measure 18
00010000
01000000
00000000
10000000
00000000
01000000
00000000
00000000
,  // measure 19
00010000
00001000
00010000
00001100
,  // measure 20
00001000
00000010
00000000
00000010
00000001
00000100
00000000
00000000
,  // measure 21
00001000
00000000
00000100
00000000
00001000
00000000
00010000
00100000
,  // measure 22
00010000
10000000
00000000
00100000
00010000
00001000
00000000
00000010
,  // measure 23
00001000
00000100
00001000
00001000
00000010
00000200
00000000
00000000
,  // measure 24
00000001
00000301
00000010
00001000
,  // measure 25
00000100
00010000
00100000
00101000
,  // measure 26
00000000
00010000
00000000
00010000
01000000
00000000
10000000
00000000
,  // measure 27
00100000
00010000
00000000
00001000
00000100
00000020
00000000
00001000
,  // measure 28
00000000
00001030
00000000
00000100
00001000
00000100
00000000
00000010
,  // measure 29
00000000
00000010
00000000
00001000
00010000
00001000
00000000
00010000
,  // measure 30
00010000
00000000
00100000
01000000
10000000
01000000
00000000
00000000
,  // measure 31
00100000
00000000
00010000
00000000
10000000
00100000
00000000
00010000
,  // measure 32
00001000
00100000
00000000
00001000
00000100
00000010
00000000
00000001
,  // measure 33
00000100
00000010
00001000
00000000
00001010
00000000
00011000
00000000
,  // measure 34
00010000
00100000
00000000
00100000
00010000
01000000
10000000
00000000
,  // measure 35
00100000
00010000
00000000
00001000
00010000
00200000
00000000
00010000
,  // measure 36
00000000
00310000
00000000
01000000
00010000
01000000
00000000
00001000
,  // measure 37
00000100
00000010
00000000
00000000
00000001
00000000
00000200
00000000
,  // measure 38
00001300
00000000
00000010
00000000
00000001
00001000
00000001
00000000
,  // measure 39
00000000
00002000
00000000
00003000
00100000
00000000
00100000
00000000
,  // measure 40
01000000
00000000
10000000
01000000
00010000
00000000
00001000
00001000
,  // measure 41
00000010
00000010
00001000
00000000
00001010
00000000
00000002
00000000
,  // measure 42
00000103
00000020
00000000
00001030
00000000
00000100
00001000
00010000
,  // measure 43
00100000
00010000
01000000
20000000
,  // measure 44
31000000
00200000
00000000
00310000
00000000
01000000
00010000
00001000
,  // measure 45
00000100
00000000
00001000
00000000
00000010
00000010
00001000
00000000
,  // measure 46
00000100
00001000
00000000
00000010
00000001
00000100
00000000
00000000
,  // measure 47
00000010
00001000
00000100
00002000
,  // measure 48
00013000
00020000
01030000
00200000
,  // measure 49
10300000
02000000
03010000
10010000
,  // measure 50
00100000
00010000
00000000
00002000
00000000
00013000
00000000
00000000
,  // measure 51
00001000
00000100
00001000
00000010
,  // measure 52
00000010
00000001
00000000
00000100
00000010
00001000
00000000
00000100
,  // measure 53
00001000
00000000
00010000
00000000
00100000
00000000
00010000
00010000
,  // measure 54
00100000
01000000
00000000
00100000
00010000
01000000
00000000
10000000
,  // measure 55
00100000
00010000
00001000
00000100
00001000
00000120
00000000
00000000
,  // measure 56
00001000
00000000
00001000
00000030
00000100
00000000
00001000
00000000
,  // measure 57
00010000
00002000
00023000
00031000
,  // measure 58
00100000
00010000
00000000
01000000
01000000
00000000
00010000
00000000
,  // measure 59
00100000
00010000
00000000
00001000
00000100
00000010
00000001
00000000
,  // measure 60
00000100
00000010
00001000
00000000
00000100
00000000
00010000
00000000
,  // measure 61
00011000
00000000
00101000
00000000
00010100
00000000
00001000
00010000
,  // measure 62
00100000
01000000
00000000
00000000
10000000
01000000
00100000
00010000
,  // measure 63
00000000
00001000
00000010
00000000
00000100
00000000
00000002
00000000
,  // measure 64
00000203
00002300
00023000
00230000
,  // measure 65
00310000
01000000
10000000
00000000
00100000
00000000
00110000
00000000
,  // measure 66
00001000
00020000
00000000
00000000
00031000
00000000
00000100
00000000
,  // measure 67
00001000
00000010
00000000
00000010
00000100
00000001
00002000
00000000
,  // measure 68
00000000
00003010
00000200
00000000
00000301
00000000
00001000
00000000
,  // measure 69
00000010
00000010
00000000
00000100
00000001
00000000
00000010
00000100
,  // measure 70
00001000
00010000
00000000
00000000
00100000
01000000
10000000
01000000
,  // measure 71
00000000
00010000
00001000
00100000
00000000
00020000
00000000
01000000
,  // measure 72
00000000
01000000
00000000
00001000
00000000
00001000
00000000
01000000
,  // measure 73
00000000
01030000
00000000
00001000
00010000
00000200
00000000
00000000
,  // measure 74
00000000
00000000
00000000
00000000
,  // measure 75
00000000
00000000
00000000
00000000
,  // measure 76
00000000
00000000
00000300
00000000
;
