#TITLE:泣けないぜ・・・共感詐欺;
#SUBTITLE:;
#ARTIST:アンジュルム;
#TITLETRANSLIT:Nakenai ze... Kyoukan Sagi;
#SUBTITLETRANSLIT:;
#ARTISTTRANSLIT:ANGERME;
#GENRE:Hello! Project;
#CREDIT:Saikio;
#BANNER:Nakenai ze Kyoukan Sagi-banner.png;
#BACKGROUND:bg.png;
#LYRICSPATH:;
#CDTITLE:Saikio Hello! Project.png;
#MUSIC:Nakenai ze Kyoukan Sagi.ogg;
#OFFSET:0.130000;
#SAMPLESTART:54.680058;
#SAMPLELENGTH:15.520012;
#SELECTABLE:YES;
#DISPLAYBPM:135.000000;
#BPMS:0.000000=135.009995
;
#STOPS:
;
#BGCHANGES:0.000=Nakenai ze Kyoukan Sagi.avi=1.000=0=0=0=StretchNoLoop====,
99999=-nosongbg-=1.000=0=0=0 // don't automatically add -songbackground-
;
#KEYSOUNDS:;
#ATTACKS:;

//---------------dance-single - ----------------
#NOTES:
     dance-single:
     :
     Beginner:
     3:
     0.138789,0.183650,0.009165,0.000000,0.000000,106.000000,105.000000,1.000000,0.000000,0.000000,0.000000,0.138789,0.183650,0.009165,0.000000,0.000000,106.000000,105.000000,1.000000,0.000000,0.000000,0.000000:
0000
0000
0000
0000
,
0000
0000
0000
0000
,
0000
0000
0000
0000
,
0000
0000
0000
0000
,
0000
0010
0000
0000
,
0000
0100
0000
0100
,
0000
0010
0010
0100
,
0000
0001
0000
0001
,
0000
1000
1000
0001
,
0000
0100
0000
0100
,
0000
1000
1000
0100
,
0000
0010
0000
0010
,
0000
0001
0001
0010
,
0000
1001
0000
0000
,
0000
0010
0000
0000
,
0000
1000
0000
0000
,
0000
0100
0000
0000
,
0000
0001
0000
0000
,
0000
1000
0000
0000
,
0000
0100
0000
0000
,
0000
0001
0000
0000
,
0000
0010
0000
0010
,
0000
1000
1000
1000
,
0000
0100
0000
0010
,
0000
0001
0001
0001
,
0000
0010
0000
1000
,
0000
0100
0100
0100
,
0000
0001
0000
1000
,
0000
0000
0010
0000
,
0100
0000
0000
0000
,
0000
1000
0000
0000
,
0000
0001
0100
0000
,
0000
1000
0010
0000
,
0000
1000
0000
0001
,
0000
0100
0000
0010
,
0000
1000
0100
0000
,
0000
0001
0010
0000
,
0000
0001
0000
1000
,
0000
0010
0000
0100
,
0000
0001
0000
0010
,
0000
1000
1000
1000
,
0000
0001
0001
0000
,
0000
0100
0000
0000
,
0010
0000
1000
0000
,
0001
0010
0010
0010
,
0000
0100
0000
0100
,
0000
0010
0000
0000
,
0100
0000
0000
0000
,
0000
0001
0000
1000
,
0000
0010
1000
0010
,
0000
0100
0000
0001
,
0000
0100
0001
0100
,
0000
1000
0000
0100
,
0000
0001
0010
1000
,
0000
0001
0000
0010
,
0000
1000
0100
0001
,
0000
0100
0000
0000
,
0000
0010
0000
0000
;

//---------------dance-single - ----------------
#NOTES:
     dance-single:
     :
     Easy:
     6:
     0.221277,0.302455,0.082488,0.174141,0.000000,169.000000,160.000000,9.000000,19.000000,0.000000,0.000000,0.221277,0.302455,0.082488,0.174141,0.000000,169.000000,160.000000,9.000000,19.000000,0.000000,0.000000:
0000
0000
0000
0000
,
0000
0000
0000
0000
,
0000
0000
0000
0000
,
0000
0000
0000
0000
,
0000
0001
0010
0000
,
0000
0010
0010
1000
,
0000
0020
0030
0200
,
0300
0001
0001
0100
,
0000
2000
3000
0200
,
0300
0010
0010
0100
,
0000
0020
0030
0002
,
0003
1000
1000
0001
,
0000
2000
3000
0020
,
0030
0100
0000
0000
,
0000
1000
0010
0001
,
0000
0001
0010
0100
,
0000
0001
0100
1000
,
0000
1000
0100
0010
,
0000
0001
1000
0100
,
0000
0010
0001
0100
,
0000
1000
1000
0100
,
0000
0010
0100
0010
,
0000
0101
1000
0010
,
0000
0100
0100
0010
,
0000
1010
0100
0001
,
0000
1000
0100
0010
,
0000
1001
0100
0010
,
0000
0001
0100
0010
,
0000
0000
0000
0100
0100
0000
0010
0010
,
0000
0200
0000
0000
0000
0000
0000
0000
,
0300
0000
0000
0000
,
0000
0001
0100
1000
,
0010
0001
0100
0000
,
0000
0010
0010
1000
,
0100
1000
1000
0010
,
0100
1000
0010
0001
,
0100
1000
0010
0000
,
0000
1000
1000
0001
,
0100
0010
0010
0100
,
0001
2000
3001
0200
,
0310
1000
1000
0010
,
0100
0002
0003
2000
,
3000
0100
1000
0001
,
0000
0020
1030
0200
,
0301
0001
0100
0010
,
1000
0001
1000
1001
,
0001
1001
0100
0010
,
0200
0000
0000
0000
,
0300
0010
1100
1000
,
0010
0100
0100
0001
,
0100
0010
0011
0100
,
1000
0010
0010
0002
,
0003
0100
0101
1000
,
0100
0001
0001
0100
,
0010
1000
1010
0100
,
0001
0200
0300
0010
,
0001
0100
0010
0000
,
0000
0200
0000
0000
,
0000
0000
0000
0000
,
0000
0000
0000
0000
,
0300
0000
0000
0000
;

//---------------dance-single - ----------------
#NOTES:
     dance-single:
     :
     Medium:
     10:
     0.322095,0.439935,0.064157,0.146645,0.000000,246.000000,239.000000,7.000000,16.000000,0.000000,0.000000,0.322095,0.439935,0.064157,0.146645,0.000000,246.000000,239.000000,7.000000,16.000000,0.000000,0.000000:
0000
0000
0000
0000
,
0000
0000
0000
0000
,
0000
0000
0000
0000
,
0000
0000
0000
0000
,
0000
2000
3001
0010
,
0000
0010
1000
0100
,
1000
0000
0010
0000
0100
0010
0100
0000
,
0001
0100
0010
0001
,
1000
0101
0101
0020
,
0130
0000
1000
0001
1000
0000
0010
0000
,
0100
0001
0100
1000
,
0001
0000
0100
0010
0100
0000
0010
0000
,
1000
0100
0001
1001
,
1001
0200
0300
0010
,
0000
0002
0013
0100
,
1000
0100
1000
1000
,
0010
2000
3100
0010
,
0001
0001
0010
0100
,
0010
1000
1000
0010
,
0010
1000
0010
0100
,
0001
0000
0000
0010
1000
0000
0001
0100
,
0000
1000
0000
1000
0001
0000
0100
0000
,
0010
0000
0001
0001
0001
0000
1000
0000
,
0100
0001
0001
0100
,
0010
0000
1000
1000
1000
0000
0010
0000
,
0001
0100
0100
0010
,
1000
0000
0100
0100
0100
0000
0001
0000
,
0100
1000
0001
0010
,
0010
0000
0000
1000
0010
0000
0001
0100
,
0000
0020
0000
0000
0000
0000
0000
0000
,
0000
0030
0000
0000
0000
0000
0000
0100
,
0100
0000
0010
0000
1000
0001
0000
0000
,
0100
1000
0100
0000
0010
0100
0000
0000
,
1000
0000
0001
1000
0001
0000
0100
0000
,
0010
0000
1000
0001
1000
0000
0010
0000
,
0100
0000
0001
0000
1000
0010
0000
0000
,
0001
0010
0001
0000
0100
0010
0000
0000
,
1000
0000
0100
0010
0100
0000
0001
0000
,
1000
0000
0010
1000
0001
0000
0100
0000
,
0010
0000
1000
1000
0001
0000
0100
0100
,
0010
0000
1000
0001
1000
0000
0010
0100
,
0010
0002
0103
0010
,
1000
0000
1100
0000
0010
0000
0100
0001
,
0100
0000
0010
1000
0100
0000
0010
0100
,
0001
0000
0100
0100
0010
0010
1000
0001
,
1000
0000
0010
1000
0001
1000
0100
1000
,
0001
1000
0020
0000
0230
0000
0300
0010
,
0200
0000
0000
0000
,
0300
0000
0010
1000
0100
0000
0010
0001
,
1000
0200
0302
1003
,
0100
0000
1000
0001
0100
0000
0001
1000
,
0010
0000
0100
0100
0001
0001
0100
0000
,
0011
0000
1000
0100
0010
0000
0001
0010
,
0100
2000
3020
0130
,
0001
0000
0100
0010
0100
0000
1000
0100
,
0001
0000
0100
0100
0001
0001
1000
0000
,
1010
0000
0200
0000
0000
0300
0001
0000
,
0010
0200
0000
0000
,
0000
0000
0000
0000
,
0000
0000
0000
0000
,
0300
0000
0000
0000
;

//---------------dance-single - ----------------
#NOTES:
     dance-single:
     :
     Hard:
     12:
     0.449100,0.522423,0.119149,0.155810,0.169558,343.000000,330.000000,13.000000,17.000000,0.000000,0.000000,0.449100,0.522423,0.119149,0.155810,0.169558,343.000000,330.000000,13.000000,17.000000,0.000000,0.000000:
0000
0000
0000
0000
,
0000
0000
0000
0000
,
0000
0000
0000
0000
,
0000
0000
0000
0000
,
0000
0000
2000
0000
3010
0000
1000
0010
,
1000
0000
0001
0100
1000
0000
0100
0010
,
0100
0000
0002
0000
0103
0000
0010
1000
,
1100
0000
0001
0010
0100
0000
0010
1000
,
0100
0000
0001
0001
0100
0100
0020
0000
,
1030
0000
0001
0100
1000
0000
0010
0100
,
0010
0000
0200
0000
0310
0000
0010
0001
,
0101
0000
1000
0010
1000
0000
0100
0001
,
0100
0000
0010
0010
1000
1000
0001
0000
,
0100
0200
0000
0010
,
0310
0000
0001
1000
0100
0000
0100
1000
,
0010
0000
1000
0100
0001
0000
0100
0000
,
0010
0000
1000
0001
0010
0000
0010
0100
,
1000
0000
0001
1000
0100
0000
1000
0000
,
0010
0000
0100
0100
0001
0000
1000
1000
,
0010
0000
1000
0001
1000
0000
0100
0000
,
0010
0100
0000
0010
1000
0000
0001
0100
,
0000
0100
0000
0001
1000
0001
0100
0010
,
1000
0000
0100
0000
0010
0000
0010
0000
0110
0000
1000
0000
0010
0000
0000
0100
,
0000
0001
1000
0010
1000
0000
0001
0100
,
0001
0000
0000
0000
1000
0000
1000
0000
1100
0000
0010
0000
1000
0000
0000
0001
,
0000
0010
0100
1000
0100
0000
0001
0010
,
0001
0000
0000
0000
1000
0000
1000
0000
1001
0000
0100
0000
0010
0000
0000
1000
,
0000
0010
0001
0010
0001
1000
0100
1000
,
0100
0010
0000
1010
0100
0000
0101
0010
,
0000
0200
0000
0000
0000
0000
0000
0000
,
0300
0000
0020
0000
0000
0000
0030
0100
,
0001
0000
1000
0000
0100
0000
0000
1010
0000
0000
0001
0000
0000
0000
1000
0010
,
1000
0000
0100
0000
1000
0000
0000
0010
0000
0000
0101
0000
0000
0000
0100
0000
,
0010
0000
0000
0000
1000
0000
0100
0000
1000
0000
0000
0001
0000
0000
0100
0000
,
0010
0000
0100
0000
0001
1000
0000
0000
0010
0000
0000
0100
0000
0000
0001
0000
,
1000
0000
0100
0000
1000
0000
0000
0101
0000
0000
1000
0000
0000
0000
0100
0010
,
0100
0000
0001
0000
1000
0000
0000
0100
0000
0000
1010
0000
0000
0000
0010
0000
,
0100
0000
0000
0000
0001
0000
0100
0000
0001
0000
0000
1000
0000
0000
0001
0000
,
1000
0000
0100
0000
1000
0100
1000
0000
0001
0000
0000
0100
0000
0000
0010
0000
,
1000
0000
0001
0000
1000
0000
0100
0001
0100
0000
1000
0000
0010
0000
0100
1000
,
0100
0010
2000
3001
0002
1003
0100
0100
,
0010
0000
0010
0000
1000
0000
0000
0001
0000
0000
0020
0000
0000
0000
0000
0000
,
0030
0000
0001
0000
0100
0000
0010
0100
,
0001
0000
0000
0000
1000
0000
0010
1000
0010
0000
0100
0000
0001
0000
0010
0001
,
0010
0100
0020
0130
0200
0310
1000
1000
,
0001
0001
1000
0010
1000
0100
0001
0010
,
0001
0100
1000
0000
1100
0000
0100
0010
,
0200
0000
0000
0000
0000
0000
0000
0300
,
1001
0000
0000
0000
0100
0000
0001
0100
0010
0000
1000
0000
0010
0000
0100
0010
,
1000
0000
0100
0000
0000
0100
0000
0100
0000
0100
0000
0010
0000
0000
0010
0000
,
0100
0000
0000
0000
0010
0000
1000
0001
0100
0000
1000
0000
0100
0000
0010
0100
,
0001
0010
0001
0001
1000
1000
0002
0000
,
0103
0000
0000
0000
1000
0000
0001
0010
0100
0000
0010
0000
1000
0000
0100
0010
,
0001
0000
0010
0000
0000
1000
0000
1000
0000
1000
0000
0001
0000
0000
1000
0000
,
0100
0000
0000
0000
0001
0000
1000
0010
1000
0000
0001
0000
0100
0000
0010
0100
,
0010
0100
1000
1000
0010
0010
0200
0000
,
0310
0000
0000
0000
2000
0000
0000
0000
0000
0000
3000
0000
0100
0000
0000
0001
,
0000
0010
0200
0000
0000
0000
0000
0000
,
0000
0000
0000
0000
,
0000
0000
0000
0000
,
0300
0000
0000
0000
;

//---------------dance-double - ----------------
#NOTES:
     dance-double:
     :
     Easy:
     5:
     0.248773,0.302455,0.164976,0.082488,0.000000,190.000000,172.000000,18.000000,9.000000,0.000000,0.000000,0.248773,0.302455,0.164976,0.082488,0.000000,190.000000,172.000000,18.000000,9.000000,0.000000,0.000000:
00000000
00000000
00000000
00000000
,
00000000
00000000
00000000
00000000
,
00000000
00000000
00000000
00000000
,
00000000
00000000
00000000
00000000
,
00000000
00200000
00300000
00010000
,
00000000
00100000
00010000
00001000
,
00000000
00000100
00001000
00001010
,
00000000
00000001
00000100
00001000
,
00000000
00010000
00100000
00110000
,
00110000
01000000
10000000
01000000
,
00000000
00100000
00010000
00011000
,
00000000
00000100
00001000
00000010
,
00000000
00000001
00000100
00001100
,
00001100
00020000
00030000
00100000
,
00000000
00010000
01000000
10000000
,
00000000
00100000
00010000
00001000
,
00000000
00000100
00000001
00000010
,
00000000
00000100
00001000
00010000
,
00000000
00100000
00010000
01000000
,
00000000
10000000
01000000
00100000
,
00000000
00010000
00001000
00010000
,
00000000
00001000
00000100
00001000
,
00000000
00000010
00000110
00000001
,
00000000
00000001
00000100
00001000
,
00000000
00010000
01100000
01000000
,
00000000
10000000
01000000
00100000
,
00000000
00010000
00001000
00000110
,
00000000
00000001
00000100
00000010
,
00000000
00001000
00011000
00010000
,
00200000
00000000
00000000
00000000
,
00300000
01000000
00000000
00000000
,
00100000
00010000
00001000
00000100
,
00000010
00000001
00000100
00001000
,
00000000
00010000
01000000
11000000
,
00100000
00010000
00001000
00011000
,
00000100
00001000
00001000
00000100
,
00000010
00000001
00000001
00000100
,
00000000
00000010
00001000
00000100
,
00011000
00100000
00010000
01000000
,
00100000
10000000
10000000
00010000
,
00010000
00001000
00000100
00010000
,
01000000
00010000
00002000
00003000
,
00000010
00000100
00001000
00000000
,
00010000
00000000
00100000
01000000
,
10000000
10000000
01000000
00010000
,
00100000
00002000
00013000
00000200
,
00000310
00001000
00000101
00000010
,
00000200
00000000
00000000
00000000
,
00000300
00000010
00001000
00000100
,
00010000
00100000
00100000
00010000
,
00000000
01000000
00010000
00100000
,
00001000
00000100
00000010
00001001
,
00001001
00001000
00010000
00100000
,
00010000
01000000
01000000
00100000
,
10000000
01000000
00100000
00010000
,
00001000
00000100
00010000
00011000
,
00011000
00000200
00000300
00000010
,
00001000
00000200
00000000
00000000
,
00000000
00000000
00000000
00000000
,
00000000
00000000
00000000
00000000
,
00000300
00000000
00000000
00000000
;

//---------------dance-double - ----------------
#NOTES:
     dance-double:
     :
     Medium:
     10:
     0.335189,0.384943,0.164976,0.054992,0.000000,256.000000,238.000000,18.000000,6.000000,0.000000,0.000000,0.335189,0.384943,0.164976,0.054992,0.000000,256.000000,238.000000,18.000000,6.000000,0.000000,0.000000:
00000000
00000000
00000000
00000000
,
00000000
00000000
00000000
00000000
,
00000000
00000000
00000000
00000000
,
00000000
00000000
00000000
00000000
,
00000000
00000020
00001030
00000100
,
00000000
00000000
00010000
00001000
00010000
00000000
00100000
00010000
,
00100000
01000000
00010000
01010000
,
00010000
00000000
00001000
00010000
00001000
00000000
00000010
00001000
,
00000010
00001000
00000100
00001100
,
00001010
00000000
00000001
00000100
00000001
00000000
00001000
00000100
,
00001000
00010000
00100000
00110000
,
00100000
00000000
10000000
00010000
10000000
00000000
00100000
00010000
,
00001000
00010000
00000100
00011000
,
00000100
00020000
00030000
00100000
,
00010000
00000000
01000000
01000000
00010000
00000000
00100000
00000000
,
00001000
00010000
00000100
00000010
,
00001000
00000000
00000010
00000010
00000100
00000000
00000001
00000000
,
00000100
00001000
00010000
00100000
,
01000000
00000000
10000000
10000000
00010000
00000000
00100000
00000000
,
00010000
00001000
00000100
00000010
,
00000001
00000000
00000000
00001000
00000100
00000000
00010000
00001000
,
00000000
00100000
00000000
00000000
00000000
00000000
01000000
00000000
,
00000000
00000000
00100000
00010000
00001000
00000000
00010000
00000000
,
00001000
00000100
00000010
00001000
,
00000100
00000000
00000001
00000010
00000100
00000000
00001000
00000000
,
00010000
01000000
00100000
10000000
,
00010000
00000000
00100000
00010000
00001000
00000000
00000100
00000000
,
00001000
00000010
00000100
00000001
,
00001000
00000000
00000000
00001000
00010000
00000000
01000000
00100000
,
00000000
02000000
00000000
00000000
00000000
00000000
00000000
00000000
,
03000000
01100000
00000000
00000000
,
00010000
00000000
00001000
00000000
00010100
00000000
00000010
00000001
,
00000100
00001001
00001100
00001000
,
00100000
00000000
00010000
01000000
10000000
00000000
00100000
00000000
,
00010000
00000000
00100000
00010000
00001000
00000000
00000100
00000000
,
00000010
00000000
00001010
00000000
00001100
00000000
00000001
00000100
,
00001000
00010000
00110000
00010000
,
01000000
00000000
10000000
00010000
10000000
00000000
00100000
00000000
,
00001000
00000000
00010000
00001000
00000100
00000000
00010000
00000000
,
00000010
00000000
00001000
00000010
00001000
00000000
00010000
00001000
,
00010000
01000000
10000000
01000000
,
00010000
00200000
00310000
00010000
,
00000000
00000000
00001000
00000000
00001000
00000000
00000100
00010000
,
00001000
00000000
00001000
00010000
00100000
00000000
10000000
00010000
,
00100000
01000000
00010000
00001000
,
00000100
00000000
00000010
00000010
00000001
00000000
00000100
00000100
,
00000010
00000000
00001000
00000000
00011000
00000000
00000000
00100000
,
02000000
00000000
00000000
00000000
,
03000000
00000000
00100000
00010000
00001000
00000000
00001000
00000010
,
00001000
00000000
00000100
00000100
00001000
00000000
00000010
00000000
,
00000011
00000000
00000100
00001000
00010000
00000000
00010000
01000000
,
00010000
00000000
00100000
00100000
00010000
00010000
01000000
00000000
,
00100000
00000000
10000000
00010000
01000000
00000000
00100000
00001000
,
00010000
00000100
00001100
00001010
,
00000100
00000000
00000001
00000100
00001000
00000000
00000010
00001000
,
00010000
00000000
00100000
00100000
00010000
00000000
01010000
00000000
,
00011000
00100000
00001000
00000100
,
00000010
00000200
00000000
00000000
,
00000000
00000000
00000000
00000000
,
00000000
00000000
00000000
00000000
,
00000300
00000000
00000000
00000000
;

//---------------dance-double - ----------------
#NOTES:
     dance-double:
     :
     Hard:
     12:
     0.436007,0.494927,0.119149,0.073323,0.105401,333.000000,320.000000,13.000000,8.000000,0.000000,0.000000,0.436007,0.494927,0.119149,0.073323,0.105401,333.000000,320.000000,13.000000,8.000000,0.000000,0.000000:
// measure 0
00000000
00000000
00000000
00000000
,  // measure 1
00000000
00000000
00000000
00000000
,  // measure 2
00000000
00000000
00000000
00000000
,  // measure 3
00000000
00000000
00000000
00000000
,  // measure 4
00000000
00002000
00013000
00100000
,  // measure 5
00010000
00000000
10000000
01000000
00010000
00000000
00010000
01000000
,  // measure 6
10000000
00000000
00010000
00001000
00010000
00000100
00000010
00000000
,  // measure 7
00000100
00000000
00001000
00000100
00000001
00000000
00000001
00000100
,  // measure 8
00001000
00000000
00000000
00000000
00010000
00000100
00010000
00000100
00010000
00000000
00000000
00000000
00100000
00000000
00000000
00000000
,  // measure 9
00110000
00000000
00010000
01000000
10000000
00000000
10000000
00100000
,  // measure 10
00010000
00000000
00100000
00010000
00001000
00010000
00000100
00000000
,  // measure 11
00000010
00000000
00001000
00000010
00000001
00000000
00000001
00000100
,  // measure 12
00001000
00000000
00000000
00000000
00001000
00100000
00001000
00100000
00001000
00000000
00000000
00000000
00010000
00000000
00000000
00000000
,  // measure 13
01010000
00000000
00000000
00000000
00100000
00000000
00000000
00001000
00000000
00000000
00000010
00000000
00000001
00000000
00000000
00000100
,  // measure 14
00000000
00000000
00001000
00000010
00001000
00000000
00000001
00000100
,  // measure 15
00000010
00000000
00001000
00000001
00000010
00000100
00001000
00000000
,  // measure 16
00000010
00000000
00001000
00010000
00100000
00000000
00010000
01000000
,  // measure 17
10000000
00000000
00100000
00010000
00001000
00000000
00010000
00000000
,  // measure 18
00001000
00000000
00001000
00000100
00000010
00000000
00000001
00000100
,  // measure 19
00000010
00000000
00000000
00000000
00000010
00000000
00001000
00000000
00010000
00000000
00000000
00000000
00100000
00000000
00000000
10000000
,  // measure 20
00000000
01000000
00000000
00010000
00110000
00000000
00001000
00011000
,  // measure 21
00000000
00000100
00000000
00000010
00001000
00000100
00000010
00000100
,  // measure 22
00000001
00000000
00000100
00000000
00000010
00000000
00000010
00000000
00001000
00000000
00000100
00000000
00001000
00000000
00000000
00000001
,  // measure 23
00000000
00000100
00000010
00001000
00000100
00010000
00100000
00010000
,  // measure 24
10000000
00000000
00000000
00000000
00100000
00000000
00100000
00000000
01000000
00000000
00100000
00000000
10000000
00000000
00000000
01000000
,  // measure 25
00000000
00010000
00001000
00000100
00000010
00000001
00000010
00000100
,  // measure 26
00001000
00000000
00000000
00000000
00000100
00000000
00000100
00000000
00001000
00000000
00000001
00000000
00001000
00000000
00000000
00000100
,  // measure 27
00000000
00001000
00010000
00100000
00010000
00001000
01000000
00100000
,  // measure 28
00010000
01000000
00000000
00110000
00110000
00000000
10010000
10010000
,  // measure 29
00000000
00200000
00000000
00000000
00000000
00000000
00000000
00000000
,  // measure 30
00300000
02000000
00000000
00000000
,  // measure 31
03000000
00000000
00000000
00000000
00001000
00000000
00000000
00100000
00000000
00000000
00010000
00000000
00000000
00000000
00010000
10000000
,  // measure 32
00010000
00000000
00100000
00000000
00010000
00000000
00000000
01000000
00000000
00000000
00100000
00000000
00010000
00000000
10000000
00000000
,  // measure 33
00010000
00000000
00100000
00010000
00001000
00000100
00000010
00001000
,  // measure 34
00010000
00100000
00010000
01000000
10000000
00100000
00010000
00001000
,  // measure 35
00010000
00000000
00001000
00000000
00000100
00000000
00000000
00010000
00000000
00000000
00001000
00000000
00000000
00000000
00000100
00000010
,  // measure 36
00000100
00000000
00000001
00000000
00001000
00000000
00000000
00000100
00000000
00000000
00000001
00000000
00000000
00000000
00000100
00000000
,  // measure 37
00000010
00000000
00000001
00000100
00001000
00010000
01000000
00100000
,  // measure 38
10000000
01000000
00100000
00010000
00000100
00001000
00000010
00000100
,  // measure 39
00001000
00010000
00001000
00010000
00100000
01000000
00000000
10000000
,  // measure 40
01000000
00010000
01000000
01000000
00010000
00010000
00001000
00000100
,  // measure 41
00001000
00000000
00000010
00000000
00000200
00000000
00000000
00000302
00000000
00000000
00000203
00000000
00000000
00000000
00000000
00000000
,  // measure 42
00000300
00000000
00001010
00000000
00001100
00000000
00000100
00010000
,  // measure 43
00001000
00000000
00100000
00001000
00000100
00000000
00001000
00000100
,  // measure 44
00000001
00000000
00000010
00000010
00001000
00001000
00100000
00010000
,  // measure 45
00100000
01000000
10000000
01000000
00100000
00010000
00100000
00001000
,  // measure 46
00000100
00001000
00000010
00000000
00000110
00000000
00000010
00001000
,  // measure 47
00000200
00000000
00000000
00000000
,  // measure 48
00000300
00000000
00000010
00000100
00001000
00000000
00010000
01000000
,  // measure 49
10000000
00000000
00100000
00100000
00010000
00001000
00000100
00010000
,  // measure 50
00001000
00000000
00001000
00000010
00000001
00000000
00000100
00001000
,  // measure 51
00010000
00000000
00000000
00000000
00100000
00001000
00100000
00001000
00100000
00000000
00000000
00000000
10000000
00000000
00000000
00000000
,  // measure 52
10010000
00000000
01000000
00010000
00100000
00000000
00001000
00100000
,  // measure 53
00010000
00000000
00100000
00100000
10000000
10000000
01000000
00010000
,  // measure 54
00001000
00000000
00010000
00000100
00000010
00000000
00000100
00001000
,  // measure 55
00010000
00000000
00000000
00000000
00000100
00010000
00000100
00010000
00000100
00000000
00000000
00000000
00000010
00000000
00000000
00000000
,  // measure 56
00001100
00000000
00000000
00000000
00010000
00000000
00000000
00100000
00000000
00000000
00010000
00000000
01000000
00000000
00000000
10000000
,  // measure 57
00000000
02000000
00000000
00000000
,  // measure 58
00000000
00000000
00000000
00000000
,  // measure 59
00000000
00000000
00000000
00000000
,  // measure 60
03000000
00000000
00000000
00000000
;
