#VERSION:0.83;
#TITLE:NO DOUBT GET LOUD;
#SUBTITLE:;
#ARTIST:ASLETICS;
#TITLETRANSLIT:;
#SUBTITLETRANSLIT:;
#ARTISTTRANSLIT:;
#GENRE:beatmania IIDX;
#ORIGIN:;
#CREDIT:SAIKIO;
#BANNER:NO DOUBT GET LOUD-banner.png;
#BACKGROUND:bg.png;
#PREVIEWVID:;
#JACKET:NO DOUBT GET LOUD-jacket.png;
#CDIMAGE:;
#DISCIMAGE:;
#LYRICSPATH:;
#CDTITLE:IIDX.png;
#MUSIC:NO DOUBT GET LOUD.ogg;
#OFFSET:0.228000;
#SAMPLESTART:77.429993;
#SAMPLELENGTH:14.200004;
#SELECTABLE:YES;
#BPMS:0.000=100.000;
#STOPS:;
#DELAYS:;
#WARPS:;
#TIMESIGNATURES:0.000=4=4;
#TICKCOUNTS:0.000=4;
#COMBOS:0.000=1;
#SPEEDS:0.000=1.000=0.000=0;
#SCROLLS:0.000=1.000;
#FAKES:;
#LABELS:0.000=Song Start;
#BGCHANGES:0.000=NO DOUBT GET LOUD.avi=1.000=0=0=0=StretchNoLoop====,
99999=-nosongbg-=1.000=0=0=0 // don't automatically add -songbackground-
;
#KEYSOUNDS:;
#ATTACKS:
;

//---------------dance-single - ----------------
#NOTEDATA:;
#CHARTNAME:;
#STEPSTYPE:dance-single;
#DESCRIPTION:;
#CHARTSTYLE:;
#DIFFICULTY:Easy;
#METER:5;
#RADARVALUES:0.214827,0.224235,0.040643,0.101607,0.000000,148.000000,144.000000,4.000000,10.000000,0.000000,0.000000,0.000000,0.000000,0.000000,0.214827,0.224235,0.040643,0.101607,0.000000,148.000000,144.000000,4.000000,10.000000,0.000000,0.000000,0.000000,0.000000,0.000000;
#CREDIT:;
#NOTES:
0000
0000
0000
0000
,
0000
0000
0000
0000
,
0000
0000
0000
0000
,
0000
0000
0010
0100
,
0000
0001
0100
1000
,
0000
1000
0010
0100
,
0000
0001
0010
0100
,
0000
1000
0001
0100
,
0000
0010
0010
1000
,
0100
0001
0001
0100
,
1000
0100
0100
0010
,
0001
0100
0200
0000
,
0300
0000
0010
0010
0010
0000
0100
0000
,
0100
0000
0001
0001
0001
0000
0010
0000
,
0100
0000
1000
1000
1000
0000
0010
0000
,
0001
0100
0100
0010
,
0100
1000
0100
2200
,
3300
0010
0100
0001
,
0010
0001
0100
0202
,
0303
0010
0001
0100
,
0010
1000
0001
2002
,
3003
0010
1000
0100
,
0001
0100
0010
0220
,
0330
1000
0100
0001
,
0010
0100
1000
0010
,
0100
0100
0000
0000
0010
0000
0001
0000
,
0010
0010
0000
0000
1000
0000
0100
0000
,
1000
1000
0000
0000
0010
0000
0100
0000
,
1000
0000
0001
0001
,
0100
0100
1000
1000
,
0010
0010
0001
0100
,
1000
0000
0010
0100
,
0000
0000
0010
0000
1000
0000
0100
0100
,
0100
0000
0010
0000
0001
0000
0010
0010
,
0010
0000
1000
0000
0001
0000
1000
1000
,
1000
0010
2000
0010
,
3010
0000
0001
0000
0010
0000
1000
0001
,
1000
0000
0010
0000
0100
0000
0010
0100
,
0010
0000
1000
0000
0100
0000
0001
0100
,
0001
0000
0100
0000
0010
0000
0100
0100
,
0010
0010
0000
0000
0000
0000
0000
0000
;

//---------------dance-single - ----------------
#NOTEDATA:;
#CHARTNAME:;
#STEPSTYPE:dance-single;
#DESCRIPTION:;
#CHARTSTYLE:;
#DIFFICULTY:Beginner;
#METER:2;
#RADARVALUES:0.121929,0.142250,0.000000,0.000000,0.000000,84.000000,84.000000,0.000000,0.000000,0.000000,0.000000,0.000000,0.000000,0.000000,0.121929,0.142250,0.000000,0.000000,0.000000,84.000000,84.000000,0.000000,0.000000,0.000000,0.000000,0.000000,0.000000,0.000000;
#CREDIT:;
#NOTES:
0000
0000
0000
0000
,
0000
0000
0000
0000
,
0000
0000
0000
0000
,
0000
0000
0000
0000
,
0000
0001
0000
0000
,
0000
1000
0000
0000
,
0000
0010
0000
0000
,
0000
0100
0000
0000
,
0000
0001
0000
0100
,
0000
0010
0000
1000
,
0000
0100
0000
1000
,
0000
0010
0000
0100
,
0000
0010
0010
0100
,
0000
0001
0001
0100
,
0000
0010
0010
1000
,
0000
0100
0000
0001
,
0000
0000
1000
0100
,
0000
0010
0100
0001
,
0000
0000
0010
0100
,
0000
1000
0100
1000
,
0000
0000
0001
0010
,
0000
0001
0100
1000
,
0000
0000
0001
1000
,
0000
0010
1000
0001
,
0000
0100
0000
0000
,
1000
0000
0010
0000
,
0001
0000
0100
0000
,
1000
0000
0010
0100
,
0100
0000
0010
0000
,
0001
0000
0100
0000
,
1000
0000
0010
0000
,
0001
0000
0100
0100
,
0000
0000
0010
0001
,
0000
0010
1000
0100
,
0000
0100
1000
0001
,
0000
0010
0001
0100
,
0000
1000
0100
0010
,
0000
0001
1000
0010
,
0000
1000
0100
0001
,
0000
0001
0010
0100
,
0100
0000
0000
0000
;

//---------------dance-single - ----------------
#NOTEDATA:;
#CHARTNAME:;
#STEPSTYPE:dance-single;
#DESCRIPTION:;
#CHARTSTYLE:;
#DIFFICULTY:Medium;
#METER:8;
#RADARVALUES:0.303371,0.305775,0.142250,0.091447,0.000000,209.000000,195.000000,14.000000,9.000000,0.000000,0.000000,0.000000,0.000000,0.000000,0.303371,0.305775,0.142250,0.091447,0.000000,209.000000,195.000000,14.000000,9.000000,0.000000,0.000000,0.000000,0.000000,0.000000;
#CREDIT:;
#NOTES:
0000
0000
0000
0000
,
0000
0000
0000
0000
,
0000
0000
0000
0000
,
0000
0000
0000
0000
0010
0000
0100
0100
,
0100
0000
0001
0000
0100
0000
0010
1000
,
0100
0000
0010
0000
0001
0000
0100
0010
,
0001
0000
0100
0000
1000
0000
0010
1000
,
0001
0000
0100
0000
0010
0000
1000
0100
,
1000
0000
0020
0000
0130
0000
0001
0001
,
0100
0100
0002
0000
1003
0000
0100
0010
,
0001
0000
2000
0000
3010
0000
0100
0001
,
0010
0000
1000
0000
0100
0000
0001
0100
,
0001
0000
1000
1000
0001
0001
1000
0100
,
1000
0000
0010
0010
0100
0001
0100
0010
,
0001
0000
0100
0100
0001
1000
0100
0010
,
0001
0000
0100
0000
0010
0000
0100
0100
,
0100
0000
1000
0100
1000
0000
0011
0000
,
1000
0000
0010
0010
0100
0000
0001
1000
,
0100
0000
0010
0001
0010
0000
0101
0000
,
0010
0000
0001
0001
1000
0000
0100
1000
,
0010
0000
0001
0010
0001
0000
1100
0000
,
0010
0000
1000
1000
0010
0000
0001
1000
,
0010
0000
0100
1000
0100
0000
1010
0000
,
0001
0000
0100
0100
0010
0000
1000
0000
,
0010
2000
0000
3010
,
0100
0002
0000
0013
,
0100
0100
0010
0000
0100
0000
0001
0000
,
1000
1000
0010
0000
0100
0000
0001
0100
,
1000
0000
0010
1000
0100
0010
0001
0000
,
0100
0000
0001
0010
0100
1000
0000
0100
,
1000
0000
0010
1000
0001
0000
1000
0100
,
0010
0000
0001
0000
0100
0000
0010
0010
,
0010
0000
0100
0001
0100
0000
0020
0000
,
0130
0000
1100
0000
0101
0000
0010
0100
,
0001
0000
1000
0100
0010
0000
2000
0000
,
3001
0000
0011
0000
1010
0000
0001
1000
,
0100
0000
0001
0010
0100
0000
0002
0000
,
0013
0000
0110
0000
1001
0000
1000
0100
,
0010
0000
0001
1000
0010
0000
0200
0000
,
0310
0000
1001
0000
0110
0000
0010
0010
,
0110
0110
0000
0000
0000
0000
0000
0000
;

//---------------dance-single - ----------------
#NOTEDATA:;
#CHARTNAME:;
#STEPSTYPE:dance-single;
#DESCRIPTION:;
#CHARTSTYLE:;
#DIFFICULTY:Hard;
#METER:12;
#RADARVALUES:0.513843,0.550395,0.436912,0.081286,0.497876,354.000000,311.000000,43.000000,8.000000,0.000000,0.000000,0.000000,0.000000,0.000000,0.513843,0.550395,0.436912,0.081286,0.497876,354.000000,311.000000,43.000000,8.000000,0.000000,0.000000,0.000000,0.000000,0.000000;
#CREDIT:;
#NOTES:
// measure 0
0000
0000
0000
0000
,  // measure 1
0000
0000
0000
0000
,  // measure 2
0000
0000
0000
0000
,  // measure 3
0000
0000
0000
0000
0000
0000
0010
0000
0100
0000
1000
0000
0010
0000
0100
0010
,  // measure 4
0100
0010
0000
0000
0001
0000
0000
0110
0000
0000
0001
0000
1000
0000
1000
0000
,  // measure 5
0100
0000
0010
0000
1000
0000
0000
0011
0000
0100
0000
1000
0000
0100
0000
0010
,  // measure 6
0000
0100
0000
0000
0010
0000
0000
0110
0000
0000
0001
0000
0100
0000
0100
0000
,  // measure 7
0010
0000
1000
0000
0100
0000
0000
1100
0000
0000
0010
0000
0100
0010
0001
0010
,  // measure 8
0100
0010
0100
0000
0001
0000
0000
1001
0000
0000
1000
0000
0100
1000
0001
1000
,  // measure 9
0100
0000
1000
0000
0010
0000
0000
0110
0000
0010
0000
0001
0000
0100
0000
0010
,  // measure 10
0000
0100
0000
0000
1010
0000
0000
0011
0000
0000
0100
0000
1000
0000
1000
0000
,  // measure 11
0001
0000
0100
0000
1100
0000
0000
0101
0000
0000
0010
0000
0100
0000
0100
0000
,  // measure 12
0001
0000
0001
0000
0100
0010
1000
0001
0100
0010
1000
0001
0010
0100
1000
0100
,  // measure 13
0010
0000
0001
0000
0100
0000
0100
0000
0010
1000
0100
0010
0001
0100
0010
1000
,  // measure 14
0001
0000
0100
0000
0010
0001
1000
0010
0100
1000
0100
0001
0100
0010
0001
0010
,  // measure 15
0001
0000
0010
0000
0100
0000
0000
0110
0000
0000
0001
0000
0100
0000
0100
0000
,  // measure 16
0010
0000
0100
0000
0001
0000
1000
0010
0100
0000
1000
0000
1200
0000
0000
0000
,  // measure 17
0310
0001
0011
1000
1010
0001
0100
0100
,  // measure 18
0010
0000
0100
0000
0010
0000
0001
0000
0100
0010
0100
0000
0012
0000
0000
0000
,  // measure 19
0103
0000
1000
0000
1100
0000
0001
0000
0101
0000
0010
0000
1000
0000
1000
0100
,  // measure 20
0000
0000
0010
0000
0001
0000
1000
0010
1000
0000
0100
0000
2001
0000
0000
0000
,  // measure 21
3010
0001
0101
1000
1010
0001
0010
0010
,  // measure 22
0100
0000
1000
0000
0010
0000
0001
0000
0100
0010
0100
0000
0210
0000
0000
0000
,  // measure 23
0310
0000
1000
0000
1100
0000
0010
0000
0011
0000
1000
0000
0100
0000
0100
0010
,  // measure 24
0000
0100
0001
0000
1000
0100
2000
0000
,  // measure 25
3010
0010
0100
0001
0010
0001
0200
0000
,  // measure 26
0310
0010
0001
0100
1000
0100
0002
0000
,  // measure 27
0013
0000
0010
0000
0001
0000
0000
0101
0000
0000
0010
0000
1000
0000
1000
0000
,  // measure 28
0100
1000
0100
1000
0010
0000
0100
0000
0001
0100
0001
0000
0100
0000
0010
0000
,  // measure 29
1000
0000
0100
0000
0010
0000
0010
0001
0000
0010
0000
0100
0000
0010
0000
0100
,  // measure 30
0000
0001
1000
0000
0010
0000
0000
1010
0000
0000
0100
0000
1000
0000
1000
0000
,  // measure 31
0010
0000
0010
0000
0100
0000
0010
0000
0100
0000
1000
0000
0010
0000
0100
0010
,  // measure 32
0100
0010
0000
0000
0100
0000
0001
1000
0000
0100
0000
1010
0000
0001
0000
1010
,  // measure 33
0000
0100
0000
0000
0001
0000
0010
0100
0000
1000
0000
0011
0000
0100
0000
0011
,  // measure 34
0000
1000
0010
0000
1000
0000
0100
0010
0000
1000
0000
0011
0000
0100
0000
1001
,  // measure 35
0000
0010
0100
0000
0010
0000
0001
1000
0020
0000
1000
0000
0100
0000
0001
0000
,  // measure 36
0130
0000
1000
0000
0010
0000
0100
0010
0000
0001
0000
1100
0000
0010
0000
0101
,  // measure 37
0000
1000
0000
0000
0001
0000
1000
0010
0000
0100
0000
0011
0000
1000
0000
0110
,  // measure 38
0000
0001
0010
0000
1000
0000
0001
0010
0000
0100
0000
1010
0000
0001
0000
1100
,  // measure 39
0000
0010
0000
0000
0110
0000
1000
0000
1001
0000
0100
0000
1100
0000
0110
0000
,  // measure 40
0101
0110
0000
0000
0000
0000
0000
0000
;

//---------------dance-double - ----------------
#NOTEDATA:;
#CHARTNAME:;
#STEPSTYPE:dance-double;
#DESCRIPTION:;
#CHARTSTYLE:;
#DIFFICULTY:Easy;
#METER:6;
#RADARVALUES:0.261276,0.265005,0.213376,0.121929,0.000000,180.000000,159.000000,21.000000,12.000000,0.000000,0.000000,0.000000,0.000000,0.000000,0.261276,0.265005,0.213376,0.121929,0.000000,180.000000,159.000000,21.000000,12.000000,0.000000,0.000000,0.000000,0.000000,0.000000;
#CREDIT:;
#NOTES:
00000000
00000000
00000000
00000000
,
00000000
00000000
00000000
00000000
,
00000000
00000000
00000000
00000000
,
00000000
00000000
00000000
00000000
00010000
00000000
00100000
00100000
,
00100000
00010000
00011000
00000100
,
00001000
00000000
00000010
00000000
00000100
00000000
00000001
00000001
,
00000001
00000010
00000100
00001000
,
00010000
00000000
00100000
00000000
00110000
00000000
01000000
01000000
,
01000000
00100000
00010000
00002000
,
00013000
00000100
00001000
00000110
,
00000100
00000001
00000100
00001000
,
00010000
00100000
01000000
00010000
,
10000000
20000000
00010000
30010000
,
00100000
00020000
00001000
00031000
,
00000100
00002000
00000001
00003001
,
00000010
00000000
00000100
00000100
00000100
00000000
00000010
00000000
,
00001000
00000100
00101000
00011000
,
01000000
00000000
00100000
00100000
01000000
00000000
10000000
00000000
,
00100000
00010000
00010100
00011000
,
00001000
00000020
00000130
00000001
,
00000100
00000010
00001100
00011000
,
00010000
00000000
01000000
01000000
00100000
00000000
01000000
00000000
,
10000000
00100000
00110000
00011000
,
00000100
00000000
00002000
00000000
00003010
00000000
00000100
00000100
,
00000100
00000020
00000000
00000030
,
00000100
00020000
00000000
00030000
,
00100000
00100000
00000000
00000000
02000000
00000000
13000000
00000000
,
01000000
00100000
00110000
00001000
,
00001100
00000100
00000010
00000100
,
00001000
00000000
00000001
00000001
00001000
00000000
00001000
00000000
,
00010000
00000000
00100000
00100000
01000000
00000000
00010000
00000000
,
10000000
00000000
00100000
00000000
00010000
00000000
00100000
00100000
,
00100000
00010000
00011000
00010100
,
00001000
00000000
00000010
00000010
00000100
00000000
00000002
00000000
,
00000103
00000010
00001010
00011000
,
00100000
00000000
00020000
00000000
00130000
00000000
01000000
01000000
,
10000000
00100000
00101000
00011000
,
00000100
00000000
00001000
00001000
00000010
00000000
00000200
00000000
,
00000301
00000010
00010100
00011000
,
00100000
00000000
00010000
00010000
01000000
00000000
10000000
00010000
,
10000000
00010000
00000000
00000000
00000000
00000000
00000000
00000000
;

//---------------dance-double - ----------------
#NOTEDATA:;
#CHARTNAME:;
#STEPSTYPE:dance-double;
#DESCRIPTION:;
#CHARTSTYLE:;
#DIFFICULTY:Medium;
#METER:9;
#RADARVALUES:0.309177,0.326160,0.213376,0.081286,0.000000,213.000000,192.000000,21.000000,8.000000,0.000000,0.000000,0.000000,0.000000,0.000000,0.309177,0.326160,0.213376,0.081286,0.000000,213.000000,192.000000,21.000000,8.000000,0.000000,0.000000,0.000000,0.000000,0.000000;
#CREDIT:;
#NOTES:
00000000
00000000
00000000
00000000
,
00000000
00000000
00000000
00000000
,
00000000
00000000
00000000
00000000
,
00000000
00000000
00000000
00000000
10000000
00000000
00100000
00100000
,
00100000
00000000
00010000
00000000
00001000
00000000
00000100
00001000
,
00000010
00000000
00000100
00000000
00000001
00000000
00000010
00000100
,
00001000
00000000
00010000
00000000
00100000
00000000
00010000
01000000
,
10000000
00000000
00100000
00000000
00010000
00000000
00001000
00010000
,
00000100
00000000
00001000
00001000
00000100
00000000
00001000
00000010
,
00000100
00000000
00000001
00000001
00000010
00000000
00000100
00001000
,
00000100
00000000
00010000
00010000
00100000
00000000
00010000
01000000
,
10000000
00000000
00100000
00010000
00001000
00000000
00000100
00000000
,
00010000
00000000
00001000
00010000
00000100
00010000
00001000
00010000
,
00000100
00000000
00001000
00000001
00000100
00000001
00000010
00000001
,
00000100
00000000
00001000
00100000
00010000
00100000
00001000
00100000
,
01000000
00000000
10000000
10000000
00010000
00000000
00100000
00000000
,
00010000
00002000
00013000
00011000
,
00000100
00000000
00000010
00000001
00000010
00000000
00000001
00000000
,
00000101
00000020
00001030
00011000
,
00010000
00000000
00100000
01000000
00100000
00000000
11000000
00000000
,
01000000
02000000
03010000
00011000
,
00000100
00000000
00001000
00000100
00000010
00000000
00000001
00000000
,
00000011
00000100
00000002
00000103
,
00001000
00000000
00011000
00000000
00101000
00000000
00010000
01000000
,
10000000
00000000
00100000
00100000
00010000
00000000
00001000
00000000
,
00000200
00000300
00000000
00000010
00000010
00000000
00000001
00000000
,
00000020
00000030
00000000
00001000
00001000
00000000
00010000
00000000
,
02000000
03000000
00100000
00000000
00010000
00000000
01000000
10000000
,
01000000
10000000
00000000
00000000
00100000
00100000
00010000
00010000
,
00001000
00000000
00000100
00000000
00001000
00001000
00000010
00000010
,
00000100
00000000
00000001
00000000
00000100
00000100
00001000
00001000
,
00010000
00000000
00100000
00000000
01000000
00000000
00100000
00100000
,
00100000
00000000
00010000
01000000
10000000
00000000
00110000
00000000
,
00011000
00000000
00001000
00000100
00000010
00000000
00000011
00000000
,
00001100
00000000
00001000
00010000
00100000
00000000
01010000
00000000
,
10010000
00000000
00100000
00010000
00002000
00000000
00010000
00000000
,
00013000
00000000
00001000
00000100
00000001
00000000
00000101
00000000
,
00001100
00000000
00001000
00010000
00100000
00000000
00110000
00000000
,
10100000
00000000
01000000
00010000
00001000
00000000
00011000
00000000
,
00010100
00000000
00001000
00000010
00000100
00000000
00000010
00000100
,
00000100
00000110
00000000
00000000
00000000
00000000
00000000
00000000
;

//---------------dance-double - ----------------
#NOTEDATA:;
#CHARTNAME:;
#STEPSTYPE:dance-double;
#DESCRIPTION:;
#CHARTSTYLE:;
#DIFFICULTY:Hard;
#METER:12;
#RADARVALUES:0.439815,0.428085,0.264179,0.121929,0.401349,303.000000,277.000000,26.000000,12.000000,0.000000,0.000000,0.000000,0.000000,0.000000,0.439815,0.428085,0.264179,0.121929,0.401349,303.000000,277.000000,26.000000,12.000000,0.000000,0.000000,0.000000,0.000000,0.000000;
#CREDIT:;
#NOTES:
00000000
00000000
00000000
00000000
,
00000000
00000000
00000000
00000000
,
00000000
00000000
00000000
00000000
,
00000000
00000000
00000000
00000000
00000000
00000000
00000100
00000000
00001000
00000000
00010000
00000000
00100000
00000000
00100000
00100000
,
00000000
00100000
00000000
00000000
00001000
00000000
00000000
00011000
00000000
00000000
00000000
00000000
00100000
00000000
10000000
00000000
,
01000000
00000000
00100000
00000000
00010000
00000000
00000000
00011000
00000000
00000100
00000000
00001000
00000000
00000010
00000000
00000100
,
00000000
00000010
00000000
00000000
00000100
00000000
00000000
00000110
00000000
00000000
00000100
00000000
00000001
00000000
00000100
00000000
,
00001000
00000000
00000000
00000000
00010000
00000000
00000000
00011000
00000000
00000000
01000000
00000000
00010000
00000000
00100000
00000000
,
00100000
00100000
01000000
00010000
01000000
10000000
00100000
00010000
,
00010000
00000000
00001000
00000000
00000100
00000000
00000000
00001100
00000000
00000010
00000000
00001000
00000000
00000100
00000000
00000010
,
00000000
00000100
00000000
00000000
00000001
00000000
00000100
00000000
00000010
00000000
00001000
00000000
00000100
00000000
00001000
00000000
,
00010000
00000000
00100000
00010000
01000000
01000000
10000000
00100000
,
00010000
00000000
00000000
00000000
00001000
00010000
00001000
00010000
00000100
00000000
00010000
00000000
00001000
00000100
00001000
00000000
,
00000010
00000000
00000000
00000000
00000010
00000000
00001000
00000000
00000100
00010000
00001000
00010000
00100000
00000000
00010000
00000000
,
01000000
00000000
00000000
00000000
10000000
00100000
01000000
00010000
00100000
00000000
00010000
00000000
00001000
00010000
00001000
00000000
,
00000100
00000000
00001000
00000000
00000010
00000000
00000000
00001010
00000000
00000000
00000001
00000000
00001000
00000000
00001000
00000000
,
00010000
00000000
00000100
00000000
00001000
00000000
00010000
00001000
00010000
00000000
00100000
00000000
00220000
00000000
00330000
00000000
,
00010000
00001000
00011000
00000100
00001100
00001000
00000100
00000010
,
00000100
00000000
00000001
00000100
00000010
00001000
00002200
00003300
,
00001000
00010000
01010000
00100000
00110000
00010000
01000000
10000000
,
00100000
00000000
00010000
00000000
00000000
00000000
00001000
00010000
00001000
00000000
00000100
00000000
00002020
00000000
00003030
00000000
,
00000010
00000100
00001010
00000100
00000101
00000010
00000100
00001000
,
00010000
00000000
00100000
01000000
00010000
01000000
02020000
03030000
,
01000000
00100000
01100000
01000000
11000000
10000000
00100000
00010000
,
00001000
00010000
00000200
00000000
00001300
00001000
00001000
00000000
,
00000100
00000001
00000000
00000010
00000100
00001000
00020000
00000000
,
00130000
01000000
00000000
00010000
00100000
00010000
02000000
00000000
,
13000000
00000000
10000000
00000000
00110000
00000000
00000000
00010000
00000000
00000000
00000000
00000000
00011000
00000000
00000100
00000000
,
00010000
00000000
00010000
00000000
00001000
00000000
00010000
00000100
00010000
00000000
00001000
00000000
00000010
00001000
00000010
00000000
,
00000100
00000000
00000001
00000000
00000010
00000001
00000010
00000000
00001000
00000100
00000000
00001000
00000000
00010000
00000000
00001000
,
00000000
00100000
00000000
00000000
00010000
00000000
00000000
01010000
00000000
00000000
00100000
00000000
01000000
01000000
00000000
01000000
,
00000000
00000000
00000000
00000000
00000000
00000000
00010000
00000000
00001000
00000000
00000100
00000010
00000010
00000000
00000010
00000010
,
00000000
00000100
00000000
00000000
00010000
00000000
00001000
00010000
00000000
00000100
00000000
00001000
00000000
00000010
00000000
00000100
,
00000000
00000001
00000000
00000000
00000010
00000000
00000100
00001000
00000000
00010000
00000000
00100000
00000000
00010000
00000000
01000000
,
00000000
00100000
00000000
00000000
01000000
00000000
10000000
00100000
00000000
00010000
00000000
00001000
00000000
00010000
00000000
00000100
,
00000000
00001000
00000000
00000000
00000010
00000000
00000100
00000000
00000020
00000000
00000000
00000000
00000100
00000000
00000100
00000000
,
00000031
00000000
00000100
00000000
00000010
00000000
00001000
00000100
00000000
00010000
00000000
00001000
00000000
00010000
00000000
00100000
,
00000000
01000000
00000000
00000000
01000000
00000000
10000000
00100000
00000000
00010000
00000000
00001000
00000000
00000100
00000000
00000010
,
00000000
00001000
00000000
00000000
00000100
00000000
00000001
00000010
00000000
00000100
00000000
00001000
00000000
00010000
00000000
00100000
,
00000000
00010000
00000000
00000000
00011000
00000000
00010000
00000000
00101000
00000000
00000000
00000000
00011000
00000000
00001000
00000000
,
00110000
01100000
00000000
00000000
00000000
00000000
00000000
00000000
;
