#TITLE:も、妄想マシーン。;
#SUBTITLE:;
#ARTIST:田村ひより(清水香里);
#TITLETRANSLIT:Mo, Mousou Machine;
#SUBTITLETRANSLIT:;
#ARTISTTRANSLIT:Hiyori Tamura (Kaori Shimizu);
#GENRE:ANIME;
#CREDIT:SAIKIO;
#BANNER:Mo, Mousou Machine-banner.png;
#BACKGROUND:Mo, Mousou Machine-bg.png;
#LYRICSPATH:;
#CDTITLE:Saikio Simfiles.png;
#MUSIC:Mo, Mousou Machine.ogg;
#OFFSET:0.160000;
#SAMPLESTART:43.564022;
#SAMPLELENGTH:16.080042;
#LASTBEATHINT:384.998962;
#SELECTABLE:YES;
#BPMS:0.000000=170.020004
;
#STOPS:
;
#BGCHANGES:;
#KEYSOUNDS:;
#ATTACKS:;

//---------------dance-single - ----------------
#NOTES:
     dance-single:
     :
     Beginner:
     2:
     0.155626,0.172516,0.022082,0.000000,0.000000,148.000000,145.000000,3.000000,0.000000,0.000000,0.000000,0.155626,0.172516,0.022082,0.000000,0.000000,148.000000,145.000000,3.000000,0.000000,0.000000,0.000000:
// measure 0
0000
0000
0000
0000
,  // measure 1
0000
0000
0000
0000
,  // measure 2
0000
0000
0000
0000
,  // measure 3
0000
0000
0000
0000
,  // measure 4
0000
0000
0000
0000
,  // measure 5
0000
0000
0000
0000
,  // measure 6
0000
0000
0000
0000
,  // measure 7
1000
0000
1000
0000
,  // measure 8
0001
0000
0000
0000
,  // measure 9
0010
0000
0100
0000
,  // measure 10
0010
0000
0000
0000
,  // measure 11
1000
0000
0100
0000
,  // measure 12
0010
0000
0000
0000
,  // measure 13
0001
0000
0100
0000
,  // measure 14
0001
0000
0000
0000
,  // measure 15
0010
0000
0100
0000
,  // measure 16
1000
0000
0000
0000
,  // measure 17
1000
0000
0100
0000
,  // measure 18
0001
0000
0000
0000
,  // measure 19
0010
0000
0001
0000
,  // measure 20
0100
0000
0000
0000
,  // measure 21
1000
0000
0100
0000
,  // measure 22
1000
0000
0000
0000
,  // measure 23
0000
0001
0000
0001
,  // measure 24
0000
1000
0000
0000
,  // measure 25
0000
0100
0000
0100
,  // measure 26
0000
0010
0000
0000
,  // measure 27
0000
0001
0000
0001
,  // measure 28
0000
0010
0000
0010
,  // measure 29
0000
0100
0000
0100
,  // measure 30
0000
0000
0100
0100
,  // measure 31
0000
0000
0000
0000
,  // measure 32
0010
0000
0010
0000
,  // measure 33
1000
0000
0100
0100
,  // measure 34
0000
0000
0010
0000
,  // measure 35
0001
0000
0010
0010
,  // measure 36
0000
0000
0100
0000
,  // measure 37
0001
0000
0001
0000
,  // measure 38
1000
1000
0000
0000
,  // measure 39
0001
0001
0000
0000
,  // measure 40
0100
0000
0100
0000
,  // measure 41
0001
0000
0100
0100
,  // measure 42
0000
0000
0100
0000
,  // measure 43
0001
0000
0010
0010
,  // measure 44
0000
0000
1000
0000
,  // measure 45
0010
0000
0001
0000
,  // measure 46
0001
0001
0000
0000
,  // measure 47
1000
1000
0000
1000
,  // measure 48
0000
0000
0001
0000
,  // measure 49
0010
0100
0000
0000
,  // measure 50
0001
0000
0100
0000
,  // measure 51
0000
0000
0000
1001
,  // measure 52
0000
0000
0000
0000
,  // measure 53
1000
0000
0000
0000
,  // measure 54
0001
0000
0000
0000
,  // measure 55
0100
0000
0000
0000
,  // measure 56
0010
0010
0000
0000
,  // measure 57
0100
0100
0000
0000
,  // measure 58
0010
0000
0100
0000
,  // measure 59
0010
0000
0000
0000
,  // measure 60
0001
0000
0001
0000
,  // measure 61
0100
0000
0100
0000
,  // measure 62
1000
0000
0010
0000
,  // measure 63
0100
0000
0000
0000
,  // measure 64
1000
0000
1000
0000
,  // measure 65
0100
0000
0100
0000
,  // measure 66
0010
0000
0001
0000
,  // measure 67
0010
0000
0000
0000
,  // measure 68
0100
0000
0010
0000
,  // measure 69
0001
0000
0100
0000
,  // measure 70
1000
0000
0100
0010
,  // measure 71
0000
0000
0000
0000
,  // measure 72
0010
0000
0001
0000
,  // measure 73
0100
0000
1000
0000
,  // measure 74
1000
0000
0100
0000
,  // measure 75
0010
0000
0001
0000
,  // measure 76
0001
0000
0000
0000
,  // measure 77
0010
0000
0001
0000
,  // measure 78
1000
1000
0000
0000
,  // measure 79
0001
0001
0000
0000
,  // measure 80
1000
0000
0100
0000
,  // measure 81
0001
0000
0010
0000
,  // measure 82
0010
0000
0001
0000
,  // measure 83
1000
0000
0100
0000
,  // measure 84
0100
0000
0000
0000
,  // measure 85
0010
0000
1000
0000
,  // measure 86
0100
0100
0000
0000
,  // measure 87
0010
0010
0000
0010
,  // measure 88
0000
0000
0000
0000
,  // measure 89
0100
0010
0000
0000
,  // measure 90
0000
0000
0000
0000
,  // measure 91
0010
0000
0000
1001
,  // measure 92
0000
0000
0000
0000
,  // measure 93
0001
0000
0000
0110
;

//---------------dance-single - ----------------
#NOTES:
     dance-single:
     :
     Easy:
     4:
     0.267088,0.310529,0.066246,0.036803,0.000000,254.000000,245.000000,9.000000,5.000000,0.000000,0.000000,0.267088,0.310529,0.066246,0.036803,0.000000,254.000000,245.000000,9.000000,5.000000,0.000000,0.000000:
0000
0000
0000
0000
,
0000
0000
0000
0000
,
0000
0000
0000
0000
,
0000
0000
0000
0000
,
0000
0000
0000
0000
,
1000
0001
1000
0100
,
0000
0000
0000
0000
,
0001
0010
0100
0000
,
1000
0100
0010
0000
,
1000
0001
0100
0000
,
0010
1000
0000
0000
,
0100
0100
0001
0000
,
0010
0010
1000
0000
,
1000
0010
0001
0000
,
0001
0100
0000
0000
,
0100
0100
0010
0000
,
0001
0100
0000
0000
,
1000
0001
1000
0000
,
0010
0100
0000
0000
,
0001
0100
1000
0000
,
0010
1000
0100
0000
,
0010
0010
0001
0000
,
0100
0100
1000
0000
,
0001
0000
1000
0100
,
1000
0010
0100
0000
,
1000
0000
0010
0001
,
0100
0010
0100
0000
,
0001
0000
0100
0010
,
0000
1000
0100
0010
,
0000
0001
0000
0100
,
0000
0010
0100
0000
,
0000
0000
0000
0000
,
1000
1000
0001
0000
,
0010
0100
0001
1000
,
0100
0100
0010
0000
,
0001
0100
0010
1000
,
0001
0001
0100
0000
,
0010
1000
0100
0000
,
1001
0000
0010
0000
,
0110
0000
0010
1000
,
0000
0010
0010
0000
,
0001
0100
1000
0010
,
0000
0001
0001
0000
,
0100
1000
0001
0010
,
0000
0100
0100
0000
,
0001
0100
0010
0000
,
0002
0003
1000
0000
,
0020
0030
0100
0010
,
0000
0100
0100
0000
,
1000
0001
0000
0000
,
0001
0100
0010
0000
,
1000
0000
0000
1001
,
0000
0100
0100
0000
,
0010
0000
0100
0000
,
0001
0000
0001
0000
,
0100
0000
0000
0000
,
0010
0000
1000
0000
,
0100
0000
0010
0000
,
0001
0000
0100
0000
,
0020
0000
0030
0000
,
0100
0010
1000
0100
,
0010
0010
0001
0001
,
0100
0010
0001
1000
,
0100
0010
0000
1000
,
1000
0010
0001
0100
,
0100
1000
0100
0000
,
1000
0010
1000
0100
,
0010
0001
0000
0010
,
0100
0001
0100
0010
,
1000
0100
0010
0000
,
0001
1000
0010
1001
,
0000
0000
0000
0000
,
1000
1000
0100
0010
,
0001
0000
0100
1000
,
0100
0100
0001
0000
,
0010
0001
0100
0000
,
0010
0010
0001
0000
,
0100
0001
1000
0100
,
2000
3000
0001
0000
,
0200
0300
0010
0000
,
0110
0001
0001
0000
,
0010
0001
0100
1000
,
0010
1000
1000
0000
,
0100
0001
0100
0010
,
1000
0010
0010
0000
,
0100
0010
1000
0100
,
1001
0000
0010
0000
,
0110
0000
0010
0000
,
0100
0100
0010
0000
,
1000
0100
0000
0000
,
0010
0001
0100
0000
,
0010
1000
0000
1001
,
0000
0010
0100
0000
,
0001
0100
0000
0110
;

//---------------dance-single - ----------------
#NOTES:
     dance-single:
     :
     Medium:
     9:
     0.357519,0.414038,0.066246,0.044164,0.000000,340.000000,331.000000,9.000000,6.000000,0.000000,0.000000,0.357519,0.414038,0.066246,0.044164,0.000000,340.000000,331.000000,9.000000,6.000000,0.000000,0.000000:
0000
0000
0000
0000
,
0000
0000
0000
0000
,
0000
0000
0000
0000
,
0000
0000
0000
0000
,
0000
0000
0000
0000
,
0010
0000
0010
0001
0000
0000
0100
0000
,
0000
0000
0010
0000
,
1000
0100
0001
0010
,
0100
1000
0100
0010
,
0001
0001
0100
0010
,
1000
0000
1000
0100
0000
0000
0000
0000
,
0010
0010
0100
0001
,
1000
1000
0100
0000
,
0001
0000
0001
0010
0000
0000
0100
0000
,
0001
0010
0000
0001
,
0100
0100
0010
1000
,
0010
0010
0100
0000
,
0001
0001
0100
0010
,
1000
0000
1000
0001
0000
0000
0000
0000
,
0010
0001
0100
0100
,
0001
1000
0001
0001
,
0100
0000
0100
0010
0000
0000
0010
0000
,
1000
1000
0010
0000
,
0010
0100
0001
0010
,
0100
1000
0100
0110
,
0000
1000
0100
0001
,
0010
1000
0100
0110
,
0000
0000
0001
0000
1000
0000
1000
0010
,
0000
0000
0010
0000
0001
0000
0001
0100
,
0000
0100
1000
0001
,
0100
0000
0010
0000
0100
0010
0100
0000
,
0000
0000
0000
0000
,
0010
0100
0100
0001
,
0010
0000
0100
0001
0000
1000
0000
0001
,
0000
0010
0010
0001
,
0100
0000
1000
0100
0000
0010
0000
0100
,
0000
0001
0001
0000
,
1000
0100
1000
0010
,
1010
0100
0010
0001
,
0101
0000
0000
0010
0000
1000
0000
0200
,
0000
0310
0010
0100
,
0010
0000
1000
0001
0000
0100
0000
1000
,
0000
0100
0100
0001
,
1000
0000
0010
1000
0000
0010
0000
0001
,
0000
0001
0001
0000
,
0100
0010
1000
0100
,
0101
0010
1000
0100
,
1010
0000
1000
0010
0000
0001
0000
0020
,
0000
0130
0100
0000
,
0010
0100
0010
0000
0000
0000
0000
0000
,
0010
0010
1000
0000
,
0100
0001
0010
0110
,
0000
0000
0001
0000
0000
0100
0000
0000
,
0010
0000
0000
1000
0000
0000
0100
0000
,
0000
0002
0000
0000
0010
0000
0010
0000
,
0100
0100
0013
0000
,
0100
0001
0001
0100
,
0100
0000
0010
0000
0000
1000
0000
0000
,
0100
0010
0001
0100
,
0100
0010
0000
0000
0100
0000
0010
0000
,
1000
0100
1000
0000
0001
0010
0001
0000
,
0100
0100
0010
0000
0100
0000
0001
0000
,
1000
1000
0100
0100
,
0010
0000
0001
0200
0000
0000
0300
0000
,
0010
0010
1000
0001
,
0100
0000
0100
0010
0100
0000
0001
0000
,
0100
0100
0010
0000
1000
0000
0100
0000
,
0010
0010
0001
0000
0100
0000
0010
0000
,
1000
0000
1000
0001
0000
0000
0100
0000
,
0100
0010
0000
0000
1000
0000
0100
0000
,
0001
0000
1000
0000
0100
0010
0100
0000
,
0000
0000
0000
0000
,
0010
1000
1000
0010
,
0100
0000
0001
0100
0000
0010
0000
1000
,
0000
0100
0100
0001
,
0100
0000
1000
0010
0000
0001
0000
0100
,
0000
0010
0010
0001
,
1000
0000
0100
0010
0100
0000
0001
0000
,
1000
0000
1000
0010
0000
0100
0000
0000
,
0001
0000
0100
0001
0000
1000
0000
0200
,
0000
0310
0010
0001
,
0100
0000
0100
0010
0000
1000
0000
0100
,
0000
1000
1000
0100
,
0010
0000
0001
0010
0000
0001
0000
0100
,
0000
0001
0001
0100
,
0010
0100
0010
0000
0001
0000
0100
0000
,
1000
0000
1000
0100
0000
0010
0000
0000
,
0001
0000
0001
0010
0000
0100
0000
0020
,
0000
0130
0100
0001
,
0010
0100
0010
0000
0000
0000
0000
0000
,
0010
1000
0100
0000
,
0010
0001
0100
0110
,
0000
0001
0100
0010
,
1000
0100
0010
1001
;

//---------------dance-single - ----------------
#NOTES:
     dance-single:
     :
     Hard:
     12:
     0.505784,0.552051,0.198738,0.154574,0.000000,481.000000,454.000000,27.000000,21.000000,0.000000,0.000000,0.505784,0.552051,0.198738,0.154574,0.000000,481.000000,454.000000,27.000000,21.000000,0.000000,0.000000:
0000
0000
0000
0000
,
0000
0000
0000
0000
,
0000
0000
0000
0000
,
0000
0000
0000
0000
,
0000
0000
0000
0000
,
0010
1000
0010
0100
0000
0000
0200
0000
,
0000
0300
0000
0001
0010
0000
0001
0000
,
0100
0010
1000
0100
0010
0000
0001
1000
,
0010
0100
0001
0000
1000
0000
0100
0000
,
0010
0100
1000
0000
0001
0000
0010
0000
,
1000
0000
1000
0001
0000
0000
0100
0000
,
0010
0000
0001
0000
0100
1000
0010
0000
,
0100
0010
0001
0010
0000
0001
0100
0000
,
0010
0000
1000
0001
0000
1000
0100
1000
,
0010
1000
0001
0100
0000
0000
0010
0000
,
1000
0000
0100
0000
0001
0000
1000
0100
,
1000
0000
0010
1000
0000
0100
0000
1000
,
0010
1000
0100
0010
0001
0000
0010
0100
,
1000
0000
0100
0001
0000
0000
0010
0000
,
1000
0000
0001
0000
1000
0100
1000
0000
,
0001
0010
0001
0100
0000
0010
1000
0000
,
0002
0000
0103
0010
0000
0001
0010
0100
,
2000
0000
3001
0100
0000
0010
0100
0000
,
0001
0000
1000
0010
1000
0100
1000
0010
,
0000
0100
0100
0001
0010
0000
0110
0000
,
1000
0000
0010
0001
0010
0000
0100
0010
,
0000
1000
1000
0100
0001
0000
1001
0000
,
0100
0000
1000
0100
0010
0100
0001
1000
,
0000
0010
0100
0010
0001
1000
0100
0010
,
0000
0000
0001
0100
0010
1000
0000
0000
,
0100
0010
0100
0010
0000
0001
0010
0100
,
0000
0000
0000
0000
,
1000
0010
1000
0000
0001
0000
1000
0100
,
0010
0000
0001
0100
0000
0010
0000
2010
,
0000
0000
0100
0000
3100
0000
0010
0100
,
0001
0000
1000
0100
0000
0100
0000
0102
,
0000
0000
0010
0000
0013
0000
0000
0001
,
0100
0010
0001
0010
0100
1000
0001
0000
,
1000
0100
0010
0100
0001
0000
0010
0000
,
0010
0001
0100
0010
0000
1001
0000
0020
,
0000
0000
0100
0000
0130
0000
0001
0010
,
0100
0000
1000
0001
0000
0010
0000
2100
,
0000
0000
0001
0000
3001
0000
0010
1000
,
0100
0000
0010
0001
0000
1000
0000
0012
,
0000
0000
1000
0000
1003
0000
0000
0001
,
0100
0010
1000
0100
0010
0001
0100
0000
,
0010
0000
0010
1000
0000
0100
1000
0001
,
0100
0000
0010
0010
0000
1000
0000
0020
,
0000
0130
0100
0001
,
0100
0010
0100
0001
0000
0000
0000
0000
,
0100
0010
0100
1000
0001
0010
0000
1000
,
0000
0100
0010
0001
0100
0000
1001
0000
,
0000
0000
1100
0000
0000
0011
0000
0000
,
0110
0000
0000
0101
0000
0000
1100
0000
,
0010
2000
0000
0000
3002
0000
0000
0000
,
0013
1000
0001
0000
0100
0000
1000
0000
,
0010
0000
1100
0000
0001
0100
0000
0000
,
0011
0000
0010
1000
0000
1000
0100
0000
,
0010
0001
0100
0000
0010
0000
1000
0100
,
0001
0020
0000
0000
0130
0000
0100
0000
,
0010
0010
1000
0001
1000
0010
0100
0010
,
0100
0001
0010
0100
1000
0001
0100
0000
,
0010
0000
1000
0100
0010
0010
1000
1000
,
0100
0010
0100
0002
0000
0000
0000
0103
,
0010
0100
0001
0010
0100
1000
0100
1000
,
0001
0010
0001
0100
0010
0000
0000
1000
,
0100
0001
0100
0010
0001
0100
0010
2000
,
0000
3100
0000
0000
0010
0000
1000
0100
,
0000
0100
1000
0010
0000
0001
0100
0000
,
0100
0010
0000
1000
0100
0010
0001
0000
,
0100
0100
0001
0100
0000
0010
0100
0020
,
0000
0030
0000
0000
0000
0000
0000
0000
,
0100
0010
1000
0000
0100
0000
0010
0001
,
0100
0000
0100
0010
0000
1001
0000
2100
,
0000
0000
0010
0000
3010
0000
0001
0100
,
0010
0000
1000
0100
0000
0110
0000
0102
,
0000
0000
0100
0000
0103
0000
0001
0100
,
0010
1000
0001
0010
0100
1000
0100
0000
,
0010
0001
0100
0010
0000
0010
1000
0000
,
0100
0000
0001
0010
0000
1001
0000
0120
,
0000
0000
1000
0000
0031
0000
0010
1000
,
0100
0000
1000
0001
0000
0110
0000
2001
,
0000
0000
0100
0000
3010
0000
0001
0100
,
0010
0000
1000
0001
0000
1010
0000
0201
,
0000
0000
0010
0000
1300
0000
0000
0010
,
0100
0001
1000
0100
0010
0000
0001
0000
,
0100
0000
0100
0010
0000
1000
0001
0000
,
0100
0000
0100
0001
0000
0010
0000
0200
,
0000
0310
0010
0000
,
1000
0100
0010
0001
0000
0000
0000
0000
,
0100
0010
1000
0100
0001
0100
0000
0010
,
0000
0001
0010
0100
1000
0000
0110
0000
,
0000
1000
0010
0100
0010
0001
0100
1000
,
0000
0010
1000
0001
0100
0000
1001
0000
;

//---------------dance-double - ----------------
#NOTES:
     dance-double:
     :
     Easy:
     5:
     0.266036,0.345032,0.044164,0.080967,0.000000,253.000000,247.000000,6.000000,11.000000,0.000000,0.000000,0.266036,0.345032,0.044164,0.080967,0.000000,253.000000,247.000000,6.000000,11.000000,0.000000,0.000000:
00000000
00000000
00000000
00000000
,
00000000
00000000
00000000
00000000
,
00000000
00000000
00000000
00000000
,
00000000
00000000
00000000
00000000
,
00000000
00000000
00000000
00000000
,
00010000
00000000
00100000
00000000
,
00000000
00000000
00000000
00000000
,
00010000
00010000
00001000
00000000
,
00001000
00001000
00010000
00000000
,
00001000
00000100
00000001
00000000
,
00000010
00000100
00000000
00000000
,
00001000
00010000
01000000
00000000
,
00100000
10000000
00010000
00000000
,
00100000
00010000
00001000
00000000
,
00000100
00000010
00000000
00000000
,
00000001
00000100
00001000
00000000
,
00010000
01000000
00000000
00000000
,
00100000
10000000
00010000
00100000
,
00010000
00001000
00000000
00000000
,
00001000
00001000
00000100
00000000
,
00000010
00000010
00000100
00000000
,
00000001
00000000
00000100
00000000
,
00001000
00010000
00100000
00000000
,
00010000
01000000
10000000
00100000
,
00000000
00010000
00001000
00000000
,
00001000
00000100
00000001
00000000
,
00000010
00000000
00000100
00001000
,
00000000
00010000
00010000
01000000
,
00000000
00100000
00100000
01000000
,
00000000
10000000
00010000
00000000
,
00200000
00300000
00100000
00000000
,
00000000
00000000
00000000
00000000
,
00001000
00001000
00000001
00000000
,
00000010
00000100
00001000
00000000
,
00010000
00010000
10000000
00000000
,
00100000
00010000
00001000
00000100
,
00000000
00000010
00000010
00000000
,
00000001
00000010
00000100
00000000
,
00002000
00003000
00000100
00000000
,
00020000
00030000
00100000
00000000
,
00010000
00010000
01000000
00000000
,
00100000
10000000
00010000
00100000
,
00001000
00001000
00000100
00000000
,
00001000
00000010
00000100
00000001
,
00000100
00000100
00000010
00000000
,
00000100
00001000
00010000
00001000
,
00200000
00300000
00010000
00000000
,
02000000
03000000
10000000
00000000
,
00100000
00100000
00010000
00000000
,
00001000
00010000
00000000
00000000
,
00001000
00000100
00000000
00000000
,
00000010
00001000
00000000
00001010
,
00000000
00001000
00000000
00010000
,
00000000
01000000
00000000
10000000
,
00000000
00100000
00010000
00001000
,
00000100
00000002
00000000
00000003
,
00000010
00000000
00001000
00000000
,
00000100
00000000
00010000
00000000
,
00100000
00100000
00000000
01000000
,
01000000
00000000
00000000
00000000
,
00100000
00010000
00001000
00000100
,
00000010
00001000
00000001
00000000
,
00000100
00001000
00010000
00100000
,
01000000
20000000
30000000
00000000
,
00100000
00010000
00001000
00000100
,
00000001
00000010
00000100
00000000
,
00000010
00000010
00000100
00000001
,
00000100
00000000
00001000
00000000
,
00010000
01000000
10000000
00100000
,
00010000
00001000
00000100
00000001
,
00000010
00000100
00001000
00010000
,
00000000
00000000
00000000
00000000
,
00100000
00100000
00010000
01000000
,
10000000
00100000
00010000
00001000
,
00000100
00000100
00000010
00000000
,
00000001
00000100
00001000
00000010
,
00001000
00001000
00010000
00000000
,
00010000
01000000
10000000
00100000
,
00020000
00030000
00001000
00000000
,
00000200
00000300
00000010
00000000
,
00000011
00000100
00001000
00000000
,
00000100
00001000
00010000
00100000
,
00110000
01000000
10000000
00000000
,
00100000
00010000
00001000
00000100
,
00001100
00000010
00000001
00000000
,
00000100
00001000
00010000
00001000
,
00000200
00000300
00001000
00000000
,
00000020
00000030
00000001
00000100
,
00000000
00000010
00000010
00000000
,
00001000
00010000
00000000
00000000
,
00010000
00100000
01000000
00000000
,
00010000
00000100
00000000
00011000
,
00000000
00010000
00100000
00000000
,
10000000
01000000
00000000
01100000
;

//---------------dance-double - ----------------
#NOTES:
     dance-double:
     :
     Medium:
     9:
     0.366983,0.414038,0.058885,0.080967,0.000000,349.000000,341.000000,8.000000,11.000000,0.000000,0.000000,0.366983,0.414038,0.058885,0.080967,0.000000,349.000000,341.000000,8.000000,11.000000,0.000000,0.000000:
00000000
00000000
00000000
00000000
,
00000000
00000000
00000000
00000000
,
00000000
00000000
00000000
00000000
,
00000000
00000000
00000000
00000000
,
00000000
00000000
00000000
00000000
,
00001000
00000000
00010000
00200000
,
00300000
00000000
00100000
00000000
,
01000000
10000000
00100000
00010000
,
00001000
00000100
00000010
00000010
,
00000100
00000001
00001000
00000000
,
00000100
00001000
00000000
00000000
,
00100000
00010000
01000000
00000000
,
01000000
10000000
00100000
00000000
,
00010000
00001000
00000100
00000000
,
00000010
00000000
00001000
00000100
00000000
00000000
00000000
00000000
,
00000010
00000001
00000100
00001000
,
00010000
00000000
00010000
00010000
00000000
00010000
00000000
00000000
,
00100000
01000000
10000000
00100000
,
00010000
00000000
00001000
00010000
00000000
00000000
00000000
00000000
,
00001000
00000100
00000010
00001000
,
00000001
00000100
00000010
00000000
,
00001000
00000000
00001000
00010000
00000000
00000000
00100000
00000000
,
00010000
00000000
00010000
01000000
00000000
00000000
00010000
00000000
,
01000000
10000000
00100000
00010000
,
00001000
00000000
00010000
00001000
00010000
00000000
00000100
00000000
,
00000000
00001000
00000010
00000100
,
00000001
00000000
00000010
00000001
00000010
00000000
00000100
00000000
,
00000000
00000010
00001000
00001100
,
00000000
00001000
00010000
00110000
,
00000000
00010000
01000000
10000000
,
00100000
00000000
00010000
00100000
00000000
01000000
01000000
00000000
,
00000000
00000000
00000000
00000000
,
00100000
00010000
00001000
00000000
00001000
00000000
00000010
00000000
,
00000100
00000010
00000001
00000100
,
00000010
00000100
00001000
00000000
00001000
00000000
00010000
00000000
,
00100000
00010000
10000000
00100000
,
00010000
00001000
00000100
00000000
00000100
00000000
00000010
00000000
,
00001000
00001000
00000001
00000000
00001000
00000000
00000100
00000000
,
00000100
00001000
00010000
00000000
00100000
00000000
00010000
00000000
,
00001000
00000100
00000010
00000000
00000001
00000000
00000110
00000000
,
00000000
00000100
00000100
00000001
,
00000100
00000000
00000010
00001000
00000000
00010000
00000000
00000100
,
00000000
00010000
00010000
01000000
,
00100000
00000000
10000000
00100000
00000000
01000000
00000000
00010000
,
00000000
00001000
00001000
00000100
,
00001100
00000010
00000110
00000001
,
00000010
00000000
00000010
00000100
00000000
00001000
00000000
00000000
,
00000100
00000000
00000100
00001000
00000000
00010000
00000000
00200000
,
00000000
00310000
00010000
00000000
,
00010000
01000000
10000000
00000000
00000000
00000000
00000000
00000000
,
00100000
00100000
00010000
00000000
,
00010000
00001000
00000100
00011000
,
00000000
00000000
00002000
00000000
00000000
00003200
00000000
00000000
,
00000320
00000000
00000000
00000032
00000000
00000000
00001003
00000000
,
00000000
00000200
00000000
00000000
00002300
00000000
00000000
00000000
,
00013000
00010000
00010000
00000000
,
00010000
01000000
10000000
00100000
,
00000000
00010000
00001000
00000000
00000100
00000010
00000000
00000000
,
00000100
00001000
00000010
00000100
,
00000100
00000020
00000000
00000000
00000030
00000000
00000000
00000000
,
00000100
00000000
00000001
00000000
00000100
00000000
00000100
00001000
,
00000100
00000000
00001000
00010000
00001000
00000000
00010000
00000000
,
01000000
10000000
00100000
00010000
,
00001000
00010000
00001000
00000100
00000000
00000000
00001000
00000000
,
00001000
00000010
00000100
00000000
00000010
00000000
00000001
00000000
,
00000100
00000010
00001000
00000000
00000100
00000000
00001000
00000000
,
00010000
00100000
01000000
00000000
10000000
00000000
00100000
00100000
,
00000000
01000000
00000000
00000000
10000000
00000000
00100000
00000000
,
00010000
00000000
00010000
00001000
00000000
00000000
00010000
00000000
,
00000100
00001000
00000000
00000000
00000010
00000000
00000100
00000000
,
00000001
00000000
00001000
00000000
00000100
00001000
00010000
00000000
,
00000000
00000000
00000000
00000000
,
00010000
01000000
10000000
00000000
00100000
00000000
00010000
00000000
,
00001000
00000000
00010000
00001000
00000000
00010000
00000000
00000100
,
00000000
00001000
00000010
00000000
00000100
00000000
00000001
00000000
,
00000010
00000000
00000100
00000010
00000000
00001000
00000000
00000100
,
00000000
00010000
00001000
00000000
00010000
00000000
01000000
00000000
,
10000000
01000000
00100000
00000000
00010000
00000000
00001000
00000000
,
00010000
00001000
00010000
00001000
00000100
00000000
00000100
00000000
,
00000010
00000001
00000100
00000010
00000000
00000001
00000000
00000200
,
00000000
00000310
00000010
00001000
,
00000100
00000000
00001000
00010000
00000000
00100000
00000000
01000000
,
00000000
00100000
00010000
00000000
01000000
00000000
10000000
00000000
,
00100000
00000000
00010000
00001000
00000000
00000100
00000000
00000010
,
00000000
00000100
00000001
00000000
00000010
00000000
00000100
00000000
,
00000001
00000010
00000100
00001000
,
00010000
00000000
00010000
00001000
00000000
00100000
00000000
00000000
,
10000000
00000000
00100000
00010000
00000000
00001000
00000000
00020000
,
00000000
00031000
00001000
00000000
,
00001000
00000100
00000001
00000000
00000000
00000000
00000000
00000000
,
00001000
00000100
00000010
00000000
,
00001000
00010000
00100000
00101000
,
00000000
00000000
00010000
00100000
01000000
00000000
00010000
00000000
,
00001000
00010000
00000100
00010100
;

//---------------dance-double - ----------------
#NOTES:
     dance-double:
     :
     Hard:
     12:
     0.490011,0.517548,0.191378,0.132492,0.000000,466.000000,440.000000,26.000000,18.000000,0.000000,0.000000,0.490011,0.517548,0.191378,0.132492,0.000000,466.000000,440.000000,26.000000,18.000000,0.000000,0.000000:
00000000
00000000
00000000
00000000
,
00000000
00000000
00000000
00000000
,
00000000
00000000
00000000
00000000
,
00000000
00000000
00000000
00000000
,
00000000
00000000
00000000
00000000
,
00100000
00000000
00100000
00010000
00000000
00000000
00002000
00000000
,
00000000
00003000
00010000
00001000
,
00001000
00000100
00000010
00000001
00000100
00000000
00000010
00001000
,
00010000
00100000
00010000
00000000
00100000
00000000
01000000
00000000
,
00010000
01000000
10000000
00000000
00100000
00000000
00010000
00000000
,
00001000
00000000
00001000
00010000
00000000
00000100
00001000
00000000
,
00000010
00000000
00000001
00000000
00001000
00000100
00001000
00000000
,
00000010
00000010
00000100
00000010
00000000
00000001
00000100
00000000
,
00000010
00000000
00000010
00001000
00000000
00000100
00010000
00001000
,
00010000
00000000
00100000
00010000
00000000
00000000
01000000
00000000
,
10000000
00000000
00100000
00000000
00010000
00000000
00001000
00010000
,
00001000
00000000
00000100
00001000
00000000
00001000
00000000
00000000
,
00000010
00000100
00000001
00000000
00000010
00000000
00001000
00000000
,
00000100
00000000
00000100
00000010
00000000
00000000
00001000
00000000
,
00001000
00000000
00100000
00000000
00010000
00100000
01000000
00000000
,
00010000
01000000
10000000
00100000
00000000
00010000
00010000
00000000
,
00001000
00000000
00010000
00000100
00000000
00001000
00000010
00000000
,
00000100
00000000
00000100
00000001
00000000
00000010
00000100
00000000
,
00001000
00000000
00000100
00001000
00010000
00000000
00100000
00000000
,
01000000
10000000
00110000
01010000
,
10000000
00000000
00100000
00010000
00001000
00000000
00010000
00000100
,
00000000
00001000
00000010
00000000
00000110
00000000
00000011
00000000
,
00000100
00000000
00000010
00001000
00000100
00000000
00001000
00001000
,
00000000
00010000
00001000
00000000
00010000
00000000
01000000
01000000
,
00000000
00000000
00100000
00010000
10000000
00000000
00100000
00000000
,
00100000
00010000
00001000
00000100
00000000
00001000
00010000
00100000
,
00000000
00000000
00000000
00000000
,
00010000
01000000
10000000
00000000
00100000
00000000
00010000
00001000
,
00010000
00000000
00000100
00001000
00000000
00000010
00000000
00002020
,
00000000
00003030
00000100
00000000
00000100
00000000
00000010
00001000
,
00000100
00000000
00001000
00010000
00000000
00001000
00000000
00220000
,
00000000
00330000
01000000
00000000
01000000
00000000
10000000
00100000
,
00001000
00010000
00001000
00000000
00000100
00000010
00000100
00000000
,
00001000
00010000
01000000
10000000
01000000
00100000
00000000
00000000
,
00010000
00001000
00000100
00000010
00000000
00000010
00000000
00000200
,
00000000
00000000
00000310
00000000
00000010
00000000
00000001
00000100
,
00001000
00000000
00000010
00001000
00000000
00010000
00000000
00202000
,
00000000
00303000
00010000
00000000
00010000
00000000
00100000
01000000
,
10000000
00000000
00100000
00010000
00000000
00001000
00000000
00020200
,
00000000
00030300
00001000
00000000
00001000
00000000
00000100
00000000
,
00001000
00000010
00000100
00000000
00000001
00000010
00000100
00000000
,
00000010
00001000
00000100
00010000
00000000
00001000
00000000
00000000
,
00010000
00000000
00010000
01000000
00000000
10000000
00000000
00200000
,
00000000
01300000
01000000
00010000
,
00001000
00000100
00000010
00000100
00000000
00000000
00000000
00000000
,
00010000
00100000
00010000
01000000
00100000
00000000
00000000
00100000
,
00000000
00100000
00010000
00001000
00010000
00000000
00011000
00000000
,
00000000
00000000
00001100
00000000
00000000
00000110
00000000
00000000
,
00000011
00000000
00000000
00001100
00000000
00000000
00011000
00000000
,
00000000
00020000
00000000
00000000
02030000
00000000
00100000
00000000
,
10000000
00100000
03100000
00000000
,
00010000
00000000
00001000
00000000
00000100
00000000
00000100
00001000
,
00000000
00000010
00000100
00000000
00000100
00000001
00000010
00000000
,
00000100
00000000
00001000
00000000
00000100
00000000
00010000
00001000
,
00000000
00010000
00100000
01000000
00100000
10000000
01000000
00000000
,
00100000
01000000
10000000
00000000
00100000
00000000
00010000
00000000
,
00001000
00000100
00000010
00000000
00000001
00000000
00000100
00000000
,
00000010
00001000
00000010
00001000
00000100
00001000
00000100
00000010
,
00000100
00000010
00001000
00000001
00000000
00000000
00000100
00000000
,
00000010
00000001
00000100
00000000
00001000
00000000
00010000
00000000
,
00100000
01000000
00100000
00000000
10000000
00000000
00100000
00000000
,
00100000
00010000
00001000
00000100
00000010
00000001
00000100
00002000
,
00000000
00003100
00000000
00001000
00000000
00000010
00001000
00000100
,
00000000
00000001
00000100
00000010
00000000
00000010
00001000
00000000
,
00001000
00000100
00000000
00000100
00010000
00001000
00010000
00000000
,
00010000
00100000
10000000
00100000
00000000
00010000
01000000
10000000
,
00000000
00000000
00000000
00000000
,
00010000
00001000
00000100
00000000
00000010
00000000
00001000
00000010
,
00001000
00000000
00001000
00000010
00000000
00000110
00000000
00000101
,
00000000
00001000
00010000
00000000
00100000
00000000
00010000
10000000
,
01000000
00000000
10000000
00100000
00000000
10010000
00000000
01010000
,
00000000
00001000
00000100
00000000
00000010
00000000
00000100
00001000
,
00000010
00001000
00000100
00000000
00000010
00000001
00000100
00000000
,
00000010
00001000
00010000
00100000
10000000
00100000
01000000
00000000
,
00010000
00001000
00000100
00000010
00000000
00001000
00000000
00002020
,
00000000
00003030
00000100
00000000
00000100
00000000
00001000
00000010
,
00000100
00000000
00000001
00000100
00000000
00001100
00000000
00011000
,
00000000
00010000
00100000
00000000
00100000
00000000
01000000
00010000
,
10000000
00000000
00100000
00010000
00000000
00011000
00000000
00101000
,
00000000
00010000
00001000
00000000
00000100
00000000
00001000
00000010
,
00000100
00000001
00000010
00000100
00001000
00000010
00001000
00000000
,
00010000
00001000
00010000
00100000
00000000
01000000
00010000
00000000
,
10000000
00000000
00100000
00010000
00000000
00001000
00000000
00022000
,
00000000
00003000
00031000
00000000
00001000
00000000
00000100
00000000
,
00010000
00001000
00000100
00000010
00000000
00000000
00000000
00000000
,
00010000
01000000
10000000
00100000
00010000
00100000
00000000
00001000
,
00000000
00001000
00010000
00000100
00001000
00000000
00001010
00000000
,
00000000
00001000
00000100
00000001
00000010
00001000
00000100
00001000
,
00000000
00000100
00001000
00010000
00001000
00000000
00011000
00000000
;
