#TITLE:真夜中のドア〜stay with me;
#SUBTITLE:;
#ARTIST:松原みき;
#TITLETRANSLIT:Mayonaka no door~stay with me;
#SUBTITLETRANSLIT:;
#ARTISTTRANSLIT:Matsubara Miki;
#GENRE:CITY POP;
#CREDIT:SAIKIO;
#BANNER:Mayonaka no door~stay with me-banner.png;
#BACKGROUND:bg.png;
#LYRICSPATH:;
#CDTITLE:Saikio Simfiles.png;
#MUSIC:Mayonaka no door~stay with me.ogg;
#OFFSET:0.080000;
#SAMPLESTART:60.624016;
#SAMPLELENGTH:13.480024;
#LASTBEATHINT:227.507111;
#SELECTABLE:YES;
#BPMS:0.000000=108.279999
;
#STOPS:
;
#BGCHANGES:0.000=Mayonaka no door~stay with me.avi=1.000=0=0=0=StretchNoLoop====,
99999=-nosongbg-=1.000=0=0=0 // don't automatically add -songbackground-
;
#KEYSOUNDS:;
#ATTACKS:;

//---------------dance-single - ----------------
#NOTES:
     dance-single:
     :
     Beginner:
     1:
     0.072069,0.103952,0.000000,0.015765,0.000000,64.000000,64.000000,0.000000,2.000000,0.000000,0.000000,0.072069,0.103952,0.000000,0.015765,0.000000,64.000000,64.000000,0.000000,2.000000,0.000000,0.000000:
0000
0000
0000
0000
,
0000
0000
0000
0000
,
0000
0000
0000
0000
,
0000
0000
0000
0000
,
0000
0010
0000
0000
,
0000
0010
0000
0000
,
0000
0010
0000
0000
,
0000
0000
0000
0000
,
0000
0100
0000
0000
,
0000
0000
0000
0000
,
0000
1000
0000
0000
,
0000
1000
0000
0000
,
0000
0001
0000
0000
,
0000
0001
0000
0000
,
0000
0100
0000
0000
,
0000
0100
0000
0000
,
0000
0010
0000
0000
,
0000
0010
0000
0000
,
0000
1000
0000
0000
,
0000
0100
0000
0000
,
0000
1000
0000
0000
,
0000
0001
0000
0000
,
0000
0010
0000
0000
,
0000
0001
0000
0000
,
0000
0010
0000
0000
,
0000
0100
0000
0000
,
0000
0000
0000
0100
,
0000
0000
0000
1000
,
0000
1000
0000
1000
,
0000
0100
0000
0100
,
0000
0100
0000
0001
,
0000
0001
0000
0001
,
0000
0000
0000
0010
,
0000
0000
0000
0100
,
0100
0000
0000
0010
,
0010
0000
0000
0001
,
0000
0001
0000
0001
,
0000
0010
0000
0010
,
0000
0010
0000
1000
,
0000
1000
0000
0100
,
0000
0100
0000
0010
,
0000
0010
0000
1000
,
1000
0000
0000
0001
,
0001
0000
0000
0200
,
0000
0000
0300
0000
,
0010
0000
0010
0000
,
0010
0000
0000
0001
,
0000
0001
0000
1000
,
0000
0000
0000
0100
,
0000
0000
0000
0010
,
0010
0000
0000
0100
,
0100
0000
0000
0200
,
0000
0000
0000
0300
;

//---------------dance-single - ----------------
#NOTES:
     dance-single:
     :
     Easy:
     3:
     0.097969,0.124742,0.000000,0.086708,0.000000,87.000000,87.000000,0.000000,11.000000,0.000000,0.000000,0.097969,0.124742,0.000000,0.086708,0.000000,87.000000,87.000000,0.000000,11.000000,0.000000,0.000000:
0000
0000
0000
0000
,
0000
0000
0000
0000
,
0000
0000
0000
0000
,
0000
0000
0000
0000
,
0000
0010
0000
0000
,
0000
0100
0000
0000
,
0000
0001
1000
0000
,
0000
0100
0000
0000
,
0000
1000
0001
0000
,
0000
0010
0000
0000
,
0000
0100
0000
0100
,
0000
0010
0000
0010
,
0000
0002
0000
0003
,
0000
2000
0000
3000
,
0000
0010
0000
0010
,
0000
0100
0000
0100
,
0000
2000
0000
3000
,
0000
0002
0000
0003
,
0000
0100
0010
0001
,
0000
0010
0000
0010
,
0000
0100
1000
0000
,
0000
0001
0010
0000
,
0000
1000
0100
0010
,
0000
0100
0000
0100
,
0000
0010
0001
0000
,
0000
0100
1000
0000
,
0000
0010
0000
0100
,
0000
0000
0000
0010
,
0000
0010
0000
1000
,
0000
0100
0000
0001
,
0000
0001
0000
0010
,
0000
0001
0000
0200
,
0000
0000
0300
0020
,
0000
0000
0030
0100
,
0100
0000
0000
0001
,
0001
0000
0000
1000
,
0000
0100
0000
0010
,
0000
0100
0000
0001
,
0000
0010
0000
0100
,
0000
1000
0000
2000
,
0000
0000
3000
0002
,
0000
0000
0003
0010
,
0010
0000
0000
1000
,
1000
0000
0000
0010
,
0000
0100
0000
0001
,
0001
0100
0000
0010
,
0000
0100
0000
1000
,
1000
0100
0000
0020
,
0030
0200
0300
0010
,
0000
0100
0000
0001
,
0100
0000
0000
1000
,
0010
0000
0000
0200
,
0000
0000
0000
0300
;

//---------------dance-single - ----------------
#NOTES:
     dance-single:
     :
     Medium:
     6:
     0.203821,0.249484,0.000000,0.149769,0.000000,181.000000,181.000000,0.000000,19.000000,0.000000,0.000000,0.203821,0.249484,0.000000,0.149769,0.000000,181.000000,181.000000,0.000000,19.000000,0.000000,0.000000:
0000
0000
0000
0000
,
0000
0000
0000
0000
,
0000
0000
0000
0000
,
0000
0000
0000
0000
,
0000
0010
0000
0100
,
0000
0010
0000
0100
,
0000
0001
1000
0001
,
0100
0010
0000
0100
,
0000
1000
0001
1000
,
0010
0100
0000
0010
,
0000
0001
0100
1000
,
0010
0000
1000
0100
,
0001
0000
1000
1000
0000
0000
0100
0000
,
0000
0000
0001
0001
0000
0000
0010
0000
,
0000
0100
1000
0100
,
0010
0000
0001
0100
,
1000
0000
0100
0100
0000
0000
0001
0000
,
0000
0000
0010
0010
0000
0000
1000
0000
,
0000
0001
0100
1000
,
0010
1000
0200
0310
,
0001
0001
0100
0000
,
1000
1000
0010
0000
,
0100
0001
0010
1000
,
0100
0010
0002
0103
,
1000
0020
0000
0030
,
0100
0200
0000
0000
,
0300
0001
1000
0010
,
0000
0100
0000
0000
0010
0010
1000
0000
,
0001
0000
0100
0000
0001
0000
1000
0100
,
1000
0010
0001
0100
,
0001
0001
0100
0010
,
0001
0100
1000
0002
,
0103
2000
3100
0002
,
0013
0000
2000
0000
3010
0000
0001
0100
,
0001
0000
1000
0000
0100
0000
0010
1000
,
0010
0000
0100
0000
0001
0001
0100
0000
,
0010
1000
0100
1000
,
1000
0010
0100
0020
,
0100
0000
0130
0000
0100
0000
0001
0100
,
0010
1000
0100
2000
,
3010
0002
0013
2000
,
3100
0000
0002
0000
0103
0000
1000
0010
,
1000
0000
0001
0000
0100
0000
0001
0001
,
1000
0000
0100
0000
0010
0100
0020
0000
,
0100
0130
0000
0100
,
0001
0100
1000
0010
,
1000
0000
1000
0000
0100
0000
0010
0001
,
0100
0010
0100
0020
,
0031
0200
1300
0002
,
0013
0000
2000
0000
3100
0000
0001
0010
,
0100
0000
1000
0000
0010
0000
1000
0100
,
0010
0000
0001
0000
0100
0100
0020
0000
,
0000
0000
0000
0030
;

//---------------dance-single - ----------------
#NOTES:
     dance-single:
     :
     Hard:
     10:
     0.301790,0.311855,0.000000,0.220712,0.137945,268.000000,268.000000,0.000000,28.000000,0.000000,0.000000,0.301790,0.311855,0.000000,0.220712,0.137945,268.000000,268.000000,0.000000,28.000000,0.000000,0.000000:
// measure 0
0000
0000
0000
0000
,  // measure 1
0000
0000
0000
0000
,  // measure 2
0000
0000
0000
0000
,  // measure 3
0000
0000
0000
0000
,  // measure 4
0000
0000
1000
0000
0000
0010
0100
0000
,  // measure 5
0000
0000
0001
0000
0000
0100
0010
0000
,  // measure 6
0000
0000
0000
0000
1000
0000
0000
1000
0000
0010
0000
0100
0001
0000
0100
0000
,  // measure 7
0001
0000
0000
0000
1000
0000
0000
0100
0000
0000
0000
0000
0010
0000
0000
0000
,  // measure 8
0001
0000
0000
0000
0100
0000
0000
0100
0000
0010
0000
0001
0100
0000
1000
0000
,  // measure 9
0100
0000
0000
0000
0010
0000
0000
0100
0000
0000
0000
0000
0001
0000
0001
0000
,  // measure 10
0100
0000
0010
1000
0100
0000
0010
0001
,  // measure 11
0100
0000
0000
0000
0010
0000
1000
0000
0001
0000
0000
0100
0000
0000
0010
0000
,  // measure 12
1000
0000
0000
0000
0100
0000
1000
0000
0010
1000
0000
0000
0001
0000
0000
0000
,  // measure 13
0100
0000
0000
0000
0010
0000
0001
0000
0100
0001
0000
0000
0010
0000
0010
0000
,  // measure 14
0001
0000
1000
0010
0100
0000
0001
0100
,  // measure 15
1000
0000
0000
0000
0100
0000
0001
0000
0010
0000
0000
1000
0000
0000
0001
0000
,  // measure 16
0100
0000
0000
0000
0010
0000
1000
0000
0100
1000
0000
0000
0010
0000
0000
0000
,  // measure 17
0100
0000
0000
0000
0001
0000
0010
0000
0001
0100
0000
0000
0010
0000
0010
0000
,  // measure 18
0100
0000
0001
1000
0100
1000
0010
1000
,  // measure 19
0001
0100
0020
2030
,  // measure 20
3200
0302
0010
0013
,  // measure 21
0100
0010
1000
0000
0001
0000
0100
0000
,  // measure 22
0010
0000
0001
0010
1000
0010
0100
0001
,  // measure 23
0100
1000
0010
0000
0200
0000
0320
0000
,  // measure 24
0032
2003
0100
3100
,  // measure 25
0001
1000
0100
0000
0010
0000
0001
0000
,  // measure 26
0100
0000
0000
0000
0010
0000
0000
0000
1000
0000
0000
0000
0001
0100
0000
0000
,  // measure 27
0000
0000
1000
0100
0000
0000
0000
0000
0010
0000
0100
0000
2000
0000
0000
0000
,  // measure 28
3002
0000
0023
0000
0130
0000
0100
0010
,  // measure 29
1000
0000
0001
0000
0100
0000
0100
0000
0010
1000
0000
0200
0000
0000
0000
0000
,  // measure 30
0320
0000
0230
0000
0310
0000
0010
1000
,  // measure 31
0001
0000
0010
0000
0010
0000
0100
0000
0000
0000
0000
0000
2000
0000
0000
3000
,  // measure 32
0001
0000
0000
0000
0100
0001
0000
0100
0000
0000
0000
0000
0002
0000
0000
0003
,  // measure 33
1000
0000
0000
0000
0100
1000
0000
0100
0000
0000
0000
0000
0010
0000
0010
0000
,  // measure 34
0100
1000
0000
0000
0010
1000
0100
0010
,  // measure 35
0001
0100
0000
0000
0001
1000
0020
0000
,  // measure 36
0032
0000
0203
0000
1300
0000
0100
0001
,  // measure 37
1000
0000
0001
0000
0010
0000
0000
0000
0100
1000
0000
0002
0000
0000
0100
0000
,  // measure 38
0103
0000
0000
0000
0010
0000
0000
0001
0000
0000
0001
0000
0100
0000
1000
0000
,  // measure 39
0010
1000
0001
0100
0000
0001
0020
0000
,  // measure 40
1030
0000
0000
0000
0100
0010
0000
0001
0000
0000
0000
0000
0100
0000
0000
0010
,  // measure 41
0000
0010
0000
0000
1000
0001
0100
0100
,  // measure 42
0010
0001
0000
0000
0100
0001
0010
0010
,  // measure 43
0100
1000
0000
0000
0100
0010
2000
0000
,  // measure 44
3200
0000
0302
0000
0013
0000
1000
0100
,  // measure 45
1000
0000
0010
1000
0001
0000
0100
0000
0010
0001
0000
0200
0000
0000
0000
0000
,  // measure 46
0001
0000
1000
0000
0310
0000
0001
0100
,  // measure 47
0010
1000
0100
0000
0010
0000
0002
0000
,  // measure 48
0103
0000
0000
0000
0010
1000
0000
0100
0000
0000
0000
0000
0200
0000
0000
0000
,  // measure 49
0310
0000
0000
0000
0100
0001
0000
0010
0000
0000
0000
0000
0001
0000
0001
0000
,  // measure 50
1000
0100
0000
0000
1000
0010
0100
0100
,  // measure 51
0001
0010
0000
0000
0100
0010
0200
0000
,  // measure 52
0010
0010
0001
0310
;

//---------------dance-double - ----------------
#NOTES:
     dance-double:
     :
     Easy:
     3:
     0.139634,0.166322,0.000000,0.134004,0.000000,124.000000,124.000000,0.000000,17.000000,0.000000,0.000000,0.139634,0.166322,0.000000,0.134004,0.000000,124.000000,124.000000,0.000000,17.000000,0.000000,0.000000:
00000000
00000000
00000000
00000000
,
00000000
00000000
00000000
00000000
,
00000000
00000000
00000000
00000000
,
00000000
00000000
00000000
00000000
,
00000000
00001000
00000000
00010000
,
00000000
00100000
00000000
01000000
,
00000000
10000000
00010000
10000000
,
10000000
00010000
00000000
00100000
,
00000000
00010000
00001000
00010000
,
00010000
00001000
00000000
00010000
,
00000000
00001000
00000100
00000010
,
00000000
00000001
00000100
00000010
,
00000000
00001000
00000000
00010000
,
00000000
01000000
00000000
10000000
,
00000000
00100000
00010000
00001000
,
00000000
00000100
00000010
00000001
,
00000000
00000010
00000000
00000100
,
00000000
00001000
00000000
00100000
,
00000000
00010000
01000000
10000000
,
00000000
00100000
00000000
00100000
,
00000000
00020000
00000000
00030000
,
00000000
00002000
00000000
00003000
,
00000000
00001000
00000100
00000010
,
00000000
00000001
00000000
00000100
,
00000000
00000020
00000000
00000030
,
00000000
00000200
00000000
00000300
,
00000000
00001000
00000000
00010000
,
00000000
00000000
00000000
00100000
,
00100000
00010000
00000000
01000000
,
10000000
00100000
00010000
00001000
,
00001000
00000100
00000000
00000010
,
00000001
00000100
00001000
00000200
,
00000300
00002000
00003000
00020000
,
00030000
00200000
00300000
00010000
,
01000000
00000000
00100000
10000000
,
00010000
00000000
00010000
00001000
,
00001000
00000100
00000000
00000010
,
00001000
00000100
00000001
00000010
,
00000010
00000100
00000000
00001000
,
00010000
01000000
10000000
00200000
,
00300000
02000000
03000000
00020000
,
00030000
00002000
00003000
00000100
,
00001000
00000000
00000010
00000001
,
00000100
00000000
00000010
00001000
,
00001000
00010000
00000000
00100000
,
00010000
01000000
10000000
00100000
,
00000000
00100000
00000000
00010000
,
00001000
00000100
00000010
00000002
,
00000003
00000200
00000300
00002000
,
00003000
00020000
00030000
00100000
,
01000000
00000000
00100000
10000000
,
00010000
00000000
01000000
00200000
,
00000000
00000000
00000000
00300000
;

//---------------dance-double - ----------------
#NOTES:
     dance-double:
     :
     Medium:
     6:
     0.219586,0.291064,0.047295,0.110356,0.000000,195.000000,189.000000,6.000000,14.000000,0.000000,0.000000,0.219586,0.291064,0.047295,0.110356,0.000000,195.000000,189.000000,6.000000,14.000000,0.000000,0.000000:
00000000
00000000
00000000
00000000
,
00000000
00000000
00000000
00000000
,
00000000
00000000
00000000
00000000
,
00000000
00000000
00000000
00000000
,
00000000
00010000
00000000
00001000
,
00000000
00000100
00000000
00000010
,
00000000
00000001
00000100
00001000
,
00010000
00001000
00100000
00000000
,
00000000
01000000
10000000
00100000
,
00010000
00001000
00010000
00000200
,
00001300
00000000
00000010
00001000
,
00000100
00000010
00000001
00000100
,
00001000
00000000
00010000
00010000
00000000
00000000
00100000
00000000
,
00000000
00000000
01000000
01000000
00000000
00000000
10000000
00000000
,
00000000
00100000
00010000
00001000
,
00000100
00001000
00000010
00000100
,
00000001
00000000
00000010
00000010
00000000
00000000
00000100
00000000
,
00000000
00000000
00001000
00001000
00000000
00000000
00010000
00000000
,
00000000
00200000
00310000
01000000
,
10000000
00100000
00020000
00031000
,
00000200
00000310
00000100
00000001
,
00000010
00000100
00000010
00001000
,
00000000
00000100
00010000
00001000
,
00100000
00010000
02000000
03100000
,
20000000
30010000
00100000
00010000
,
00001000
00000100
00001000
00000020
,
00000000
00000000
00000030
00000100
,
00000000
00001000
00000000
00000000
00000000
00000000
00010000
00000000
,
01000000
00000000
10000000
00000000
00100000
00000000
00010000
00001000
,
00010000
00000000
00000100
00001000
00000100
00000000
00000020
00000000
,
00001030
00000100
00000001
00000010
,
00000010
00000100
00001000
00001100
,
00010000
00001000
00100000
01010000
,
10000000
00000000
00100000
00000000
00010000
00001000
00000100
00000000
,
00001000
00000000
00000010
00000000
00000100
00001000
00010000
00000000
,
00100000
00000000
00010000
00000000
01000000
01000000
00100000
00000000
,
00010000
00000000
10000000
00000000
00100000
00000000
00010000
00001000
,
00010000
00000000
00000100
00001000
00000100
00000000
00000020
00000000
,
00001030
00000000
00000100
00000000
00000001
00000000
00000010
00000001
,
00000010
00000000
00000100
00001000
00000100
00000000
00020000
00000000
,
00031000
00000000
00100000
00010000
01000000
00000000
20000000
00000000
,
30010000
00010000
00000000
00000000
00000100
00001000
00010000
00000000
,
00100000
00000000
01000000
00000000
00010000
00001000
00000100
00000000
,
00000010
00000000
00000100
00000000
00001000
00000100
00002000
00000000
,
00010000
00013000
00000000
00010000
,
01000000
10000000
00100000
00020000
,
00001000
00000000
00031000
00000000
00000000
00000000
00001000
00000100
,
00000010
00000001
00000100
00001010
,
00000100
00011000
00100000
00110000
,
01000000
00000000
01010000
00000000
00100000
00010000
00001000
00000000
,
00000100
00000000
00000100
00000000
00001000
00010000
00100000
00000000
,
01000000
00000000
10000000
00000000
01000000
01000000
00200000
00000000
,
00000000
00000000
00000000
00300000
;

//---------------dance-double - ----------------
#NOTES:
     dance-double:
     :
     Hard:
     10:
     0.297286,0.332645,0.023648,0.275890,0.070943,264.000000,261.000000,3.000000,35.000000,0.000000,0.000000,0.297286,0.332645,0.023648,0.275890,0.070943,264.000000,261.000000,3.000000,35.000000,0.000000,0.000000:
00000000
00000000
00000000
00000000
,
00000000
00000000
00000000
00000000
,
00000000
00000000
00000000
00000000
,
00000000
00000000
00000000
00000000
,
00000000
00000000
00100000
00000000
00000000
00010000
00001000
00000000
,
00000000
00000000
00000010
00000000
00000000
00001000
00010000
00000000
,
00000000
00000000
00000000
00000000
00001000
00000000
00000000
00010000
00000000
00010000
00000000
00000000
00100000
00000000
00010000
00000000
,
01000000
10000000
00100000
00010000
,
00001000
00000000
00000000
00000000
00000100
00000000
00000000
00001000
00000000
00001000
00000000
00000000
00000100
00000000
00000010
00000000
,
00000001
00000000
00000010
00000000
00000100
00000000
00001000
00010000
,
00100000
00000000
00010000
01000000
10000000
00000000
00100000
00010000
,
00001000
00000000
00001000
00000100
00000001
00000000
00000010
00001000
,
00000100
00000000
00000000
00000000
00010000
00000000
00001000
00000000
00010000
00001000
00000000
00000000
00100000
00000000
00000000
00000000
,
00010000
00000000
00000000
00000000
01000000
00000000
10000000
00000000
00100000
10000000
00000000
00000000
00010000
00000000
00100000
00000000
,
00001000
00000000
00000100
00000010
00000100
00000000
00000010
00001000
,
00000001
00000000
00000100
00001000
00010000
00000000
01000000
00100000
,
10000000
00000000
01000000
00100000
00010000
00000000
00001000
00010000
,
00001000
00000000
00000100
00001000
00000010
00000000
00000010
00000100
,
00000010
00000100
00000010
00000100
00000000
00000000
00000001
00000000
00000010
00000000
00001000
00000000
00001000
00000000
00000100
00000000
,
00010000
00100000
00020000
02030000
,
03200000
20300000
00100000
30100000
,
00010000
00001000
00000200
00000000
00001000
00000000
00001300
00000000
,
00000010
00000000
00001000
00000100
00000001
00000010
00000100
00001000
,
00000100
00001000
00002000
00023000
,
00230000
00320000
00001000
00031000
,
01000000
00100000
00010000
00000000
00002000
00000000
00000100
00000000
,
00003100
00000000
00000000
00000000
00000010
00000000
00000000
00000000
00001000
00000000
00000000
00000000
00000001
00000100
00000000
00000000
,
00000000
00000000
00001000
00010000
00000000
00000000
00000000
00000000
00010000
00000000
01000000
00000000
00200000
00000000
00000000
00000000
,
00320000
00000000
02030000
00000000
03010000
00000000
10000000
00010000
,
00100000
00010000
00001000
00001000
00010000
00000100
00002000
00000000
,
00003020
00000000
00000230
00000000
00000301
00000000
00000010
00000100
,
00000001
00001000
00000100
00000000
00001000
00000000
00020000
00000000
,
00031000
00000000
00000000
00000000
00100000
00010000
01000000
00100000
00000000
00000000
00000000
00000000
20000000
00000000
00000000
00000000
,
30010000
00000000
00000000
00000000
00100000
00010000
00001000
00010000
00000000
00000000
00000000
00000000
00000100
00000000
00000010
00000000
,
00000100
00000001
00000000
00000000
00000100
00000001
00000010
00000100
,
00001000
00000100
00000000
00000000
00001000
00010000
00002000
00000000
,
00023000
00000000
00230000
00000000
01300000
00000000
10000000
01000000
,
00100000
00000000
00010000
00000000
00002000
00000000
00000000
00003000
00010000
00001000
00000000
00020000
00000000
00000000
00000000
00000000
,
00032000
00000000
00000000
00000000
00003100
00000000
00000000
00000100
00000000
00000000
00000010
00000000
00001000
00000000
00000100
00000000
,
00000010
00000001
00000100
00000000
00000010
00000000
00002000
00000000
,
00013000
00000000
00100000
00000000
01000000
00000000
00000000
00000000
20000000
00000000
00000000
00000000
30010000
00000000
00000000
00100000
,
00000000
00100000
00000000
00000000
10000000
01000000
00100000
00010000
,
00001000
00010000
00000000
00000000
00001000
00000100
00001000
00000010
,
00000001
00000100
00000000
00000000
00000010
00000001
00000201
00000000
,
00002300
00000000
00023000
00000000
00031000
00000000
00010000
00100000
,
00010000
10000000
00100000
00010000
00001000
00010000
00200000
00000000
,
00302000
00000000
00003200
00000000
00000310
00000000
00000001
00000100
,
00000010
00001000
00000100
00000000
00001000
00000000
00201000
00000000
,
00010000
00310000
01000000
20010000
,
00100000
00000000
30100000
00000000
00010000
00000000
00010000
00001000
,
00000100
00000010
00000000
00000000
00000001
00000100
00001000
00010000
,
01000000
10000000
00000000
00000000
00010000
00001000
00000020
00000000
,
00000100
00000100
00000000
00000030
;
