#VERSION:0.83;
#TITLE:내일해;
#SUBTITLE:;
#ARTIST:EXID;
#TITLETRANSLIT:LADY;
#SUBTITLETRANSLIT:;
#ARTISTTRANSLIT:EXID;
#GENRE:K-POP;
#ORIGIN:;
#CREDIT:SAIKIO;
#BANNER:LADY-banner.png;
#BACKGROUND:bg.png;
#PREVIEWVID:;
#JACKET:LADY-jacket.png;
#CDIMAGE:;
#DISCIMAGE:;
#LYRICSPATH:;
#CDTITLE:Saikio Simfiles.png;
#MUSIC:LADY.ogg;
#OFFSET:0.176000;
#SAMPLESTART:58.144012;
#SAMPLELENGTH:17.400045;
#SELECTABLE:YES;
#BPMS:0.000=107.010;
#STOPS:;
#DELAYS:;
#WARPS:;
#TIMESIGNATURES:0.000=4=4;
#TICKCOUNTS:0.000=4;
#COMBOS:0.000=1;
#SPEEDS:0.000=1.000=0.000=0;
#SCROLLS:0.000=1.000;
#FAKES:;
#LABELS:0.000=Song Start;
#BGCHANGES:0.000=LADY.avi=1.000=0=0=0=StretchNoLoop====,
99999=-nosongbg-=1.000=0=0=0 // don't automatically add -songbackground-
;
#KEYSOUNDS:;
#ATTACKS:
;

//---------------dance-single - ----------------
#NOTEDATA:;
#CHARTNAME:;
#STEPSTYPE:dance-single;
#DESCRIPTION:;
#CHARTSTYLE:;
#DIFFICULTY:Beginner;
#METER:2;
#RADARVALUES:0.134980,0.153724,0.014763,0.000000,0.000000,128.000000,126.000000,2.000000,0.000000,0.000000,0.000000,0.000000,0.000000,0.000000,0.134980,0.153724,0.014763,0.000000,0.000000,128.000000,126.000000,2.000000,0.000000,0.000000,0.000000,0.000000,0.000000,0.000000;
#CREDIT:;
#NOTES:
0000
0000
0000
0000
,
0000
0000
0000
0000
,
0000
0010
0000
0010
,
0000
0100
0000
0100
,
0000
0010
0000
0010
,
0000
0001
0000
0001
,
0000
1000
0000
1000
,
0000
0010
0000
0010
,
0000
0100
0000
0100
,
0000
1000
1000
1000
,
0000
0010
0000
1000
,
0000
0001
0000
0010
,
0000
1000
0000
0100
,
0000
0001
0000
0100
,
0000
0010
0010
0000
,
0000
1000
1000
0000
,
0000
0001
0000
0100
,
0000
1000
1000
1000
,
0000
0010
0000
0100
,
0000
0001
0000
1000
,
0000
0100
0100
0100
,
0000
0010
0010
0010
,
0000
0001
0000
0100
,
0000
1000
0000
0100
,
0000
0001
0000
0100
,
0000
0010
0010
0010
,
0000
0001
0001
1000
,
0000
0010
0000
0010
,
0000
1000
1000
0001
,
0000
0100
0000
0100
,
0000
1000
0001
1000
,
0000
0100
0000
0100
,
0000
0001
1000
0001
,
0000
0010
0000
0010
,
0000
1000
0000
0000
,
0000
0100
0000
0000
,
0000
0010
0000
0000
,
0000
0001
0000
0001
,
0000
0010
0000
0010
,
0000
1000
0000
1000
,
0000
0001
0000
0001
,
0000
1000
0000
1000
,
0000
0100
0100
0100
,
0000
0010
0000
0010
,
0000
0001
0001
0001
,
0000
1000
0000
1000
,
0000
0110
0000
0000
,
0000
0010
0010
0100
,
0000
0110
0000
0000
,
0000
0001
0001
1000
,
0000
1000
0000
1000
,
0000
0100
0000
0010
,
0000
0001
0000
0010
,
0000
0100
0000
1000
,
0000
0100
0000
0010
,
0000
0001
1000
0001
,
0000
1000
0000
1000
,
0000
0010
0100
0010
,
0000
0001
0000
0001
,
0000
0100
0100
0000
;

//---------------dance-single - ----------------
#NOTEDATA:;
#CHARTNAME:;
#STEPSTYPE:dance-single;
#DESCRIPTION:;
#CHARTSTYLE:;
#DIFFICULTY:Easy;
#METER:5;
#RADARVALUES:0.188761,0.221451,0.088580,0.103344,0.000000,179.000000,167.000000,12.000000,14.000000,0.000000,0.000000,0.000000,0.000000,0.000000,0.188761,0.221451,0.088580,0.103344,0.000000,179.000000,167.000000,12.000000,14.000000,0.000000,0.000000,0.000000,0.000000,0.000000;
#CREDIT:;
#NOTES:
0000
0000
0000
0000
,
0000
0100
0100
0100
,
0000
0020
0001
0030
,
0000
1000
0100
0001
,
0000
0020
1000
0030
,
0000
0001
0100
1000
,
0000
0010
1000
0100
,
0001
0010
0100
1000
,
0000
0001
0100
1000
,
0010
0000
0100
0000
0001
0000
0100
0100
,
0000
0010
0010
1000
,
0000
0100
0100
0001
,
0000
0010
0001
0100
,
0000
0010
1000
0100
,
0000
0000
0010
0000
1000
1000
1000
0000
,
0000
0000
0100
0000
0001
0001
0001
0000
,
0000
0100
0001
0100
,
0000
0010
1000
0100
,
0000
2000
0000
0000
,
3000
0020
0000
0000
,
0030
0002
0000
0000
,
0003
0010
0000
0010
,
0100
0100
0000
0100
,
0010
1000
0100
0001
,
0000
0010
0110
0100
,
0110
0000
1000
1000
,
0000
0001
0100
1000
,
0010
0100
0100
0000
,
1000
0010
0001
0100
,
1000
0010
0010
0000
,
0000
1001
1000
1001
,
0000
0100
0001
0010
,
0000
0110
0100
0110
,
0000
0010
1000
0100
,
0000
0000
0002
0000
0000
0000
0000
0003
,
0000
0000
0200
0000
0000
0000
0000
0300
,
0000
0020
0000
0000
,
0030
0100
0100
0100
,
0000
0001
0100
1000
,
0000
1000
0010
0001
,
0000
2000
3000
0001
,
0000
0100
0010
0100
,
0000
1000
0100
0001
,
0000
0010
1000
0100
,
0000
0001
0100
1000
,
0000
0100
0001
0010
,
0000
0020
1000
0030
,
0000
0001
0101
0100
,
0000
0020
0001
0030
,
0000
1000
1010
0010
,
0000
0100
0010
0100
,
0000
2000
0001
3010
,
0000
0010
0100
1000
,
0000
0002
1000
0103
,
0000
0100
0010
0001
,
0000
1010
0001
1010
,
0000
0100
0001
1000
,
0000
0011
1000
0011
,
0000
0000
0100
0000
0010
0000
0100
0100
,
0000
0010
0010
0200
,
0300
0000
0000
0000
;

//---------------dance-single - ----------------
#NOTEDATA:;
#CHARTNAME:;
#STEPSTYPE:dance-single;
#DESCRIPTION:;
#CHARTSTYLE:;
#DIFFICULTY:Medium;
#METER:8;
#RADARVALUES:0.301596,0.310032,0.118107,0.110726,0.000000,286.000000,270.000000,16.000000,15.000000,0.000000,0.000000,0.000000,0.000000,0.000000,0.301596,0.310032,0.118107,0.110726,0.000000,286.000000,270.000000,16.000000,15.000000,0.000000,0.000000,0.000000,0.000000,0.000000;
#CREDIT:;
#NOTES:
0000
0000
0000
0000
,
0000
0000
0100
0000
0010
0000
0100
0100
,
0000
0002
0100
0013
,
0100
0000
0010
1000
0010
0000
1000
0000
,
0001
2000
0010
3100
,
0010
0000
0100
0001
0100
0000
0010
0000
,
1000
0000
0010
0010
0001
0000
1000
1000
,
0010
1000
0100
0001
,
0010
0000
0001
0001
1000
0000
0100
0100
,
0001
0000
0100
0000
0010
0000
0100
0100
,
0000
0000
1000
0000
0100
0000
0001
0010
,
0000
0000
0100
0000
0001
0000
1000
1000
,
0000
0010
0100
0001
,
0010
0100
1000
0100
,
0010
0000
1000
0000
0100
1000
0100
0000
,
0010
0000
0100
0000
0010
0001
0010
0000
,
0001
0100
1000
0001
,
0100
0110
1100
1010
,
1000
0020
0100
1030
,
0010
0000
0200
0000
0001
0000
0010
0300
,
0001
0000
0010
1000
0100
0000
1000
0001
,
0010
1000
1000
0010
,
0100
0000
1001
0000
0100
1000
0100
0000
,
0010
0000
1001
0000
0001
0100
0001
0000
,
0100
0000
0010
0010
1000
0000
0100
0010
,
0010
0000
0001
0000
0010
0000
0100
0100
,
0000
0000
2000
0000
3100
0000
0010
0100
,
0001
0000
0020
0000
0031
0000
0100
1000
,
0010
0000
0001
0001
0100
0000
0010
0000
,
1000
0000
1000
1000
0010
0000
0100
0000
,
0010
0110
0101
1100
,
0001
0000
0001
0100
1000
0000
0010
0000
,
0100
1010
0110
0011
,
0100
0000
0001
0010
1000
0000
0010
0000
,
0100
0020
0000
0130
,
0001
2000
0000
3100
,
0010
0200
0000
0000
,
0300
0000
0010
0000
0100
0100
0100
0000
,
0010
0000
1000
0000
0100
0000
0001
0100
,
1000
0000
0010
0000
0100
0000
1000
0100
,
0001
1100
0010
0101
,
0010
0000
0010
0001
0100
1000
0010
0000
,
0100
0000
0001
0001
0010
0010
0100
0000
,
1000
0000
0100
1000
0100
0000
0010
0100
,
0010
0000
1000
1000
0100
0100
0010
0000
,
0001
0000
0010
0001
0010
0000
0100
0001
,
0100
0020
1000
0130
,
0001
0000
0100
0001
0100
0000
1000
0100
,
1000
0200
0001
0310
,
1000
0000
0010
1000
0010
0000
0001
0010
,
0001
0000
1000
0000
1000
0000
0001
0001
,
0000
0210
0000
0301
,
1000
1100
0000
1000
,
0100
0011
0000
0010
,
0100
0000
1000
0100
0010
0000
0001
0000
,
0010
0000
0100
0100
0010
0010
1000
0100
,
0000
0000
0010
0100
0001
0000
1000
0000
,
0010
0000
1000
1000
0001
0001
0100
0001
,
0000
0200
0310
0020
,
0130
0010
0010
0200
,
0300
0000
0000
0000
;

//---------------dance-single - ----------------
#NOTEDATA:;
#CHARTNAME:;
#STEPSTYPE:dance-single;
#DESCRIPTION:;
#CHARTSTYLE:;
#DIFFICULTY:Hard;
#METER:12;
#RADARVALUES:0.456611,0.487193,0.354322,0.125489,0.103344,433.000000,385.000000,48.000000,17.000000,0.000000,0.000000,0.000000,0.000000,0.000000,0.456611,0.487193,0.354322,0.125489,0.103344,433.000000,385.000000,48.000000,17.000000,0.000000,0.000000,0.000000,0.000000,0.000000;
#CREDIT:;
#NOTES:
0000
0000
0000
0000
,
0000
0000
0011
0000
1100
0000
1001
1001
,
0000
0010
0200
0000
0010
0000
0301
0000
,
1000
0000
0001
0100
1000
0010
1000
0000
,
0100
0001
0020
0000
0100
0000
1030
0000
,
0001
0000
1000
0010
0001
0100
0001
0000
,
0010
0000
0000
0000
1000
0100
1000
0000
1000
0000
0010
0100
0000
0000
0100
0000
,
1000
1000
0100
0001
0100
0100
1000
0100
,
0010
0000
0010
0000
0001
0010
0001
0000
0001
0000
0100
0010
0000
0000
0001
0000
,
0001
0100
1010
0000
1100
0000
1001
1001
,
0000
0000
0001
0010
0100
1000
0100
0000
,
1000
0000
0100
0010
0001
0010
0100
0000
,
0001
0000
0000
0000
0100
0000
0100
0000
0010
0000
1000
0000
0100
1000
0000
0000
,
0010
0000
0100
0000
0001
0000
0001
0000
0010
0000
1000
0000
0100
0001
0000
0000
,
0010
0010
0001
0100
1000
1000
1100
0000
,
0010
0100
1000
0100
0010
0010
0011
0000
,
0010
0000
0100
0000
1000
0000
0010
0000
1000
0000
1000
0000
0100
0001
0100
0000
,
0010
0100
0101
0000
1010
0000
0110
0110
,
0000
0000
0002
0000
0103
0000
0010
1000
,
0100
0000
2000
0000
3010
0000
0100
0001
,
0010
0000
0001
0100
1000
0000
0010
1000
,
0100
0000
0010
1000
0100
0001
0100
0010
,
1000
0010
0020
0000
0130
0000
0010
1000
,
0100
0010
0001
0000
0110
0000
1001
0000
,
1100
0000
0000
0000
0001
1000
0001
0000
0010
0000
0000
0000
0001
1000
0001
0000
,
0010
0000
0101
0000
0110
0000
1001
1001
,
0010
0000
0100
0000
0010
0100
0010
0000
1000
0000
0001
0000
1000
0000
1000
0000
,
0100
1000
0010
0001
0100
1000
0010
0010
,
1000
0000
0010
0000
0100
0001
0100
0000
0001
0000
1000
0000
0010
0000
0000
0000
,
0100
0000
0000
0000
0001
0000
0001
1000
0000
0000
0100
0000
1000
0000
0010
0000
,
0100
0100
0011
0100
1000
0011
0100
1000
,
0000
0010
0100
0001
1000
1000
0001
0100
,
0010
0010
1100
0010
0001
1100
0010
0001
,
0000
0100
1010
0100
0011
0100
0110
0110
,
0000
0000
2000
0000
3020
0000
0130
0001
,
0100
0000
0020
0000
0230
0000
0301
1000
,
0010
1000
0020
0000
0000
0000
0000
0000
,
0030
0000
0100
0000
0100
0010
0100
0000
,
0010
0100
0001
0000
0110
0000
1000
1000
,
0010
0001
0100
0000
1100
0000
0001
0001
,
0100
0010
1000
1000
0100
0010
0001
0001
,
0100
0000
1010
0000
0110
0000
1001
1001
,
0010
0000
0000
0000
0100
0010
0100
0000
0001
0000
1000
0000
0100
1000
0000
0010
,
0000
0000
0100
0000
0001
0010
0001
0000
0100
0000
0010
0000
1000
0001
0100
0000
,
0000
0000
0000
0000
0001
1000
0001
0000
0100
0000
1000
0000
0010
0001
0000
0100
,
0000
0000
0001
0000
0010
1000
0010
0000
0100
0000
1000
0010
0100
0000
0001
0000
,
1000
0100
0002
0000
0100
0000
1003
0000
,
0010
0000
0000
0000
0010
0001
0100
0000
1000
0000
0010
0000
1000
0001
0100
0000
,
0000
0010
2000
0000
0010
0000
3001
0000
,
0100
0000
0000
0000
0010
1000
0100
0000
0001
0000
0100
0000
0100
0000
0010
0000
,
0110
0100
1001
0000
1100
0000
0011
1100
,
0000
0000
0020
0000
1000
0130
1000
0000
,
0110
0000
0200
0000
0010
0301
0010
0000
,
0100
0010
1100
0000
0010
1000
0001
0000
,
0100
0000
1000
0100
0010
0100
0001
0010
,
1000
0100
1010
0001
1100
0001
1010
0100
,
0000
0010
0010
1000
0100
0001
0010
0001
,
0010
0100
0011
1000
0101
1000
0011
0100
,
0000
1000
0002
0000
0103
0020
0000
1030
,
1000
0000
0000
0000
0001
0100
0001
0010
0100
0000
0010
0200
0000
0000
0000
0000
,
0300
0000
0000
0000
;

//---------------dance-double - ----------------
#NOTEDATA:;
#CHARTNAME:;
#STEPSTYPE:dance-double;
#DESCRIPTION:;
#CHARTSTYLE:;
#DIFFICULTY:Easy;
#METER:5;
#RADARVALUES:0.200361,0.264634,0.073817,0.125489,0.000000,190.000000,180.000000,10.000000,17.000000,0.000000,0.000000,0.000000,0.000000,0.000000,0.200361,0.264634,0.073817,0.125489,0.000000,190.000000,180.000000,10.000000,17.000000,0.000000,0.000000,0.000000,0.000000,0.000000;
#CREDIT:;
#NOTES:
00000000
00000000
00000000
00000000
,
00000000
00000000
00000000
00000000
00000000
00000000
00100000
00100000
,
00000000
02000000
00100000
03000000
,
00000000
00001000
00000100
00000001
,
00000000
00000020
00000100
00000030
,
00000000
00001000
00010000
00100000
,
00000000
00010000
01000000
10000000
,
01000000
00010000
00100000
00010000
,
00001000
00000100
00000010
00000100
,
00000001
00000000
00000010
00000000
00000100
00000000
00000010
00000010
,
00000000
00002000
00003000
00010000
,
00000000
02000000
03000000
00100000
,
00000000
10000000
00010000
00001000
,
00000000
00001000
00000100
00000001
,
00000000
00000000
00000010
00000000
00001000
00001000
00000000
00000000
,
00010000
00000000
01000000
00000000
00100000
00100000
00000000
00000000
,
00000000
10000000
00010000
01000000
,
00100000
00000000
00010000
00000000
00001000
00000000
00000100
00000100
,
00000000
00000020
00000000
00000030
,
00000000
00000200
00000000
00000300
,
00000000
00020000
00030000
00002000
,
00003000
01000000
00010000
00100000
,
00000000
00100000
00010000
00001000
,
00000100
00000000
00000002
00000003
00000000
00000000
00000010
00000000
,
00000000
00001000
00001100
00001000
,
00001100
00000000
00010000
00000000
01000000
00000000
00100000
00100000
,
00000000
00020000
10030000
00100000
,
00010000
00002000
00013000
00001000
,
00000100
00000002
00001003
00000100
,
00000010
00001000
00000100
00010000
,
00001000
00101000
00010000
00101000
,
00010000
01000000
10000000
00100000
,
00010000
00010100
00001000
00010100
,
00001000
00000100
00000010
00000001
,
00000100
00001000
00000000
01000000
,
00000000
00100000
00000000
10000000
,
00000000
00010000
00000000
00000000
,
00000000
00001000
00000100
00000001
,
00000000
00000010
00001000
00000100
,
00000100
00010000
00001000
00100000
,
00100000
00010000
01000000
10000000
,
00100000
00001000
00010000
00000100
,
00000001
00000010
00000010
00000100
,
00000000
00001000
00010000
00100000
,
00000000
01000000
01000000
00100000
,
00000000
00010000
00001000
00000100
,
00000000
00000020
00000100
00000030
,
00000000
00001000
00000100
00010000
,
00000000
02000000
00100000
03000000
,
00000000
00010000
01000000
10000000
,
00100000
00000000
00010000
00000000
00001000
00000000
00010000
00010000
,
00000000
00002000
00000000
00003010
,
00000000
00000002
00000000
00000103
,
00000000
00000001
00000100
00001000
,
00000000
00010000
00100000
10000000
,
00000000
00110000
00001000
00001100
,
00000000
00001000
00000100
00000010
,
00000000
00000101
00001000
00011000
,
00000000
00010000
01000000
10000000
,
00000000
00200000
00000000
00300000
;

//---------------dance-double - ----------------
#NOTEDATA:;
#CHARTNAME:;
#STEPSTYPE:dance-double;
#DESCRIPTION:;
#CHARTSTYLE:;
#DIFFICULTY:Medium;
#METER:9;
#RADARVALUES:0.297377,0.354322,0.140252,0.118107,0.000000,282.000000,263.000000,19.000000,16.000000,0.000000,0.000000,0.000000,0.000000,0.000000,0.297377,0.354322,0.140252,0.118107,0.000000,282.000000,263.000000,19.000000,16.000000,0.000000,0.000000,0.000000,0.000000,0.000000;
#CREDIT:;
#NOTES:
00000000
00000000
00000000
00000000
,
00000000
00000000
00010000
00000000
00001000
00000000
00010000
00010000
,
00000000
00200000
00010000
01300000
,
00100000
00000000
00010000
00001000
00000100
00000000
00001000
00000000
,
00000010
00000200
00000010
00001300
,
00000100
00000000
00010000
00001000
00100000
00000000
00010000
00000000
,
01000000
00000000
10000000
10000000
00010000
00000000
00100000
00000000
,
00010000
00000000
00001000
00001000
00000010
00000000
00000100
00000000
,
00000001
00000000
00000100
00000100
00001000
00000000
00000010
00000000
,
00000001
00000000
00001000
00000000
00010000
00000000
00001000
00001000
,
00000000
00010000
00100000
01000000
,
10000000
00010000
00001000
00000100
,
00001000
00000000
00000010
00000000
00000010
00000001
00000100
00000000
,
00000010
00000000
00001000
00000000
00000100
00001000
00010000
00000000
,
00100000
00000000
00010000
00000000
01000000
01000000
01000000
00000000
,
00100000
00000000
00010000
00000000
00001000
00001000
00001000
00000000
,
00000100
00001000
00000010
00000100
,
00000001
00000000
00000011
00000000
00001100
00000000
00001000
00001000
,
00000000
00020000
00000000
00130000
,
00000000
02000000
00000000
13000000
,
00000000
00100000
00010000
00001000
,
00000100
00002000
00003200
00000320
,
00000031
00000000
00001001
00000000
00000100
00000000
00000100
00001000
,
00010000
00000000
00100000
00000000
00110000
00000000
00010000
01000000
,
10000000
00200000
00310000
00002000
,
00013000
00000000
00001000
00000000
00001010
00000000
00001000
00001000
,
00000000
00000000
00000100
00000010
00000001
00000000
00000010
00000000
,
00000010
00000000
00000100
00001000
00010000
00000000
00100000
00000000
,
00010000
00000000
01000000
10000000
00100000
00000000
00010000
00000000
,
00001000
00000000
00001000
00000100
00000001
00000000
00000010
00000000
,
00000100
00001100
00011000
00110000
,
00010000
00000000
01000000
10000000
00100000
00010000
01000000
00000000
,
00100000
00011000
00001100
00000011
,
00000100
00000000
00000010
00000001
00000100
00001000
00000010
00000000
,
00000100
00002000
00000000
00013000
,
00000000
00200000
00000000
01300000
,
00000000
10100000
00000000
01000000
,
00000000
00100000
00010000
00001000
,
00000000
00000000
00000010
00000000
00000100
00000000
00000001
00000100
,
00001000
00000000
00000100
00000000
00010000
00000000
00010000
00001000
,
00000100
00000000
00010000
00000000
01000000
00000000
10000000
10000000
,
00100000
00020000
00032000
00013000
,
00001000
00000000
00001000
00000100
00000010
00000001
00000100
00001000
,
00000010
00000000
00000100
00000100
00001000
00000000
00010000
00100000
,
00000000
00000000
00010000
00010000
01000000
10000000
00100000
00010000
,
01000000
00000000
00100000
00100000
00010000
00000000
00001000
00010000
,
00000100
00002000
00000100
00003010
,
00000100
00000000
00000001
00000100
00001000
00000000
00010000
00000000
,
00001000
00020000
00100000
01030000
,
10000000
00000000
00100000
00010000
00001000
00000000
00000100
00000100
,
00001000
00000000
00000010
00000000
00001000
00000000
00000100
00000100
,
00000000
00011000
00000000
00100000
,
00000000
01010000
00000000
00001000
,
00000000
00001100
00000010
00000100
,
00000001
00000000
00000100
00001000
00010000
00000000
00100000
00000000
,
00010000
00000000
01010000
01010000
00100000
00010000
01000000
00000000
,
00010000
00000000
00001000
00000100
00000010
00000001
00000100
00000000
,
00000010
00000000
00000011
00000011
00000100
00001000
00000010
00000000
,
00001000
00000000
00010000
00100000
01000000
10000000
00100000
00000000
,
01000000
10000000
00100000
02000000
,
03000000
00000000
00000000
00000000
;

//---------------dance-double - ----------------
#NOTEDATA:;
#CHARTNAME:;
#STEPSTYPE:dance-double;
#DESCRIPTION:;
#CHARTSTYLE:;
#DIFFICULTY:Hard;
#METER:12;
#RADARVALUES:0.432357,0.442902,0.354322,0.169779,0.055363,410.000000,362.000000,48.000000,23.000000,0.000000,0.000000,0.000000,0.000000,0.000000,0.432357,0.442902,0.354322,0.169779,0.055363,410.000000,362.000000,48.000000,23.000000,0.000000,0.000000,0.000000,0.000000,0.000000;
#CREDIT:;
#NOTES:
// measure 0
00000000
00000000
00000000
00000000
,  // measure 1
00000000
00000000
00011000
00000000
00110000
00000000
01010000
01010000
,  // measure 2
00000000
20000000
30020000
00130000
,  // measure 3
00100000
00000000
00010000
00001000
00000100
00000010
00001000
00000000
,  // measure 4
00000100
00000001
00002000
00000000
00003002
00000000
00000103
00000000
,  // measure 5
00000100
00000000
00001000
00010000
01000000
10000000
00100000
00000000
,  // measure 6
00010000
00000000
00001000
00001000
00000100
00000010
00000001
00000100
,  // measure 7
00001000
00000010
00001000
00010000
00100000
00010000
01000000
10000000
,  // measure 8
00100000
00010000
00001000
00000100
00000010
00000001
00000010
00000100
,  // measure 9
00001000
00000010
00001010
00000000
00001100
00000000
00000110
00000110
,  // measure 10
00000000
00000000
00000001
00000100
00001000
00000000
00000010
00000010
,  // measure 11
00001000
00000000
00000100
00010000
00001000
00100000
00010000
00010000
,  // measure 12
01000000
00000000
00000000
00000000
10000000
00000000
00100000
00000000
00010000
00000000
00100000
00000000
00001000
00010000
00000000
00000000
,  // measure 13
00001000
00000100
00000010
00000010
00000001
00000100
00001000
00000000
,  // measure 14
00010000
00001000
00100000
00010000
00001000
00001000
00011000
00000000
,  // measure 15
00010000
00100000
10000000
01000000
00010000
00010000
00011000
00000000
,  // measure 16
00010000
00100000
00010000
00001000
00000100
00000010
00000001
00000100
,  // measure 17
00000010
00000000
00001100
00000000
00011000
00000000
00101000
00101000
,  // measure 18
00000000
00000000
20000000
00000000
30010000
00000000
00100000
00010000
,  // measure 19
00001000
00000000
00010000
00001000
00000000
00000000
00000100
00000000
00000010
00000000
00002000
00000000
00000000
00000000
00003010
00000000
,  // measure 20
00000100
00000000
00000010
00000001
00000100
00001000
00000010
00000000
,  // measure 21
00000010
00001000
00001100
00000000
00011000
00000000
00110000
00000000
,  // measure 22
01010000
00000000
20000000
00000000
30010000
00000000
01000000
00100000
,  // measure 23
00010000
00001000
00002000
00000000
00003100
00000000
00001000
00000010
,  // measure 24
00000001
00000000
00000000
00000000
00000100
00001000
00000000
00000000
00001100
00000000
00000000
00000000
00000100
00001000
00000000
00000000
,  // measure 25
00001100
00000000
00011000
00000000
00110000
00000000
01100000
01100000
,  // measure 26
10000000
00010000
00100000
00100000
00001000
00010000
00000100
00000020
,  // measure 27
00001030
00000000
00001000
00000010
00000100
00000001
00000010
00002000
,  // measure 28
00003100
00000000
00001000
00010000
00010000
00100000
00010000
00000000
,  // measure 29
01000000
00000000
10000000
01000000
00010000
00100000
01000000
00100000
,  // measure 30
00010000
00001000
00011000
00000100
00011000
00010000
01010000
00100000
,  // measure 31
00000000
00010000
00001000
00000100
00000010
00000100
00000001
00000010
,  // measure 32
00000100
00010000
00011000
00100000
00011000
00001000
00001010
00000100
,  // measure 33
00000000
00000000
00110000
00000000
01100000
00000000
01010000
00010000
,  // measure 34
00000000
00100000
00020000
00000000
00031000
00000000
00010000
01000000
,  // measure 35
10000000
00000000
00200000
00000000
01300000
00000000
00010000
00001000
,  // measure 36
00000100
00000020
00000000
00000130
,  // measure 37
00000000
00000000
00000100
00000000
00000010
00000001
00000010
00000000
,  // measure 38
00000100
00001000
00010000
00000000
00010100
00000000
00001000
00010000
,  // measure 39
00100000
00000000
00010000
00000000
00010100
00000000
00001000
00000100
,  // measure 40
00000010
00000000
00001000
00001000
00000100
00010000
00100000
01000000
,  // measure 41
10000000
00000000
00100000
00010000
00001000
00000100
00000002
00000000
,  // measure 42
00001003
00000000
00000000
00000000
00000100
00001000
00000100
00000000
00010000
00000000
00001000
00000000
00100000
00010000
00000000
01000000
,  // measure 43
00000000
10000000
00010000
00100000
00010000
00001000
00000100
00001000
,  // measure 44
00000010
00000000
00000000
00000000
00000010
00001000
00000000
00000000
00000100
00000000
00000001
00000000
00000010
00000001
00000000
00000100
,  // measure 45
00000000
00000010
00001000
00000100
00000100
00001000
00000100
00010000
,  // measure 46
00001000
00100000
00020000
00000000
02030000
00000000
03010000
00000000
,  // measure 47
00100000
00000000
00000000
00000000
00010000
10000000
00010000
00000000
00100000
00000000
00010000
00000000
00001000
00010000
00001000
00000000
,  // measure 48
00000100
00001000
00000020
00000000
00000230
00000000
00000301
00000000
,  // measure 49
00000010
00000000
00000000
00000000
00000100
00000000
00001000
00000000
00000100
00000000
00010000
00001000
00010000
00000000
00001000
00000000
,  // measure 50
00100000
00010000
00110000
00000000
01001000
00000000
00011000
00011000
,  // measure 51
00000100
00002020
00003000
00001030
,  // measure 52
00000000
00020200
00030000
00010300
,  // measure 53
00010000
00100000
01000000
00010000
10000000
00000000
00110000
00000000
,  // measure 54
00010000
00000000
00001000
00000100
00000001
00000010
00000100
00000000
,  // measure 55
00001000
00000000
00010100
00001000
00011000
00100000
00101000
00010000
,  // measure 56
00000000
00010000
01000000
10000000
00100000
00010000
00001000
00010000
,  // measure 57
00000100
00010000
00101000
00010000
00010100
00001000
00001010
00000100
,  // measure 58
00000000
00001000
00000100
00000010
00000001
00000100
00000010
00000010
,  // measure 59
00000000
00000000
00000000
00000000
00001000
00010000
00001000
00000000
00100000
00000000
00010000
02000000
00000000
00000000
00000000
00000000
,  // measure 60
03000000
00000000
00000000
00000000
;
