#VERSION:0.83;
#TITLE:黒い月の遊戯;
#SUBTITLE:;
#ARTIST:NU-KO;
#TITLETRANSLIT:Kuroi tsuki no yuugi;
#SUBTITLETRANSLIT:;
#ARTISTTRANSLIT:NU-KO;
#GENRE:GAME SOUNDTRACK;
#ORIGIN:;
#CREDIT:SAIKIO;
#BANNER:Kuroi tsuki no yuugi-banner.png;
#BACKGROUND:bg.png;
#PREVIEWVID:;
#JACKET:Kuroi tsuki no yuugi-jacket.png;
#CDIMAGE:;
#DISCIMAGE:;
#LYRICSPATH:;
#CDTITLE:otocador.png;
#MUSIC:Kuroi tsuki no yuugi.ogg;
#OFFSET:0.010000;
#SAMPLESTART:75.384094;
#SAMPLELENGTH:14.680023;
#SELECTABLE:YES;
#BPMS:0.000=132.000;
#STOPS:;
#DELAYS:;
#WARPS:;
#TIMESIGNATURES:0.000=4=4;
#TICKCOUNTS:0.000=4;
#COMBOS:0.000=1;
#SPEEDS:0.000=1.000=0.000=0;
#SCROLLS:0.000=1.000;
#FAKES:;
#LABELS:0.000=Song Start;
#BGCHANGES:-0.650=Kuroi tsuki no yuugi.avi=1.000=0=0=0=StretchNoLoop====,
99999=-nosongbg-=1.000=0=0=0 // don't automatically add -songbackground-
;
#KEYSOUNDS:;
#ATTACKS:
;

//---------------dance-single - ----------------
#NOTEDATA:;
#CHARTNAME:;
#STEPSTYPE:dance-single;
#DESCRIPTION:;
#CHARTSTYLE:;
#DIFFICULTY:Beginner;
#METER:2;
#RADARVALUES:0.120110,0.140667,0.000000,0.024253,0.000000,104.000000,104.000000,0.000000,3.000000,0.000000,0.000000,0.000000,0.000000,0.000000,0.120110,0.140667,0.000000,0.024253,0.000000,104.000000,104.000000,0.000000,3.000000,0.000000,0.000000,0.000000,0.000000,0.000000;
#CREDIT:;
#NOTES:
0000
0000
0000
0000
,
0000
0000
0000
0000
,
0000
0000
0000
0000
,
0000
0000
0000
0000
,
0000
0000
1000
0000
,
1000
0000
1000
0000
,
0000
0000
0100
0000
,
0000
0000
0010
0000
,
0010
0000
0001
0001
,
0000
0000
1000
1000
,
0000
0000
0100
0100
,
0000
0000
0010
0010
,
0010
0000
0001
0001
,
0000
0000
0100
0100
,
0000
0000
1000
0000
,
1000
0000
1000
1000
,
1000
0000
0010
0000
,
0000
0000
0100
0000
,
0000
0000
0001
0000
,
0000
0000
0001
0000
,
0001
0000
1000
0000
,
0000
0000
0100
0000
,
0000
0000
0010
0000
,
0000
0000
0010
0000
,
0010
0000
0010
0000
,
0001
0000
0001
0000
,
1000
0000
1000
0000
,
0010
0000
0010
0000
,
0100
0000
0000
0000
,
0100
0100
0000
0000
,
0010
0000
0010
0000
,
0000
0000
1000
0000
,
0100
0000
0020
0000
,
0030
0000
0200
0000
,
0300
0000
0020
0000
,
0030
0000
0100
0100
,
0100
0000
0001
0000
,
0001
0000
0100
0000
,
0100
0000
1000
0000
,
1000
0000
0010
0000
,
0010
0000
0000
0100
,
0100
0000
0001
0000
,
1000
0000
0001
0001
,
0001
0000
0010
0000
,
0100
0000
0010
0010
,
0010
0000
1000
0000
,
0001
0000
1000
1000
,
1000
0000
0100
0000
,
0100
0000
1000
1000
,
1000
0000
0001
0000
,
0100
0000
0001
0001
,
1000
0000
0010
0000
,
1000
0000
0010
0010
,
0100
0000
1000
0000
,
0001
0000
1000
1000
,
0001
0000
0001
0000
,
0001
0000
0100
0000
,
0010
0000
0000
0000
,
0100
0000
0000
0000
;

//---------------dance-single - ----------------
#NOTEDATA:;
#CHARTNAME:;
#STEPSTYPE:dance-single;
#DESCRIPTION:;
#CHARTSTYLE:;
#DIFFICULTY:Easy;
#METER:4;
#RADARVALUES:0.179010,0.274564,0.097012,0.056590,0.000000,155.000000,143.000000,12.000000,7.000000,0.000000,0.000000,0.000000,0.000000,0.000000,0.179010,0.274564,0.097012,0.056590,0.000000,155.000000,143.000000,12.000000,7.000000,0.000000,0.000000,0.000000,0.000000,0.000000;
#CREDIT:;
#NOTES:
0000
0000
0000
0000
,
0000
0000
0000
0000
,
0000
0000
0000
0000
,
0000
0000
0000
0000
,
0000
0000
1000
0000
,
1000
0000
0100
0100
,
0100
0000
0010
0000
,
0000
0000
0010
0001
,
0010
0000
0001
0000
,
0001
0000
1000
0100
,
0001
0000
1000
0000
,
1000
0000
0001
0010
,
1000
0000
0100
0000
,
0100
0000
0010
0001
,
0100
0000
0100
0000
,
0100
0000
0010
1000
,
0010
0000
0001
0000
,
0001
0000
0100
0000
,
0100
0000
1000
0000
,
1000
0000
0010
0000
,
0010
0000
0100
0000
,
0001
0100
0000
0010
,
1000
0100
0010
0000
,
0010
0000
0001
0000
,
0100
0000
0010
0000
,
0010
0000
1000
0000
,
1000
0000
0100
0000
,
0100
0000
0001
0000
,
0001
0000
0010
0000
,
1000
0100
0000
0001
,
0010
0100
1000
0000
,
1000
0000
0100
0000
,
0100
0000
0020
0030
,
0100
0100
0002
0003
,
1000
1000
0200
0300
,
0010
0010
0001
0100
,
1000
0000
0020
0030
,
1000
0100
2000
3000
,
0001
0010
0200
0300
,
0100
0001
1000
0000
,
1000
0000
0100
0100
,
0100
0000
0001
1001
,
1000
1001
0010
0000
,
0100
0000
0010
0110
,
0100
0110
0001
0100
,
1000
0000
1000
1001
,
0001
1001
0010
1000
,
0100
0000
0100
0000
,
0001
0000
0010
0010
,
0100
0000
0001
0101
,
0100
0101
1000
0000
,
0100
0000
0010
1010
,
1000
1010
0001
0100
,
1000
0000
0100
1001
,
0010
0110
1000
0100
,
0001
0010
0010
0000
,
0100
0000
0010
0100
,
0001
0000
0000
0000
,
0200
0000
0000
0000
,
0000
0000
0000
0000
,
0000
0000
0000
0000
,
0000
0000
0000
0300
;

//---------------dance-single - ----------------
#NOTEDATA:;
#CHARTNAME:;
#STEPSTYPE:dance-single;
#DESCRIPTION:;
#CHARTSTYLE:;
#DIFFICULTY:Medium;
#METER:7;
#RADARVALUES:0.249460,0.349445,0.137434,0.145518,0.000000,216.000000,199.000000,17.000000,18.000000,0.000000,0.000000,0.000000,0.000000,0.000000,0.249460,0.349445,0.137434,0.145518,0.000000,216.000000,199.000000,17.000000,18.000000,0.000000,0.000000,0.000000,0.000000,0.000000;
#CREDIT:;
#NOTES:
0000
0000
0000
0000
,
0000
0000
0000
0000
,
0000
0000
0000
0000
,
0000
0000
0000
0000
,
0000
0000
0000
0001
,
0000
0001
0000
0010
,
1000
0100
0020
0000
,
0030
0000
1000
0100
,
0010
0000
0001
0100
,
0010
0100
0001
1000
,
1100
0000
1000
0010
,
1000
0100
1000
0001
,
1001
0110
0001
1000
,
0100
1000
0100
0100
,
0010
1000
0200
0000
,
0300
0000
0010
0100
,
0001
0100
0010
0000
,
1000
0100
0020
0030
,
0001
0100
0020
0030
,
1000
0100
1001
0001
,
0100
0000
0020
0030
,
0001
0100
0020
0030
,
1000
0100
0001
0000
,
0010
0100
0002
0003
,
0100
0010
1000
0100
,
0100
1000
0020
0130
,
0001
1000
0200
0310
,
0001
0100
0010
0000
,
1001
0000
2000
3000
,
0100
0010
0001
0100
,
0100
1000
0100
0000
,
0010
1000
0110
0000
,
0001
0100
0020
0001
,
0130
1000
0200
0010
,
0301
1000
0002
1000
,
0103
0010
1100
0001
,
0011
0100
0020
1000
,
0031
0100
2000
0010
,
3100
0001
0200
0001
,
1300
0010
0101
1000
,
1100
0010
0100
0001
,
0010
0000
0010
0000
1000
1000
0100
0000
,
0010
0010
0001
0000
0100
0000
0010
0000
,
1001
0000
0110
0000
0001
0001
0100
0000
,
0010
0010
1000
0000
0100
0000
0010
0000
,
0011
0000
1100
0000
0010
0010
1000
0000
,
0100
0100
0001
0000
1000
0000
0100
0000
,
1000
0000
0001
1000
0001
0000
0000
0000
,
0100
0010
1000
0100
,
1001
0000
1000
0000
0100
0010
0100
0000
,
0001
1000
0001
0000
0010
0000
0100
0000
,
1000
0000
0010
0000
1000
0100
0001
0000
,
0001
0010
1000
0000
0010
0000
1000
0000
,
1100
0000
0011
0000
1000
0100
1000
0000
,
0001
0010
0001
0000
0010
0000
1000
0000
,
0100
0000
0010
0010
0020
0000
0000
0000
,
0030
0000
1000
0100
,
0010
0001
0000
0000
,
0200
0000
0000
0000
,
0000
0000
0000
0000
,
0000
0000
0000
0000
,
0000
0000
0000
0300
;

//---------------dance-single - ----------------
#NOTEDATA:;
#CHARTNAME:;
#STEPSTYPE:dance-single;
#DESCRIPTION:;
#CHARTSTYLE:;
#DIFFICULTY:Hard;
#METER:11;
#RADARVALUES:0.368415,0.449287,0.153602,0.145518,0.000000,319.000000,300.000000,19.000000,18.000000,0.000000,0.000000,0.000000,0.000000,0.000000,0.368415,0.449287,0.153602,0.145518,0.000000,319.000000,300.000000,19.000000,18.000000,0.000000,0.000000,0.000000,0.000000,0.000000;
#CREDIT:;
#NOTES:
// measure 0
0000
0000
0000
0000
,  // measure 1
0000
0000
0000
0000
,  // measure 2
0000
0000
0000
0000
,  // measure 3
0000
0000
0000
0000
,  // measure 4
0000
0000
0000
0000
0010
1000
0010
0000
,  // measure 5
0001
0100
0001
0000
1000
0000
0100
0000
,  // measure 6
0010
0001
0100
0010
0200
0000
0000
0000
,  // measure 7
0300
0000
0000
0000
0010
0010
1000
0001
,  // measure 8
0100
0000
0010
0000
0001
0010
0100
0000
,  // measure 9
1000
0100
0010
0000
0001
1000
0010
0100
,  // measure 10
0001
0001
1000
1000
0010
1000
0100
0000
,  // measure 11
0010
0001
0100
0000
1000
0100
0010
0000
,  // measure 12
1001
0000
1001
0000
0001
1000
0010
0000
,  // measure 13
1000
0001
0100
0000
1000
1000
0001
0010
,  // measure 14
0100
1000
0001
0100
0020
0000
0100
0000
,  // measure 15
0130
0000
0010
0000
0001
0001
1000
1000
,  // measure 16
0100
0010
1000
1000
,  // measure 17
0100
0010
0001
0000
0100
0000
0100
0000
,  // measure 18
0001
0010
0100
0000
0010
0000
0010
0000
,  // measure 19
1000
0010
1000
0001
0100
0000
0010
1000
,  // measure 20
0200
0000
0010
0000
0310
0000
0001
0010
,  // measure 21
0100
0010
1000
0000
0001
0000
0100
0000
,  // measure 22
0010
1000
0100
1000
0001
0000
0100
0000
,  // measure 23
0010
0000
0001
0001
0100
0000
0010
0000
,  // measure 24
2000
0000
3100
0000
0010
0000
0001
0100
,  // measure 25
0010
1000
0001
0000
1000
0000
0100
1000
,  // measure 26
0010
0100
0001
0000
1000
0000
0001
0000
,  // measure 27
0100
1000
0001
1000
0200
0000
0310
0001
,  // measure 28
0020
0000
0130
0000
0001
0000
0100
1000
,  // measure 29
0010
0010
0100
0000
0010
0000
0001
0010
,  // measure 30
0001
1000
0010
1000
0100
0000
1000
0000
,  // measure 31
0010
0000
1000
1000
1000
0000
0000
0000
,  // measure 32
0010
0100
0002
0103
,  // measure 33
0010
1000
0100
0010
2000
0000
3100
0000
,  // measure 34
0010
1000
0001
1000
0020
0000
1030
0000
,  // measure 35
0100
0000
0001
0100
0001
0000
1010
0000
,  // measure 36
1000
0000
0100
0000
0020
0000
1000
0030
,  // measure 37
0100
0000
0001
1000
0200
0000
0010
0300
,  // measure 38
0001
0000
0010
0100
2000
0000
0100
3000
,  // measure 39
0010
0000
0001
0100
0020
0000
0000
0000
,  // measure 40
0230
0000
0010
0000
0301
0010
0100
0100
,  // measure 41
0010
0010
1000
0000
0001
0100
1010
0000
,  // measure 42
0001
0100
1010
0000
0001
0010
0100
1000
,  // measure 43
0100
0010
0001
0000
0100
1000
0011
0000
,  // measure 44
0100
1000
0011
0000
0100
0010
1000
0100
,  // measure 45
1001
0000
0110
0000
0001
0010
1100
0000
,  // measure 46
0001
0010
1100
0000
0001
1000
0100
0010
,  // measure 47
0001
0001
0100
0010
2000
0000
3200
0000
,  // measure 48
0310
0000
0001
0000
0100
0010
0100
0001
,  // measure 49
0010
0000
0100
0000
0010
0001
1100
0000
,  // measure 50
0010
1000
0101
0000
0010
1000
0100
0010
,  // measure 51
0100
1000
0010
0100
1000
0100
0011
0000
,  // measure 52
0001
0100
1010
0000
0100
1000
0001
0100
,  // measure 53
0110
0000
1001
0000
0010
0100
1010
0000
,  // measure 54
0100
0010
0101
0000
0010
0100
0100
0001
,  // measure 55
0010
1000
0100
0001
0200
0000
0010
0000
,  // measure 56
0301
0000
0010
0000
1000
0100
0010
0001
,  // measure 57
0100
0010
0000
0000
,  // measure 58
0200
0000
0000
0000
,  // measure 59
0000
0000
0000
0000
,  // measure 60
0000
0000
0000
0000
,  // measure 61
0000
0000
0000
0300
;

//---------------dance-double - ----------------
#NOTEDATA:;
#CHARTNAME:;
#STEPSTYPE:dance-double;
#DESCRIPTION:;
#CHARTSTYLE:;
#DIFFICULTY:Easy;
#METER:5;
#RADARVALUES:0.202108,0.274564,0.121265,0.088928,0.000000,175.000000,160.000000,15.000000,11.000000,0.000000,0.000000,0.000000,0.000000,0.000000,0.202108,0.274564,0.121265,0.088928,0.000000,175.000000,160.000000,15.000000,11.000000,0.000000,0.000000,0.000000,0.000000,0.000000;
#CREDIT:;
#NOTES:
00000000
00000000
00000000
00000000
,
00000000
00000000
00000000
00000000
,
00000000
00000000
00000000
00000000
,
00000000
00000000
00000000
00000000
,
00000000
00000000
00010000
00000000
,
00010000
00000000
00001000
00000100
,
00001000
00000010
00000200
00000000
,
00000300
00000000
00001000
00000010
,
00000100
00000000
00000001
00000100
,
00001000
00000000
00010000
00100000
,
01000000
00000000
10000000
01000000
,
00010000
00000000
00001000
00000100
,
00000010
00000110
00000001
00000100
,
00001000
00000000
00010000
00100000
,
01000000
00100000
02000000
00000000
,
03000000
00000000
00010000
00001000
,
00000100
00001000
00000010
00000000
,
00001000
00000100
00000001
00000000
,
00000010
00000100
00001000
00000000
,
00010000
00001000
00100000
00000000
,
00010000
00000000
01000000
00000000
,
10000000
01000000
00100000
00000000
,
00010000
00001000
00000100
00000000
,
00000010
00001000
00000100
00000000
,
00010000
00001000
00200000
00300000
,
00010000
01000000
00020000
00030000
,
00001000
00000100
00000020
00000030
,
00000100
00000001
00000001
00000000
,
00000100
00000000
00000020
00000030
,
00001000
00000100
00000000
00010000
,
00001000
00100000
00010000
00000000
,
00000000
01000000
10000000
00000000
,
00100000
00000000
00010000
00000100
,
00001000
00000010
00001010
00000000
,
00000001
00000100
00001100
00000000
,
00010000
01000000
00100000
00000000
,
10000000
00100000
02000000
03000000
,
00000000
00100000
00020000
00030000
,
00000000
00001000
00000020
00000030
,
00000000
00000100
00000001
00000000
,
00000010
00000000
00001000
00010000
,
01000000
00000000
00110000
00001000
,
00110000
00001000
00000100
00001000
,
00000010
00000000
00000011
00000100
,
00000011
00000100
00010000
00001000
,
00100000
00000000
10000000
01010000
,
10000000
01010000
00100000
00010000
,
00001000
00000100
00000010
00000000
,
00000100
00000000
00001000
00000010
,
00000001
00000100
00001000
00000110
,
00000010
00001001
00010000
00001000
,
00010000
00000000
01000000
00110000
,
00100000
01010000
10000000
00100000
,
00010000
00000000
00001000
00010100
,
00001000
00101000
00010000
00001000
,
00000100
00000010
00000020
00000030
,
00000000
00000100
00000001
00000100
,
00001000
00010000
00000000
00000000
,
02000000
00000000
00000000
00000000
,
00000000
00000000
00000000
00000000
,
00000000
00000000
00000000
00000000
,
00000000
00000000
00000000
03000000
;

//---------------dance-double - ----------------
#NOTEDATA:;
#CHARTNAME:;
#STEPSTYPE:dance-double;
#DESCRIPTION:;
#CHARTSTYLE:;
#DIFFICULTY:Medium;
#METER:8;
#RADARVALUES:0.271403,0.349445,0.113181,0.121265,0.000000,235.000000,221.000000,14.000000,15.000000,0.000000,0.000000,0.000000,0.000000,0.000000,0.271403,0.349445,0.113181,0.121265,0.000000,235.000000,221.000000,14.000000,15.000000,0.000000,0.000000,0.000000,0.000000,0.000000;
#CREDIT:;
#NOTES:
00000000
00000000
00000000
00000000
,
00000000
00000000
00000000
00000000
,
00000000
00000000
00000000
00000000
,
00000000
00000000
00000000
00000000
,
00000000
00000000
00000001
00000100
,
00001000
00010000
00100000
00010000
,
01000000
00000000
00100000
00100000
00200000
00000000
00000000
00300000
,
00000000
00000000
00010000
01000000
,
10000000
00000000
00100000
00000000
01000000
00010000
00001000
00000000
,
00000100
00000000
00001000
00000000
00000010
00000010
00000100
00000000
,
00000001
00000000
00000010
00000000
00000001
00000100
00001000
00000000
,
00010000
00100000
00010000
01000000
,
01100000
00000000
10010000
00000000
01000000
00100000
00010000
00000000
,
00001000
00000100
00000010
00000100
,
00000001
00000001
00000001
00000000
00000020
00000000
00000000
00000030
,
00000000
00000000
00000100
00001000
,
00011000
00011000
00200000
00300000
,
00010000
01000000
10000000
00000000
,
00100000
00010000
00001000
00000000
,
00001000
00000100
00000020
00000030
,
00000002
00000003
00000100
00000000
,
00001000
00010000
00001000
00000000
00100000
00000000
00000000
00000000
,
00010000
01000000
10000000
00000000
,
00100000
00010000
00002000
00003000
,
00000100
00000000
00000010
00000000
00000001
00000000
00000001
00000010
,
00000100
00000000
00000010
00000000
00001000
00000000
00001000
00010000
,
00100000
00000000
01000000
00000000
00100000
00000000
00100000
01000000
,
10000000
00000000
10000000
00000000
00200000
00000000
00300000
00100000
,
00100000
00000000
00010000
00000000
,
00001000
00010000
00001000
00000000
00000100
00000000
00000010
00000000
,
00000100
00000000
00000001
00000100
00000010
00000000
00000010
00000000
,
00001000
00010000
00011000
00000000
,
00100000
00010000
20000000
30100000
,
00100000
00001000
00002000
00013000
,
00010000
00000100
00000200
00000310
,
00000010
00000000
00000100
00000000
00000001
00000100
00000001
00000000
,
00000010
00001000
00012000
00103000
,
01000000
00000000
00100000
10000000
00200000
00000000
10300000
00000000
,
01000000
00000000
01000000
01000000
02000000
00000000
03100000
00000000
,
00010000
00001000
00000020
00000030
,
00000100
00000000
00001000
00000100
,
00000010
00000000
00000001
00000000
00000001
00000100
00001000
00000000
,
00010000
01000000
10000000
00000000
00100000
00000000
00010000
00000000
,
00110000
00000000
00110000
00000000
00001000
00000100
00000010
00000000
,
00000100
00000010
00000001
00000000
00000010
00000000
00000100
00000000
,
00001100
00000000
00001100
00000000
00001000
00010000
01000000
00000000
,
00010000
01000000
10000000
00000000
00100000
00000000
00010000
00000000
,
00001000
00001000
00010000
00000000
00000100
00000000
00001000
00000000
,
00000010
00000100
00000001
00000100
,
00001000
00000000
00010000
00000000
00100000
00010000
00001000
00000000
,
00001000
00000100
00000010
00000000
00000001
00000000
00000100
00000000
,
00000110
00000000
00001010
00000000
00001000
00010000
00100000
00000000
,
00010000
00100000
10000000
00000000
00100000
00000000
00010000
00000000
,
00011000
00000000
00010100
00000000
00001000
00000100
00000001
00000000
,
00000001
00000010
00001000
00000000
00000100
00000000
00001000
00000000
,
00010000
00000000
00000100
00000100
00000100
00000000
00000000
00000000
,
00010000
00100000
00010000
01000000
,
00100000
00010000
00000000
00000000
,
00000200
00000000
00000000
00000000
,
00000000
00000000
00000000
00000000
,
00000000
00000000
00000000
00000000
,
00000000
00000000
00000000
00000300
;

//---------------dance-double - ----------------
#NOTEDATA:;
#CHARTNAME:;
#STEPSTYPE:dance-double;
#DESCRIPTION:;
#CHARTSTYLE:;
#DIFFICULTY:Hard;
#METER:12;
#RADARVALUES:0.362640,0.449287,0.194024,0.137434,0.000000,314.000000,290.000000,24.000000,17.000000,0.000000,0.000000,0.000000,0.000000,0.000000,0.362640,0.449287,0.194024,0.137434,0.000000,314.000000,290.000000,24.000000,17.000000,0.000000,0.000000,0.000000,0.000000,0.000000;
#CREDIT:;
#NOTES:
00000000
00000000
00000000
00000000
,
00000000
00000000
00000000
00000000
,
00000000
00000000
00000000
00000000
,
00000000
00000000
00000000
00000000
,
00000000
00000000
00000000
00000000
00001000
00010000
00100000
00000000
,
00010000
00001000
00000100
00000000
00001000
00000000
00000010
00000000
,
00000001
00000000
00000100
00001000
00020000
00000000
00000000
00000000
,
00030000
00000000
00000000
00000000
00100000
00100000
00010000
00000000
,
01000000
00000000
00010000
00000000
00100000
00010000
00001000
00000000
,
00000010
00000100
00000001
00000000
00000010
00000100
00001000
00000100
,
00010000
00010000
00001000
00001000
00010000
00100000
00010000
00000000
,
00010000
10000000
00010000
00000000
00100000
00010000
00001000
00010000
,
00001010
00000000
00001100
00000000
00000100
00000010
00000001
00000000
,
00000100
00001000
00010000
00000000
00010000
01000000
10000000
00100000
,
00010000
00001000
00010000
00000100
00002000
00000000
00000100
00000000
,
00003100
00000000
00000010
00000001
00000100
00000100
00000010
00000010
,
00001000
00000100
00020000
00001000
,
00031000
00000000
00010000
00100000
00010000
00000000
01000000
00000000
,
10000000
00000000
00100000
00010000
00001000
00000000
00010000
00000000
,
00000100
00000000
00001000
00000010
00000100
00000000
00000001
00000010
,
00000100
00001000
00001100
00010000
,
00001000
00010000
00100000
00000000
00010000
00000000
10000000
00100000
,
00010000
00000000
00001000
00010000
00001000
00000000
00000100
00000000
,
00001000
00000000
00000010
00000010
00000100
00000000
00000001
00000000
,
00000100
00001000
00000200
00010300
,
00010000
00001000
00100000
00010000
20000000
00000000
30010000
00000000
,
00100000
00010000
00001000
00010000
00000200
00000000
00010300
00000000
,
00001000
00000000
00001000
00000010
00000100
00000000
00000001
00000010
,
00000100
00000000
00010000
00001000
00020000
00000000
00031000
00000000
,
00010000
00100000
01000000
00000000
00010000
00000000
00010000
01000000
,
10000000
01000000
00100000
00010000
00001000
00000000
00010000
00000000
,
00000100
00001000
00001010
00000000
,
00001100
00011000
00120000
00130000
,
01000000
00000000
00100000
00010000
20000000
00000000
30010000
00000000
,
00010000
00000000
00001000
00010000
00002000
00000000
00010000
00000000
,
00013000
00000000
00000100
00001000
00000010
00000010
00000100
00000000
,
00000001
00000000
00000011
00000000
00000020
00000000
00000100
00000030
,
00000100
00000000
00010000
00001000
00200000
00000000
00010000
00300000
,
00010000
00000000
01000000
10000000
02000000
00000000
10000000
03000000
,
10000000
00000000
00010000
00001000
00000200
00000000
00000000
00000000
,
00002300
00000000
00000000
00000000
00003000
00000100
00000100
00000010
,
00000010
00001000
00000100
00000000
00000001
00000010
00001100
00000000
,
00010000
00100000
01010000
00000000
00100000
10000000
00100000
00000000
,
00010000
00000000
00010000
00000000
00100000
00001000
00110000
00000000
,
00001000
00000100
00001010
00000000
00000100
00001000
00000010
00000000
,
00000011
00000000
00001100
00000000
00000100
00001000
00011000
00000000
,
00100000
00010000
00011000
00000000
00100000
10000000
01000000
10000000
,
00100000
00010000
00100000
00001000
00010000
00000000
00001000
00000000
,
00000100
00000000
00001000
00000010
00000100
00000100
00000001
00001000
,
00000010
00000000
00000100
00000000
00000010
00001000
00001100
00000000
,
00000010
00001000
00011000
00000000
00010000
00100000
00010000
01000000
,
10000000
00100000
00010000
00000000
00010000
00001000
00101000
00000000
,
00001000
00000100
00010100
00000000
00001000
00000100
00000010
00000100
,
00000110
00000000
00001001
00000000
00001000
00010000
00110000
00000000
,
01000000
00100000
10010000
00000000
00100000
00010000
00001000
00000100
,
00000010
00000001
00000100
00000010
00002000
00000000
00000100
00000000
,
00003100
00000000
00001000
00000000
00001000
00010000
00100000
00010000
,
01000000
00010000
00000000
00000000
,
02000000
00000000
00000000
00000000
,
00000000
00000000
00000000
00000000
,
00000000
00000000
00000000
00000000
,
00000000
00000000
00000000
03000000
;
