#VERSION:0.83;
#TITLE:気まぐれロマンティック;
#SUBTITLE:;
#ARTIST:いきものがかり;
#TITLETRANSLIT:Kimagure Romantic;
#SUBTITLETRANSLIT:;
#ARTISTTRANSLIT:Ikimonogakari;
#GENRE:J-POP;
#ORIGIN:;
#CREDIT:SAIKIO;
#BANNER:Kimagure Romantic-banner.png;
#BACKGROUND:bg.png;
#PREVIEWVID:;
#JACKET:Kimagure Romantic-jacket.png;
#CDIMAGE:;
#DISCIMAGE:;
#LYRICSPATH:;
#CDTITLE:Saikio Simfiles.png;
#MUSIC:Kimagure Romantic.ogg;
#OFFSET:0.225000;
#SAMPLESTART:71.014946;
#SAMPLELENGTH:10.999991;
#SELECTABLE:YES;
#BPMS:0.000=170.020;
#STOPS:;
#DELAYS:;
#WARPS:;
#TIMESIGNATURES:0.000=4=4;
#TICKCOUNTS:0.000=4;
#COMBOS:0.000=1;
#SPEEDS:0.000=1.000=0.000=0;
#SCROLLS:0.000=1.000;
#FAKES:;
#LABELS:0.000=Song Start;
#BGCHANGES:0.000=Kimagure Romantic.avi=1.000=0=0=0=StretchNoLoop====,
99999=-nosongbg-=1.000=0=0=0 // don't automatically add -songbackground-
;
#KEYSOUNDS:;
#ATTACKS:
;

//---------------dance-single - ----------------
#NOTEDATA:;
#CHARTNAME:;
#STEPSTYPE:dance-single;
#DESCRIPTION:;
#CHARTSTYLE:;
#DIFFICULTY:Beginner;
#METER:3;
#RADARVALUES:0.115555,0.206135,0.008698,0.017395,0.000000,93.000000,92.000000,1.000000,2.000000,0.000000,0.000000,0.000000,0.000000,0.000000,0.115555,0.206135,0.008698,0.017395,0.000000,93.000000,92.000000,1.000000,2.000000,0.000000,0.000000,0.000000,0.000000,0.000000;
#CREDIT:;
#NOTES:
0000
0000
0000
0000
,
0000
0000
0000
0000
,
0000
0000
0000
0000
,
0000
0000
0000
0000
,
0000
0000
0000
0000
,
0001
0000
0000
0000
,
0001
0000
0000
0000
,
0020
0000
0030
0000
,
0000
0000
0000
0000
,
0010
0000
0000
0000
,
0001
0000
0000
0000
,
0100
0000
0000
0000
,
1000
0000
0000
0000
,
0010
0000
0000
0000
,
0001
0000
0000
0000
,
1000
0000
0000
0000
,
0100
0000
0000
0000
,
0010
0000
0000
0000
,
1000
0000
0000
0000
,
1000
0000
0000
0000
,
0100
0000
0000
0000
,
0100
0000
0000
0000
,
0010
0000
0000
0000
,
1000
0000
0000
0000
,
0001
0000
0000
0000
,
0100
0000
0000
0000
,
0001
0000
0000
0000
,
0100
0000
0001
0000
,
0100
0000
0000
0000
,
0000
0000
0000
0000
,
0010
0000
0000
0000
,
1000
0000
0010
0000
,
1000
0000
0000
0000
,
0000
0000
0000
0001
,
0000
0000
0000
0100
,
0000
0000
0000
0010
,
0000
0000
0000
1000
,
0000
0000
0000
0100
,
0000
0000
0000
0010
,
0000
0000
0000
0000
,
1000
0000
0000
0010
,
0000
0000
0000
0000
,
1000
0000
1000
0000
,
1000
0000
0000
0000
,
0001
0000
0001
0000
,
0001
0000
0000
0000
,
0010
0000
0010
0000
,
0010
0000
0000
0000
,
1000
0000
1000
0000
,
0020
0000
0030
0000
,
0000
0000
0000
0000
,
1000
0000
0001
0000
,
1000
0000
0001
0000
,
0100
0000
0010
0000
,
0100
0000
0010
0000
,
1000
0000
1000
0000
,
0001
0000
0001
0000
,
0010
0000
0010
0000
,
0010
0000
0000
0000
,
1000
0000
0001
0000
,
1000
0000
0001
0000
,
0100
0000
0010
0000
,
0100
0000
0010
0000
,
0000
0000
0000
0000
,
0000
0000
0000
0000
,
0010
0000
0000
0000
,
0000
0000
0000
0000
,
0000
0000
0000
0000
,
0000
0010
0000
0000
,
0000
0001
0000
0000
,
1000
1000
1000
0000
,
0001
0000
0001
0000
,
0010
0010
0010
0000
,
0100
0000
0010
0000
,
0001
0000
0100
0000
,
0001
0000
1000
0000
,
0100
0000
0000
0000
,
0010
0000
0000
0000
,
0001
0000
0000
0000
,
1001
0000
0000
0000
;

//---------------dance-single - ----------------
#NOTEDATA:;
#CHARTNAME:;
#STEPSTYPE:dance-single;
#DESCRIPTION:;
#CHARTSTYLE:;
#DIFFICULTY:Easy;
#METER:5;
#RADARVALUES:0.205017,0.309203,0.078279,0.078279,0.000000,165.000000,156.000000,9.000000,9.000000,0.000000,0.000000,0.000000,0.000000,0.000000,0.205017,0.309203,0.078279,0.078279,0.000000,165.000000,156.000000,9.000000,9.000000,0.000000,0.000000,0.000000,0.000000,0.000000;
#CREDIT:;
#NOTES:
0000
0000
0000
0000
,
0000
0000
0000
0000
,
0000
0000
0000
0000
,
0000
0000
0000
0000
,
0000
0000
0000
0001
,
0000
0001
0000
0100
,
0000
0100
0000
0000
,
0020
0000
0000
0030
,
0000
0000
0000
0000
,
0010
0000
0000
1000
,
0000
0000
0000
0100
,
0010
0000
0000
0002
,
0000
0000
0000
0000
,
0003
0000
0000
0000
,
0001
0000
0000
1000
,
0100
0000
0010
0000
,
2000
0000
0000
0000
,
3000
0000
1000
0000
,
0100
0000
0000
0010
,
0000
0010
0000
1000
,
0000
0000
0000
1000
,
0000
0100
0000
0010
,
0000
0000
0000
0001
,
0100
0000
0000
0000
,
0010
0000
1000
0000
,
0100
0000
0000
0000
,
0010
0000
1000
0000
,
0010
0000
0001
0000
,
0020
0000
0000
0000
,
0030
0000
0100
0000
,
1000
0000
0001
0000
,
0100
0000
0001
0000
,
0200
0000
0000
0000
,
0300
0000
0001
0000
,
0001
0000
0100
0000
,
1000
0000
1000
0000
,
0001
0000
0100
0000
,
0010
0000
0000
0100
,
0100
0000
1000
0000
,
0100
0000
0000
0000
,
0010
0000
0001
0000
,
0010
0000
0000
0000
,
1001
0000
1001
0000
,
0100
0010
0000
0100
,
1000
0100
1000
0000
,
0010
0100
0000
0000
,
0110
0000
0110
0000
,
0001
0100
0001
0000
,
0010
1000
0001
1000
,
0020
0000
0000
0030
,
0100
0000
0010
0000
,
1000
0001
1000
0001
,
0010
0010
0001
0001
,
0100
0010
0100
0010
,
0100
0100
1000
1000
,
0001
0100
1000
0100
,
0010
0000
1000
0010
,
1001
0000
1001
0000
,
0110
0000
0100
1000
,
0001
1000
0001
0001
,
1000
0000
0001
0100
,
0010
0100
0010
0010
,
0100
0000
1000
0000
,
1001
0000
0000
0000
,
0000
0100
0100
0010
,
0200
0000
0310
0000
,
0000
0000
0000
0100
,
0000
0000
0000
0000
,
0000
0100
0100
0010
,
0100
0000
0010
0000
,
1000
0100
1000
0010
,
0100
0100
0000
0010
,
0100
0010
0100
1000
,
0001
1000
0100
0000
,
0010
0001
0010
0001
,
0001
0100
1000
0010
,
0002
0000
0003
0010
,
2000
0000
0000
3100
,
0000
0000
0000
0000
,
1001
0000
0000
0000
;

//---------------dance-single - ----------------
#NOTEDATA:;
#CHARTNAME:;
#STEPSTYPE:dance-single;
#DESCRIPTION:;
#CHARTSTYLE:;
#DIFFICULTY:Medium;
#METER:9;
#RADARVALUES:0.301934,0.445920,0.139163,0.182652,0.000000,243.000000,227.000000,16.000000,21.000000,0.000000,0.000000,0.000000,0.000000,0.000000,0.301934,0.445920,0.139163,0.182652,0.000000,243.000000,227.000000,16.000000,21.000000,0.000000,0.000000,0.000000,0.000000,0.000000;
#CREDIT:;
#NOTES:
0000
0000
0000
0000
,
0000
0000
0000
0000
,
0000
0000
0000
0000
,
0000
0000
0000
0000
,
0000
0000
0000
0000
,
0001
0001
1000
1000
,
0010
0100
0001
1000
,
0020
0130
2000
3100
,
0020
0000
0000
0000
0000
0030
0000
0000
,
2002
0000
0000
3003
,
0100
0000
0100
0010
0000
0000
0000
0000
,
0001
0000
0001
0100
0000
0000
0000
0002
,
0000
0000
0000
0000
,
0003
0000
0000
0001
,
0001
0000
1000
0100
0000
0000
0000
0000
,
0010
0000
0010
0100
0000
0000
0000
2000
,
0000
0000
0000
0000
,
3000
0000
0000
0000
0010
0100
0000
0010
,
0000
0000
0000
0100
,
0001
0000
0100
0010
,
1000
0000
0100
0000
,
0001
1000
0100
0000
,
1000
0000
0000
0010
,
0100
0000
0010
0000
,
1000
0000
1000
0010
0000
0100
0000
0000
,
0001
0000
0000
0100
,
0100
0000
0000
0001
0000
0100
0000
0000
,
0010
0000
1000
0001
0000
1000
0000
0020
,
0000
0000
0000
0000
,
0030
0000
0000
0000
0000
0100
0001
0000
,
1000
0000
0000
0010
0000
1000
0000
0000
,
0100
0000
1000
0010
0000
0000
0000
0200
,
0000
0000
0000
0000
,
0300
0000
0000
0000
0010
0001
0000
1000
,
0000
0000
0100
0000
,
0010
1000
0100
1000
,
0000
0001
0000
0010
,
0100
0000
0001
0000
0000
0100
0000
0010
,
0000
0000
0000
0001
,
0100
0000
0010
0000
,
1000
0000
1000
0001
0000
0000
0100
0000
,
0010
0000
1000
0000
,
0001
0000
0001
1000
0010
0000
0010
1000
,
0001
0100
0010
1000
,
1100
0010
1100
0001
,
0100
0010
0100
0000
0001
0000
0100
0000
,
1000
0000
1000
0001
0100
0000
0100
0001
,
1000
0100
0001
1000
,
1100
0101
1100
0001
,
0020
0000
0000
0000
0000
0030
0000
0000
,
1001
0000
1000
0010
,
1000
0000
1000
0001
1000
0000
0001
0000
,
1000
0000
1000
0001
0100
0000
0010
0000
,
0100
0000
0100
0010
0100
0000
0010
0000
,
0100
0000
0100
0010
0100
0000
0010
0000
,
1100
0001
1000
0010
,
0100
0001
0100
0100
,
0022
0033
2200
3300
,
0110
0000
0001
0100
,
1000
0000
1000
0001
1000
0000
0001
0000
,
1000
0000
1000
0001
1000
0000
0001
0000
,
0100
0000
0100
0010
0100
0000
0010
0000
,
0100
0000
0100
0010
0100
0000
0010
0000
,
1001
0000
0000
0000
,
0000
0010
0010
0100
,
0020
0000
0100
0000
,
0000
0000
0000
0000
0000
0000
0000
0030
,
0000
0000
0000
0000
,
0000
0000
0100
0000
0100
0001
0000
0100
,
0000
0010
0000
0000
1000
0001
0000
0000
,
0100
0000
1000
0100
0000
0000
0100
1000
,
0000
0100
1000
0100
0000
0000
0010
0100
,
0000
0000
0001
0100
0000
0000
0100
0010
,
0000
0010
0100
0000
0010
0000
0000
0001
,
0001
0000
0001
0100
0000
0000
0100
0001
,
0000
0001
0100
0001
0000
0000
0010
0000
,
2020
0000
0000
3030
0000
0100
1000
0000
,
0022
0000
0000
0000
0033
0000
0000
0220
,
0000
0000
0000
0000
0330
0000
0000
1001
;

//---------------dance-single - ----------------
#NOTEDATA:;
#CHARTNAME:;
#STEPSTYPE:dance-single;
#DESCRIPTION:;
#CHARTSTYLE:;
#DIFFICULTY:Hard;
#METER:11;
#RADARVALUES:0.403822,0.548824,0.217442,0.217442,0.000000,325.000000,300.000000,25.000000,25.000000,0.000000,0.000000,0.000000,0.000000,0.000000,0.403822,0.548824,0.217442,0.217442,0.000000,325.000000,300.000000,25.000000,25.000000,0.000000,0.000000,0.000000,0.000000,0.000000;
#CREDIT:;
#NOTES:
0000
0000
0000
0000
,
0000
0000
0000
0000
,
0000
0000
0000
0000
,
0000
0000
0000
0000
,
0000
0000
0000
0000
0000
0000
0000
1000
,
0001
1000
0001
0100
0000
0100
0010
0100
,
0000
0001
0100
0010
0000
0100
0001
0000
,
2000
3010
0002
0103
,
0020
0000
0000
0030
,
2002
0000
0000
3003
,
0100
0000
0100
0010
0000
0000
1000
0000
,
0001
0000
0100
0010
0000
1000
0000
0002
,
0000
0000
0100
0000
,
0103
0000
0000
0000
0000
0010
1000
0000
,
0001
0000
0100
0010
0000
1000
0100
1000
,
0010
0000
0100
0000
0001
0100
0000
0200
,
0000
0000
0010
0000
,
0310
0000
0000
0000
0100
1000
0000
0010
,
0000
0000
0010
1000
0000
0000
0100
0001
,
0000
0000
1000
0001
0100
0010
0001
2000
,
0000
0000
3000
0000
0000
0010
0100
0001
,
0000
0000
1000
0000
0100
0010
0000
0002
,
0000
0003
0000
1100
,
0001
0000
0000
0000
0100
0000
0000
0010
,
1000
0000
1000
0100
0000
1000
0000
0010
,
0100
0010
0000
0000
0000
0001
0100
1000
,
0010
0000
0100
0001
0000
0100
0000
0010
,
0100
0000
0001
0100
0000
0100
0000
0020
,
0000
0000
1000
0000
,
0130
0000
0000
0000
0000
0001
0100
0000
,
0001
0000
1000
0010
0000
0100
0000
1000
,
0001
0000
0001
0100
0000
1000
0000
0200
,
0000
0000
0001
0000
,
0310
0000
0000
0000
1000
0100
0000
0002
,
0000
0000
0003
0000
0000
0100
0010
1000
,
0000
0000
0001
1000
0000
0100
1000
0100
,
0000
0000
0000
0100
0000
0000
0001
1000
,
0000
0000
1000
0010
0000
0100
0000
0200
,
0000
0300
0000
0001
,
0101
0000
0000
0000
0010
0000
0000
0100
,
0001
0000
1000
1000
0000
0010
0100
0000
,
0020
0000
0000
0030
0000
0000
0000
1000
,
0001
0000
0001
1000
0100
0000
0100
0000
,
0010
0000
1100
0000
1001
0000
0100
0010
,
0100
0001
0100
0010
,
1000
0001
1000
0001
0000
0100
0010
0001
,
1000
0000
1000
0100
0010
0000
0010
0001
,
0100
0011
1100
0001
,
1001
0110
0001
0100
,
1000
0010
1000
0001
1000
0000
0010
0000
,
2002
3003
0100
0010
,
1000
0001
1000
0010
0001
1000
0001
0000
,
0100
1001
1010
0011
,
0100
0010
0100
1000
0010
0100
0010
0000
,
0100
1010
1001
1100
,
0002
0000
0103
0010
0000
2000
0000
3001
,
0000
0100
0010
0100
,
2000
3001
0002
1003
,
0200
0310
0100
0010
,
1000
0100
1000
0100
0001
0100
0001
0000
,
0100
1001
0101
1010
,
0100
0010
0100
0001
0100
0010
0100
0000
,
0010
0000
1100
0000
0001
0001
1000
0000
,
0110
0000
0000
0000
,
0000
0100
0100
0010
,
0200
0000
0010
0000
,
0000
0000
0000
0000
0000
0000
0000
0300
,
0000
0000
0000
0000
,
0000
0000
0001
0100
1000
0100
0000
0010
,
0000
0100
0000
1000
0001
1000
0000
0000
,
1000
0100
1000
0100
0000
1000
0010
0100
,
0000
0100
0001
0010
0000
0010
0100
0001
,
0000
0001
0100
0010
0000
1000
0001
1000
,
0000
0100
1000
0000
1010
0000
0000
0010
,
0100
0001
0100
0001
0000
0010
0001
0010
,
0000
0100
1000
0100
0000
0001
0100
0000
,
2001
0000
0010
0000
3001
0100
0010
0000
,
1002
0000
0010
0000
1000
0003
0100
0020
,
0000
0000
0000
0000
0000
0030
0000
1001
;

//---------------dance-double - ----------------
#NOTEDATA:;
#CHARTNAME:;
#STEPSTYPE:dance-double;
#DESCRIPTION:;
#CHARTSTYLE:;
#DIFFICULTY:Easy;
#METER:5;
#RADARVALUES:0.205017,0.343559,0.069582,0.104372,0.000000,165.000000,157.000000,8.000000,12.000000,0.000000,0.000000,0.000000,0.000000,0.000000,0.205017,0.343559,0.069582,0.104372,0.000000,165.000000,157.000000,8.000000,12.000000,0.000000,0.000000,0.000000,0.000000,0.000000;
#CREDIT:;
#NOTES:
00000000
00000000
00000000
00000000
,
00000000
00000000
00000000
00000000
,
00000000
00000000
00000000
00000000
,
00000000
00000000
00000000
00000000
,
00000000
00000000
00000000
00000000
,
00010000
00000000
00010000
00000000
,
00010000
00001000
00010000
00000000
,
00002000
00003000
00000100
00000000
,
00000020
00000000
00000030
00000000
,
00000200
00000000
00000000
00000300
,
00000001
00000000
00000100
00000000
,
00001000
00000000
00010000
00000000
,
00200000
00000000
00000000
00000000
,
00300000
00000000
00000000
00000000
,
00010000
00000000
01000000
00000000
,
10000000
00000000
00010000
00000000
,
00002000
00000000
00000000
00000000
,
00003000
00000000
00000000
00000000
,
00000010
00000000
00000001
00000000
,
00000100
00000000
00001000
00001000
,
00000000
00000000
00000000
00000000
,
00010000
00000000
00100000
00000000
,
00010000
00000000
00000000
00001000
,
00011000
00000000
00000000
00000000
,
00001000
00000000
00000100
00000000
,
00000010
00000000
00000000
00000000
,
00000001
00000000
00000010
00000000
,
00000100
00000000
00001000
00100000
,
02000000
00000000
00000000
00000000
,
03000000
00000000
00000000
00000000
,
00010000
00000000
00100000
00000000
,
01000000
00000000
00010000
00001000
,
00000020
00000000
00000000
00000000
,
00000030
00000000
00000010
00000000
,
00000100
00000000
00000000
00000000
,
00000001
00000000
00000100
00000000
,
00001000
00000000
00000000
00000000
,
00010000
00000000
00100000
00000000
,
01000000
00000000
00000000
00000000
,
10000000
00000000
00000000
00000000
,
01000000
00000000
10000000
00000000
,
02000000
00000000
03000000
00000000
,
00100000
00000000
00110000
00000000
,
00001000
00010000
00001000
00000000
,
00000100
00000000
00001000
00000000
,
00000010
00000100
00000000
00000000
,
00000010
00000000
00000011
00000000
,
00000001
00000100
00001000
00010000
,
00100000
01000000
10000000
00000000
,
01000000
00000000
00100000
00000000
,
00011000
00000000
00100000
00000000
,
00010000
00001000
00010000
00001000
,
00000100
00000100
00001000
00001000
,
00000100
00000010
00000100
00000010
,
00000001
00000001
00000100
00000100
,
00000010
00001000
00010000
01000000
,
00100000
00000000
10000000
00010000
,
00100000
00000000
10010000
00000000
,
10010000
00000000
00010000
00000100
,
00010000
00001000
00010000
00001000
,
00100000
00100000
00010000
00010000
,
01000000
00100000
01000000
00100000
,
10000000
10000000
00010000
00100000
,
00011000
00000000
00000000
00000000
,
00000000
00000000
00001000
00001000
,
00000020
00000000
00000030
00000000
,
00000000
00000000
00000000
00000100
,
00000000
00000000
00000000
00000000
,
00000000
00010000
00000000
00001000
,
00000000
00010000
00010000
00000000
,
01000000
10000000
01000000
00100000
,
00010000
00010000
00000000
01000000
,
00100000
00001000
00001000
00000100
,
00001000
00000010
00000010
00000000
,
00001000
00000001
00000100
00000001
,
00001000
00001000
00000000
00000010
,
00002000
00000000
00003000
00000100
,
00020000
00000000
00030000
00000000
,
02000000
00000000
03000000
00000000
,
00011000
00000000
00000000
00000000
;

//---------------dance-double - ----------------
#NOTEDATA:;
#CHARTNAME:;
#STEPSTYPE:dance-double;
#DESCRIPTION:;
#CHARTSTYLE:;
#DIFFICULTY:Medium;
#METER:10;
#RADARVALUES:0.314360,0.480221,0.182652,0.130465,0.000000,253.000000,232.000000,21.000000,15.000000,0.000000,0.000000,0.000000,0.000000,0.000000,0.314360,0.480221,0.182652,0.130465,0.000000,253.000000,232.000000,21.000000,15.000000,0.000000,0.000000,0.000000,0.000000,0.000000;
#CREDIT:;
#NOTES:
00000000
00000000
00000000
00000000
,
00000000
00000000
00000000
00000000
,
00000000
00000000
00000000
00000000
,
00000000
00000000
00000000
00000000
,
00000000
00000000
00000000
00000000
,
00010000
00000000
00001000
00010000
00001000
00000000
00000100
00000000
,
00000100
00000010
00000010
00000001
,
00000200
00000310
00000002
00000103
,
00000020
00000000
00000000
00000030
,
00002002
00000000
00000000
00003003
,
00010000
00000000
00000000
00001000
00000000
00000000
00010000
00000000
,
00100000
00000000
00000000
00010000
00000000
01000000
00000000
00020000
,
00000000
00000000
00000000
00030000
,
00010000
00000000
01000000
00010000
,
00001000
00000000
00000000
00000100
00000000
00000000
00000010
00000000
,
00000001
00000000
00000100
00000000
00000010
00000000
00000000
00002000
,
00000000
00000000
00000000
00000000
00000000
00000000
00000000
00003000
,
00000000
00000000
00000100
00001000
,
00010000
00000000
00100000
00000000
,
00100000
01000000
10000000
00000000
,
01000000
00000000
00010000
00000000
,
00001000
00000000
00000100
00000000
00001000
00000000
00000000
00000010
,
00000000
00000000
00001000
00000100
,
00001100
00000000
00001000
00000000
,
00010000
00100000
00010000
01000000
,
00100000
00000000
00000000
10000000
,
00010000
00000000
00100000
00010000
00000000
00000000
00001000
00000000
,
00010000
00000000
00001000
00000100
00000000
00001000
00000000
00000020
,
00000000
00000000
00000000
00000000
00000000
00000000
00000000
00000030
,
00000000
00000000
00000001
00000100
,
00000010
00000000
00001000
00000100
00000000
00000000
00010000
00000000
,
00001000
00000000
00100000
00010000
00000000
00100000
00000000
02000000
,
00000000
00000000
00000000
00000000
00000000
00000000
00000000
03000000
,
00000000
00000000
00010000
00001000
,
00000100
00000000
00000100
00001000
,
00000010
00000100
00000001
00000100
,
00000000
00000010
00000000
00001000
,
00010000
00100000
00010000
01000000
,
00000000
00010000
00000000
00010000
,
00110000
00000000
00001000
00000000
,
00000100
00001000
00000010
00000100
,
00000020
00000000
00000030
00000000
,
00000001
00000000
00000001
00000100
00001000
00000000
00010000
00000000
,
10000000
00000000
10000000
01000000
00010000
00000000
00100000
00000000
,
00010000
01010000
00100000
00010000
,
00011000
00000000
00000100
00000000
,
00001000
00000000
00010000
00001000
00000100
00000000
00000010
00000000
,
00000100
00000000
00000100
00000010
00000001
00000000
00001000
00000000
,
00000110
00001000
00001001
00000100
,
00002000
00000000
00000000
00000000
00000000
00003000
00000000
00000000
,
00001001
00000000
00001000
00010000
,
00100000
00001000
00010000
00000000
00010000
00000000
00001000
00000000
,
00011000
00011000
00100000
00100000
,
01000000
00100000
01000000
00000000
01100000
00000000
01100000
00000000
,
00010000
01000000
00010000
00100000
,
10000000
00010000
10000000
00000000
00100000
00000000
00010000
00000000
,
00001000
00010000
00001000
00000100
,
00000011
00000000
00001100
00000000
,
00110000
00000000
00100000
00010000
,
00000100
00010000
00001000
00000000
00010000
00000000
00001000
00000000
,
00011000
00011000
00000100
00000010
,
00000100
00000010
00000100
00000000
00000010
00000000
00000100
00000000
,
00000110
00000110
00000001
00000010
,
00000101
00000000
00000000
00000000
,
00000000
00001000
00001000
00010000
,
00200000
00000000
01000000
00000000
,
00000000
00000000
00000000
00300000
,
00000000
00000000
00000000
00000000
,
00000000
00000000
00010000
00010000
01000000
00000000
00000000
10000000
,
00000000
00100000
00000000
01000000
01000000
00000000
00000000
00000000
,
00010000
10000000
00010000
00000000
00100000
00000000
00010000
00000000
,
00001000
00010000
00001000
00000000
01000000
00000000
00010000
00000000
,
00100000
00000000
00010000
00001000
00000000
00010000
00001000
00000100
,
00000000
00001000
00000010
00000000
00000100
00000000
00000001
00000000
,
00000100
00000000
00000001
00000100
00000000
00000000
00000010
00000010
,
00000000
00001000
00000010
00001000
00000000
00010000
00001000
00000000
,
00200000
00000000
00000000
00300000
00000000
00001000
00010000
00000000
,
00000020
00000000
00000000
00000000
00000030
00000000
00000000
00000200
,
00000000
00000000
00000000
00000000
00000000
00000300
00000000
00011000
;

//---------------dance-double - ----------------
#NOTEDATA:;
#CHARTNAME:;
#STEPSTYPE:dance-double;
#DESCRIPTION:;
#CHARTSTYLE:;
#DIFFICULTY:Hard;
#METER:12;
#RADARVALUES:0.398851,0.583126,0.260931,0.234838,0.000000,321.000000,291.000000,30.000000,27.000000,0.000000,0.000000,0.000000,0.000000,0.000000,0.398851,0.583126,0.260931,0.234838,0.000000,321.000000,291.000000,30.000000,27.000000,0.000000,0.000000,0.000000,0.000000,0.000000;
#CREDIT:;
#NOTES:
// measure 0
00000000
00000000
00000000
00000000
,  // measure 1
00000000
00000000
00000000
00000000
,  // measure 2
00000000
00000000
00000000
00000000
,  // measure 3
00000000
00000000
00000000
00000000
,  // measure 4
00000000
00000000
00000000
00000000
00000000
00000000
00000000
00010000
,  // measure 5
00001000
00010000
00001000
00000100
00000000
00000010
00000100
00000001
,  // measure 6
00000000
00000001
00001000
00000100
00000000
00000010
00000001
00000000
,  // measure 7
00000200
00000310
00020000
00031000
,  // measure 8
00200000
00000000
00000000
00000000
00000000
00300000
00000000
00000000
,  // measure 9
20020000
00000000
00000000
30030000
,  // measure 10
00100000
00000000
00100000
00001000
00000000
00000000
00010000
00000000
,  // measure 11
00001000
00000000
00000100
00001000
00000000
00000010
00000000
00000002
,  // measure 12
00000000
00000000
00000100
00000000
,  // measure 13
00000103
00000000
00000000
00000000
00000000
00000010
00001000
00000000
,  // measure 14
00010000
00000000
00100000
00010000
00000000
01000000
00010000
00000000
,  // measure 15
10000000
00000000
00100000
00000000
00010000
01000000
00000000
20000000
,  // measure 16
00000000
00000000
00100000
00000000
,  // measure 17
30100000
00000000
00000000
00000000
00010000
00100000
00000000
00010000
,  // measure 18
00000000
00000000
00001000
00000000
00000000
00000100
00000000
00001000
,  // measure 19
00000000
00000000
00000010
00000000
00000100
00000000
00000001
00000100
,  // measure 20
00000000
00000000
00000010
00000000
00001000
00000000
00010000
00001000
,  // measure 21
00000000
00000000
00100000
00000000
00010000
01000000
00000000
00200000
,  // measure 22
00000000
00300000
00000000
00000000
00000000
00000000
00010000
00000000
,  // measure 23
10010000
00000000
00100000
00000000
,  // measure 24
00010000
00000000
00010000
00001000
00000000
00010000
00000000
00000000
,  // measure 25
00001000
00000000
00000000
00000000
00000000
00000100
00000000
00000100
,  // measure 26
00000010
00000000
00001000
00000001
00000000
00000100
00000000
00000010
,  // measure 27
00001000
00000000
00000100
00010000
00000000
00001000
00000000
00200000
,  // measure 28
00000000
00000000
00010000
00000000
,  // measure 29
00301000
00000000
00000000
00000000
00000000
01000000
00010000
00000000
,  // measure 30
00100000
00000000
10000000
00010000
00000000
00100000
00010000
00000000
,  // measure 31
00001000
00000000
00010000
00000010
00000000
00001000
00000000
00000200
,  // measure 32
00000000
00000000
00001000
00000000
,  // measure 33
00000310
00000000
00000000
00000000
00000001
00000100
00000000
00000020
,  // measure 34
00000000
00000000
00000030
00000000
00000001
00000000
00000100
00000010
,  // measure 35
00000000
00000000
00001000
00000100
00000000
00001000
00010000
00001000
,  // measure 36
00000000
00000000
00100000
00000000
00000000
00010000
01000000
00010000
,  // measure 37
00000000
00000000
00100000
10000000
00000000
00010000
00000000
00200000
,  // measure 38
00000000
00300000
00000000
00000000
00000000
00000000
00001000
00000000
,  // measure 39
00001100
00000000
00000000
00000000
00000100
00000000
00000000
00000010
,  // measure 40
00000010
00000100
00000001
00001000
,  // measure 41
00000020
00000000
00000000
00000000
00000030
00000000
00000000
00000100
,  // measure 42
00001000
00000000
00010000
00100000
01000000
00000000
00010000
10000000
,  // measure 43
00010000
00000000
00110000
00000000
00110000
00000000
10000000
00010000
,  // measure 44
00100000
00010000
00001000
00010000
,  // measure 45
00010000
00001000
00000100
00000010
00000000
00000001
00000100
00000010
,  // measure 46
00001010
00000000
00000000
00001000
00001001
00000000
00000010
00001000
,  // measure 47
00010000
00100000
00010000
00100000
,  // measure 48
00002000
00013000
00000020
00000130
,  // measure 49
00000002
00001003
00000100
00001000
,  // measure 50
00002002
00003003
00011000
00010000
,  // measure 51
00001000
00010000
00001000
00010000
00000100
00010000
00001000
00000000
,  // measure 52
00110000
01010000
10010000
01010000
,  // measure 53
00010000
00001000
00000100
00000010
00000100
00000010
00000100
00000000
,  // measure 54
00000101
00000110
00001100
00001010
,  // measure 55
00010000
00000000
00010000
00100000
00000000
00010000
00000000
00100000
,  // measure 56
00000000
00100000
10000000
01000000
,  // measure 57
02000000
03001000
00020000
00030100
,  // measure 58
00002000
00003001
00000100
00000101
,  // measure 59
00000010
00000001
00001000
00000001
00001000
00000001
00000100
00000000
,  // measure 60
00000100
00011000
01010000
10010000
,  // measure 61
10000000
01000000
00100000
10000000
00100000
01000000
00100000
00000000
,  // measure 62
00110000
00001100
00001010
00000110
,  // measure 63
00001001
00000000
00000000
00000000
,  // measure 64
00000000
00001000
00010000
01000000
,  // measure 65
00200000
00000000
01000000
00000000
,  // measure 66
00000000
00000000
00000000
00000000
00000000
00000000
00000000
00300000
,  // measure 67
00000000
00000000
00000000
00000000
,  // measure 68
00000000
00000000
00001000
00000100
00001000
00000001
00000000
00000001
,  // measure 69
00000000
00000100
00000000
00000100
00001000
00010000
00000000
00000000
,  // measure 70
10000000
01000000
10000000
00010000
00000000
00100000
01000000
00100000
,  // measure 71
00000000
01000000
00010000
00100000
00000000
00010000
00001000
00010000
,  // measure 72
00000000
00001000
00010000
00000100
00000000
00001000
00000010
00000100
,  // measure 73
00000000
00000010
00000001
00000000
00000202
00000000
00000303
00000010
,  // measure 74
00000010
00000001
00000100
00000001
00000000
00000010
00000100
00001000
,  // measure 75
00000000
00000100
00001000
00000100
00000000
00010000
00001000
00000000
,  // measure 76
00210000
00000000
00301000
00000000
00010000
00000100
00010000
00000000
,  // measure 77
00001020
00000000
00010030
00000000
00100000
00001000
00010000
00002000
,  // measure 78
00000000
00000000
00000000
00000000
00000000
00003000
00000000
00011000
;
