#VERSION:0.83;
#TITLE:KILL THIS LOVE;
#SUBTITLE:;
#ARTIST:BLACKPINK;
#TITLETRANSLIT:KILL THIS LOVE;
#SUBTITLETRANSLIT:;
#ARTISTTRANSLIT:BLACKPINK;
#GENRE:K-POP;
#ORIGIN:;
#CREDIT:SAIKIO;
#BANNER:KILL THIS LOVE-banner.png;
#BACKGROUND:bg.png;
#PREVIEWVID:;
#JACKET:KILL THIS LOVE-jacket.png;
#CDIMAGE:;
#DISCIMAGE:;
#LYRICSPATH:;
#CDTITLE:Saikio Simfiles.png;
#MUSIC:KILL THIS LOVE.ogg;
#OFFSET:0.155000;
#SAMPLESTART:71.564041;
#SAMPLELENGTH:19.900061;
#SELECTABLE:YES;
#BPMS:0.000=131.990;
#STOPS:;
#DELAYS:;
#WARPS:;
#TIMESIGNATURES:0.000=4=4;
#TICKCOUNTS:0.000=4;
#COMBOS:0.000=1;
#SPEEDS:0.000=1.000=0.000=0;
#SCROLLS:0.000=1.000;
#FAKES:;
#LABELS:0.000=Song Start;
#BGCHANGES:0.000=KILL THIS LOVE.avi=1.000=0=0=0=StretchNoLoop====,
99999=-nosongbg-=1.000=0=0=0 // don't automatically add -songbackground-
;
#KEYSOUNDS:;
#ATTACKS:
;

//---------------dance-single - ----------------
#NOTEDATA:;
#CHARTNAME:;
#STEPSTYPE:dance-single;
#DESCRIPTION:;
#CHARTSTYLE:;
#DIFFICULTY:Beginner;
#METER:2;
#RADARVALUES:0.117467,0.188865,0.007906,0.000000,0.000000,104.000000,103.000000,1.000000,0.000000,0.000000,0.000000,0.000000,0.000000,0.000000,0.117467,0.188865,0.007906,0.000000,0.000000,104.000000,103.000000,1.000000,0.000000,0.000000,0.000000,0.000000,0.000000,0.000000;
#CREDIT:;
#NOTES:
0000
0000
0000
0000
,
0000
0000
0000
0000
,
0000
0000
0000
0000
,
0000
0000
0000
0000
,
0000
0010
0000
0000
,
0000
0000
0000
0000
,
0000
0100
0000
0000
,
0000
0000
0000
0000
,
0000
1000
0000
0000
,
0000
0001
0000
0000
,
0000
0010
0000
0000
,
0000
0100
0000
0000
,
0000
1000
0000
0000
,
0000
0100
0000
0000
,
0000
0010
0000
0000
,
0000
0001
0000
0000
,
0000
0001
0001
0000
,
0000
0100
0100
0000
,
0000
0010
0010
0000
,
0000
1000
1000
0000
,
0000
0001
0000
0100
,
0000
0001
0000
0100
,
0000
0010
0010
0010
,
0000
0100
0100
0100
,
0000
1000
0000
0000
,
0000
0001
0000
0000
,
0000
0010
0000
0000
,
0000
0100
0000
0100
,
0000
0010
0000
0000
,
0000
1000
0000
0000
,
0000
0100
0000
0000
,
0000
0010
0000
0010
,
0000
0001
0000
0000
,
0000
0100
0000
0000
,
0000
1000
0000
0000
,
0000
0010
0000
0000
,
0000
0001
0001
0001
,
0000
1000
1000
1000
,
0000
0010
0010
0010
,
0000
0000
0000
0000
,
0000
1001
0000
0000
,
0000
0000
0100
0100
,
0000
0010
0000
0001
,
0000
0010
0000
1000
,
0000
0010
0000
0001
,
0000
0000
0001
0001
,
0000
0100
0000
1000
,
0000
0100
0000
0001
,
0000
0100
0000
1000
,
0000
0001
0000
1000
,
1000
0000
0000
0000
,
0000
0000
0000
0000
,
0000
0010
0000
0000
,
0000
0100
0000
0000
,
0000
0001
0000
0000
,
0000
1000
0000
0000
,
0000
0010
0100
0000
,
0000
0001
1000
0000
,
0000
0100
0010
0000
,
0000
0000
0000
0000
,
0000
0001
0001
1000
,
0000
0010
0000
0100
,
0000
1000
1000
0001
,
0000
0100
0000
0010
,
0000
0100
0100
0010
,
0000
0001
0000
0100
,
0000
0010
0010
0100
,
0000
0100
0000
1000
,
1000
1000
0000
0000
;

//---------------dance-single - ----------------
#NOTEDATA:;
#CHARTNAME:;
#STEPSTYPE:dance-single;
#DESCRIPTION:;
#CHARTSTYLE:;
#DIFFICULTY:Easy;
#METER:6;
#RADARVALUES:0.237194,0.379114,0.181848,0.134410,0.003953,210.000000,187.000000,23.000000,17.000000,0.000000,0.000000,0.000000,0.000000,0.000000,0.237194,0.379114,0.181848,0.134410,0.003953,210.000000,187.000000,23.000000,17.000000,0.000000,0.000000,0.000000,0.000000,0.000000;
#CREDIT:;
#NOTES:
0000
0000
0000
0000
,
0000
0000
0000
0000
,
0000
0000
0000
0000
,
0000
0000
0000
0000
,
0000
2001
0000
3001
,
0000
0100
0000
0010
,
0000
1002
0000
1003
,
0000
0100
0010
0100
,
0000
1000
0100
0010
,
0000
0001
0100
0010
,
0000
1000
0001
0100
,
0000
0001
1000
0010
,
0000
1000
0100
2000
,
3000
0010
0001
0200
,
0300
0100
0001
0020
,
0030
1000
0010
0001
,
0000
1000
0010
1100
,
0000
0010
0100
0101
,
0000
0010
0100
2000
,
3000
0010
0100
0001
,
0000
0010
0100
0001
,
0100
1000
0010
0100
,
0000
0001
0001
1000
,
1000
0010
0100
1000
,
0010
0200
0000
0310
,
0000
0020
0000
0130
,
0000
0001
0000
0100
,
0000
1000
0000
0010
,
0000
0002
0000
0103
,
0000
2000
0000
3010
,
0000
0100
0000
0010
,
0000
0001
0000
0100
,
0000
1000
1000
0100
,
0000
0010
0100
0001
,
0000
0020
0000
0130
,
0000
1000
0001
0100
,
0000
0000
0010
0010
0010
0000
0001
0001
,
0001
0000
0100
0100
0100
0000
1000
1000
,
1000
0010
0000
0100
,
0010
0000
0000
0000
,
0000
1001
0000
1000
,
0000
0010
0000
0100
,
0100
2010
0000
3001
,
0000
0010
1000
1000
,
0001
0120
0000
0031
,
0000
0010
0100
0100
,
0001
2010
0000
3100
,
0000
0100
0001
1000
,
0010
0201
0000
1300
,
0000
0001
0100
0010
,
0010
0200
0000
0000
,
0000
0000
0000
0000
0000
0300
0000
0000
,
0000
0010
1000
1000
,
0000
0010
0100
0100
,
0000
0001
0010
0001
,
0000
0100
1000
0100
,
0000
0001
0100
1000
,
0000
0100
0001
0010
,
0000
1000
0010
0001
,
0000
0000
0100
0000
0000
0000
0000
0000
0000
0000
0000
0000
,
0000
0011
0101
0011
,
1000
0010
0001
0100
,
0010
1100
1010
1100
,
0001
0100
1000
0010
,
0100
0011
1001
0101
,
0001
1000
0010
0001
,
0100
1010
0101
1100
,
0011
0110
0001
0100
,
0010
2000
3000
0000
;

//---------------dance-single - ----------------
#NOTEDATA:;
#CHARTNAME:;
#STEPSTYPE:dance-single;
#DESCRIPTION:;
#CHARTSTYLE:;
#DIFFICULTY:Medium;
#METER:10;
#RADARVALUES:0.356920,0.433273,0.260913,0.197661,0.134410,316.000000,283.000000,33.000000,25.000000,0.000000,0.000000,0.000000,0.000000,0.000000,0.356920,0.433273,0.260913,0.197661,0.134410,316.000000,283.000000,33.000000,25.000000,0.000000,0.000000,0.000000,0.000000,0.000000;
#CREDIT:;
#NOTES:
0000
0000
0000
0000
,
0000
0000
0000
0000
,
0000
0000
0000
0000
,
0000
0000
0000
0000
,
0000
1002
0000
1003
,
0000
0010
1000
0100
,
0010
2001
0000
3001
,
0000
0000
0000
0100
0000
0000
0010
0000
0000
1000
0000
1000
,
0001
0020
0130
1010
,
0100
0000
0010
0100
0000
0000
1000
0000
1000
0010
0000
0000
,
0100
0002
1003
0011
,
1000
0000
0001
1000
0000
0000
0010
0000
0010
0100
0000
0000
,
0001
0000
0000
0001
0000
0001
1000
0000
0000
2000
0000
0000
,
3100
0000
0000
0010
0000
0010
0100
0000
0000
0200
0000
0000
,
0301
0000
0000
0001
0000
0010
0001
0000
0000
0010
0000
0000
,
1000
0000
0000
0100
0000
0100
0010
0000
0000
0100
0000
0000
,
0000
0010
1000
1100
,
1010
0000
0000
0001
0000
0010
0001
0000
0000
0010
0000
0000
,
0011
0000
0000
0100
0000
0010
0100
0000
0000
1000
0000
0000
,
0100
0000
0000
0010
0001
0000
0001
0000
0000
0010
0000
0000
,
0100
0000
0100
0010
0000
0000
0100
0000
0000
1000
0000
0000
,
1000
0000
1000
0010
0000
0000
0001
0000
0001
1000
0000
0000
,
0100
0000
0000
0010
0000
0010
0001
0000
0001
1000
0000
1000
,
0100
0000
0100
1000
0000
0001
1000
0000
0001
1000
0000
0000
,
0010
0000
0200
0010
0000
0000
0310
0000
,
1000
0000
0020
0001
0000
0000
0031
0000
,
0100
2000
0000
3010
,
0001
0100
1000
0000
0000
0100
0010
0000
,
0000
0000
0010
1000
0200
0000
1300
0000
,
0000
0000
0010
0100
0002
0000
0103
0000
,
0000
1000
0200
0000
0000
0000
0310
0000
,
1000
0100
0001
0000
0000
0010
0100
0000
,
0000
0010
1000
0100
,
0001
0100
0010
1000
,
0001
0000
0100
0010
0100
0000
0001
0000
,
0100
0000
1000
1000
0010
0000
0100
0000
,
0001
0000
1000
0100
1000
0010
1000
0000
,
0010
0000
0100
0001
0100
1000
0100
0000
,
0010
0000
0001
0010
0001
0100
1000
0000
,
0110
0000
0000
0000
,
0000
2001
3001
0100
,
0000
0010
0000
0100
,
0110
1020
0100
0031
,
0010
0000
0000
0100
0000
0000
0001
0000
0001
1000
0000
1000
,
0001
0021
0100
0031
,
0010
0100
1000
1010
,
1001
2100
0001
3010
,
0100
0000
0000
1000
0000
0000
0010
0000
0010
0100
0000
0100
,
0001
0210
0001
1300
,
0100
0000
0000
0010
0000
0000
0100
0000
0000
0010
0000
0010
,
0100
0200
0000
0000
,
0000
0000
0000
0000
0000
0000
0000
0000
0000
0300
0000
0000
0000
0000
0000
0000
0000
0000
0010
0000
0000
0000
0100
0000
,
0001
2000
0100
3010
,
0001
0020
0001
0130
,
1000
0200
1000
0310
,
1000
0002
0100
0013
,
0100
0000
0010
0001
1000
0001
0010
0000
,
1000
0000
0100
0001
0100
0010
1000
0000
,
0100
0000
0010
1000
0010
0100
0001
0000
,
0000
0000
0220
0000
0330
0000
0000
0000
0000
0000
0000
0000
,
0000
0011
1001
1100
,
0010
0000
0100
0010
0000
0000
1000
0000
0001
1000
0000
0000
,
0010
1100
0101
0110
,
0010
0000
0001
0100
0000
0000
0010
0000
1000
0100
0000
0000
,
0010
0011
1100
0110
,
1000
0000
1000
0100
0000
0000
0001
0000
0001
0100
0000
0000
,
0010
0110
0101
1100
,
1010
0110
0101
0010
,
0110
2000
3000
0000
;

//---------------dance-single - ----------------
#NOTEDATA:;
#CHARTNAME:;
#STEPSTYPE:dance-single;
#DESCRIPTION:;
#CHARTSTYLE:;
#DIFFICULTY:Hard;
#METER:13;
#RADARVALUES:0.490200,0.622831,0.237194,0.245100,0.596937,434.000000,404.000000,30.000000,31.000000,0.000000,0.000000,0.000000,0.000000,0.000000,0.490200,0.622831,0.237194,0.245100,0.596937,434.000000,404.000000,30.000000,31.000000,0.000000,0.000000,0.000000,0.000000,0.000000;
#CREDIT:;
#NOTES:
0000
0000
0000
0000
,
0000
0000
0000
0000
,
0000
0000
0000
0000
,
0000
0000
0000
0000
,
0000
1002
0000
0013
,
1000
0000
0000
0010
0000
0000
1000
0000
0000
0100
0000
1000
,
0010
0000
1000
0020
0000
0000
1000
0000
0000
0130
0000
0000
,
0001
0000
0000
0010
0000
0000
0100
0000
0000
0100
0010
0100
,
0010
0100
0010
1000
0000
0100
0001
0000
0100
0010
0000
0000
,
1000
0000
1000
0001
0000
0010
0001
0000
0100
0010
0000
0000
,
0010
0000
0100
1000
0000
1000
0100
0000
0100
0010
0000
0000
,
0001
0000
0001
0010
0000
0010
1000
0000
0010
0100
0000
0000
,
1000
0000
0001
1000
0000
0010
0100
0000
0001
2000
0000
0000
,
3010
0000
0001
0010
0000
0100
1000
0000
0010
0200
0000
0000
,
0310
0000
1000
0001
0000
1000
0010
0000
0001
0020
0000
0000
,
0130
0000
0100
0010
0000
0001
0100
0000
0010
0100
0001
1000
,
0001
1000
0001
2000
0000
0000
3100
0000
0000
1001
0000
0000
,
0110
0002
0103
0101
,
0110
0000
0000
0001
0010
0100
0001
0100
0001
0010
0000
0000
,
1100
0000
0000
1000
0010
1000
0100
0000
0000
0110
0000
0000
,
0100
0000
0100
0001
0000
0001
0010
0000
0010
0001
0000
0000
,
0100
1000
0100
1000
0000
0000
0010
1000
0010
1000
0000
0000
,
0001
1000
0010
0100
0010
0100
0010
0100
0001
0100
0010
0100
,
0001
0000
0000
1000
0100
1000
0100
1000
0010
1000
0100
1000
,
0010
0000
0000
0000
0200
0000
0010
0300
1000
0000
0000
0000
0020
0000
0100
0030
,
0001
0000
0100
1000
0100
0000
0010
0010
,
0000
0000
0000
1000
0000
0000
0200
0000
0000
0000
0000
0000
0000
0000
0000
0000
0000
0000
0010
0300
0000
0000
0000
0000
,
0001
0100
1000
0000
0000
0100
0010
0000
,
0000
0000
0000
0000
0002
0000
0010
0003
1000
0000
0000
0000
2000
0000
0100
3000
,
0001
0000
1000
0001
1000
0000
0100
0100
,
0000
0001
0020
0000
0000
0000
0130
0000
,
1000
0010
0001
0000
0000
0010
0100
0000
,
0000
0010
0001
0000
0001
0100
0010
0000
,
1000
0100
1000
0000
0010
0000
0100
0000
,
0001
0000
0010
1000
0010
0000
1000
0000
,
0110
0000
0001
0100
1000
0000
0010
0000
,
0100
0000
0000
0010
1000
0010
1000
0001
1000
0001
1000
0100
,
1000
0000
0000
0001
0100
0001
0100
0001
0010
0001
0010
0001
,
1000
0000
0000
0010
0100
0001
0100
0010
0100
1000
0100
0010
,
0000
0110
0000
0000
0000
0000
0000
0000
,
0000
0000
0000
1001
0000
0000
0100
0000
0010
0010
0000
0000
,
1000
0000
0001
0001
0000
0000
1000
0000
0100
1000
0000
0100
,
0010
0000
0000
1020
0000
0000
1030
0000
0100
0002
0000
0000
,
0013
0000
0100
2000
0000
0000
3010
0000
1000
0001
0000
1000
,
0001
0000
0010
2001
0000
0000
3100
0000
0010
0002
0000
0000
,
0013
0000
0100
0020
0000
0000
1030
0000
0001
1000
0100
1000
,
0010
1000
0001
0210
0000
0000
0301
0000
0100
0002
0000
0000
,
0013
0000
1000
0200
0000
0000
0301
0000
0100
0010
0000
0100
,
0001
0000
0100
0012
0000
0000
0103
0000
0010
2000
0000
0000
,
3100
0000
0001
0020
0000
0000
0130
0000
1000
0100
1000
0100
,
1000
0010
1000
0200
0000
0000
0000
0000
0000
0000
0000
0000
,
0000
0000
0000
0000
0000
0000
0000
0000
0000
0300
0000
0000
0000
0000
0000
0000
0000
0000
0010
0000
0001
0000
0010
0000
,
0100
0010
0100
1000
0000
0001
1000
0000
0100
0010
0000
0000
,
0001
0000
0000
1000
0000
0100
1000
0000
0010
0100
0000
0000
,
0100
0000
0000
0001
0000
0100
0010
0000
0100
0001
0000
0000
,
1000
0000
0000
0010
0000
0100
0010
0000
1000
0100
0000
0000
,
0010
0000
0000
0001
0000
0100
0001
0100
0010
0100
0000
0000
,
0001
0000
0000
0100
0000
0010
1000
0010
0100
0001
0000
0000
,
0100
0000
0000
0010
0000
0001
0100
0001
0010
0100
0000
0000
,
0000
0000
0000
0000
0220
0000
0000
0000
0000
0330
0000
0000
0000
0000
0000
0000
0000
0000
0000
0000
0000
0000
0000
0000
,
0000
0011
1001
1100
,
0010
0000
0010
0100
0000
0100
0001
0000
1000
0010
1000
0001
,
0100
0001
0100
0010
0000
0000
1001
0000
0000
0101
0000
0000
,
1010
0000
1000
0100
0000
0010
0001
0000
0100
0001
0010
0100
,
0010
1000
0010
0100
0000
0000
1001
0000
0000
1010
0000
0000
,
0011
0000
0010
1000
0000
1000
0001
0000
0001
0100
1000
0100
,
0001
0100
0010
1001
0000
0000
1010
0000
0000
0110
0000
0001
,
0010
0000
1000
0100
0000
0000
0102
0000
0000
1003
0000
0000
,
1010
2200
3300
0000
;

//---------------dance-double - ----------------
#NOTEDATA:;
#CHARTNAME:;
#STEPSTYPE:dance-double;
#DESCRIPTION:;
#CHARTSTYLE:;
#DIFFICULTY:Easy;
#METER:5;
#RADARVALUES:0.262042,0.460353,0.363697,0.118597,0.003953,232.000000,186.000000,46.000000,15.000000,0.000000,0.000000,0.000000,0.000000,0.000000,0.262042,0.460353,0.363697,0.118597,0.003953,232.000000,186.000000,46.000000,15.000000,0.000000,0.000000,0.000000,0.000000,0.000000;
#CREDIT:;
#NOTES:
00000000
00000000
00000000
00000000
,
00000000
00000000
00000000
00000000
,
00000000
00000000
00000000
00000000
,
00000000
00000000
00000000
00000000
,
00000000
00000020
00000000
00000000
,
00000030
00000000
00000000
00000000
,
00000000
00020000
00000000
00000000
,
00030000
00000000
00000000
01000000
,
00000000
10000000
01000000
00010000
,
00000000
00001000
00000100
00000001
,
00000000
00000010
00000100
00001000
,
00000000
00010000
00100000
01000000
,
00000000
01000000
00100000
11000000
,
00000000
00100000
00010000
00011000
,
00000000
00001000
00000100
00001010
,
00000000
00000100
00000010
00000011
,
00000000
00000001
00000100
00001001
,
00000000
00001000
00010000
00011000
,
00000000
00100000
00010000
01000000
,
00100000
10000000
10000000
00010000
,
00100000
00010000
00001000
00000100
,
00010000
01000000
10000000
00100000
,
00000000
00020000
00001000
00001000
,
00031000
00000200
00000010
00000010
,
00000310
00000101
00000000
00001100
,
00000000
00011000
00000000
00110000
,
00000000
01000000
00000000
00100000
,
00000000
10000000
00010000
01000000
,
00000000
00110000
00000000
00011000
,
00000000
00010100
00000000
00001010
,
00000000
00000101
00000000
00000010
,
00000000
00001000
00000100
00010000
,
00000000
00002000
00000000
02003000
,
00000000
03100000
00010000
10000000
,
01000000
00200000
00000000
00302000
,
00000000
00013000
00010000
00000100
,
00001000
00000010
00000010
00000100
,
00000110
00000001
00000001
00000100
,
00000110
00001000
00000100
00010000
,
00001000
00000000
00000000
00000000
,
00000000
10010000
00001000
00000000
,
00010000
00000000
00001000
00000001
,
00000100
00002100
00000000
00003100
,
00001000
00010000
00110000
01000000
,
10000000
01020000
00000000
00130000
,
00010000
00001000
00010000
00000100
,
00001000
00010200
00000000
00001300
,
00000010
00000001
00000100
00000010
,
00001000
00201000
00000000
00310000
,
00000000
01000000
00010000
10000000
,
10000000
00200000
00000000
00000000
,
00000000
00000000
00300000
00000000
,
00000000
10000000
01000000
00010000
,
00000000
00001000
00010000
00000010
,
00000000
00000100
00000001
00000010
,
00000000
00000001
00000100
00001000
,
00000000
00010000
00001000
00100000
,
00000000
00010000
01000000
00100000
,
00000000
10000000
01000000
00100000
,
00000000
00000000
01000000
00000000
00000000
00000000
00000000
00000000
00000000
00000000
00000000
00000000
,
00000000
10010000
00011000
00001100
,
00011000
00001000
00000100
00000010
,
00000100
00000011
00000110
00001100
,
00010000
00011000
00110000
01010000
,
00000000
10010000
00100000
00011000
,
00001000
00001100
00001010
00000110
,
00000001
00000101
00000101
00001100
,
00010000
00011000
00110000
01010000
,
10010000
00220000
00330000
00000000
;

//---------------dance-double - ----------------
#NOTEDATA:;
#CHARTNAME:;
#STEPSTYPE:dance-double;
#DESCRIPTION:;
#CHARTSTYLE:;
#DIFFICULTY:Medium;
#METER:9;
#RADARVALUES:0.309481,0.460353,0.284632,0.166035,0.031626,274.000000,238.000000,36.000000,21.000000,0.000000,0.000000,0.000000,0.000000,0.000000,0.309481,0.460353,0.284632,0.166035,0.031626,274.000000,238.000000,36.000000,21.000000,0.000000,0.000000,0.000000,0.000000,0.000000;
#CREDIT:;
#NOTES:
00000000
00000000
00000000
00000000
,
00000000
00000000
00000000
00000000
,
00000000
00000000
00000000
00000000
,
00000000
00000000
00000000
00000000
,
00000000
00200000
00000000
00000000
,
00300000
00000000
00000000
00010000
,
00001000
00000200
00000000
00000000
,
00000300
00000000
00000000
00001000
,
00000000
00000100
00001000
00000010
,
00000100
00000001
00000100
00001000
,
00010000
00100000
00010000
01000000
,
00100000
10000000
01000000
00100000
,
00010000
00001000
00010000
10100000
,
00010000
00001000
00000100
00001010
,
00000100
00001000
00010000
00011000
,
00100000
00000000
01000000
00000000
01000000
00000000
00010000
00001000
,
00010000
00001000
00010000
00110000
,
00010000
00001000
00010000
00001010
,
00000100
00000000
00001000
00000010
00001000
00000000
00000100
00000000
,
00000010
00000000
00000010
00000001
00000100
00000000
00000010
00000000
,
00000010
00000100
00001000
00000000
00010000
00000000
00100000
00000000
,
00010000
01000000
10000000
00000000
10000000
01000000
00010000
00000000
,
00100000
00000000
00010000
00010000
00000100
00000000
00010000
00010000
,
00000010
00000000
00001000
00000100
00001000
00000000
00000010
00000000
,
00000100
00000002
00000103
00002000
,
00003010
00020000
00031000
00200000
,
00310000
01010000
00000000
01010000
,
00000000
00100000
00010000
01000000
,
00000000
20000000
31000000
00200000
,
00301000
00002000
00013000
00000200
,
00000310
00001010
00000000
00001010
,
00000000
00000100
00000001
00000010
,
00000000
00001000
00010000
00100000
,
00000000
00010000
01000000
10000000
,
00100000
00020000
00000000
00031000
,
00000000
00000000
00001000
00000100
00001000
00000000
00000010
00000000
,
00000100
00000000
00000010
00000010
00000100
00000000
00000010
00000000
,
00000100
00000000
00000001
00000001
00001000
00000000
00000001
00000000
,
00001000
00000000
00010000
00010000
00001000
00000000
00010000
00000000
,
00002000
00003000
00000000
00000000
,
00000000
00000000
00020000
00030000
,
00002000
00003000
00001000
00100000
,
00010000
02010000
03001000
00010000
,
00000000
00000000
00001000
00000000
00010000
00010000
00001000
00000000
,
00100000
00021000
00030010
00001000
,
00010000
00001000
00000100
00001000
,
00000010
00000012
00000103
00000010
,
00001000
00000000
00000100
00000000
00010000
00000000
00100000
01000000
,
01000000
00201000
00310000
01000000
,
00100000
00000000
00010000
00000000
10000000
00000000
10000000
00010000
,
10000000
00200000
00000000
00000000
,
00000000
00000000
00000000
00000000
00000000
00300000
00000000
00000000
,
00000000
00000000
00000000
00001000
00000000
00000000
00010000
00000000
00001000
00010000
00000000
00000000
,
00000000
00000000
00000000
00000100
00000000
00000000
00000010
00000000
00000100
00000010
00000000
00000000
,
00000000
00000000
00000000
00000100
00000000
00000000
00000001
00000000
00000010
00000001
00000000
00000000
,
00000000
00000000
00000000
00000010
00000000
00000000
00001000
00000000
00000100
00001000
00000000
00000000
,
00000000
00000000
00000000
00010000
00000000
00000000
00010000
00000000
00100000
01000000
00000000
00000000
,
00000000
00000000
00000000
00100000
00000000
00000000
10000000
00000000
01000000
00100000
00000000
00000000
,
00000000
00000000
00000000
00010000
00000000
00000000
00010000
00000000
00001000
00000100
00000000
00000000
,
00000000
00000000
00000010
00000000
00000000
00000000
00000000
00000000
00000000
00000000
00000000
00000000
,
00000000
00110000
00011000
00001100
,
00001010
00000000
00000101
00000000
00000110
00000000
00000010
00001000
,
00000100
00001100
00011000
00110000
,
01010000
00000000
10010000
00000000
10100000
00000000
00100000
00010000
,
00001000
00001100
00001010
00000101
,
00000110
00000000
00001010
00000000
00001100
00000000
00001000
00010000
,
00100000
00010000
01010000
01010000
,
00110000
00011000
00000100
00010000
,
00001000
00220000
00330000
00000000
;

//---------------dance-double - ----------------
#NOTEDATA:;
#CHARTNAME:;
#STEPSTYPE:dance-double;
#DESCRIPTION:;
#CHARTSTYLE:;
#DIFFICULTY:Hard;
#METER:13;
#RADARVALUES:0.412265,0.622831,0.197661,0.276726,0.426948,365.000000,340.000000,25.000000,35.000000,0.000000,0.000000,0.000000,0.000000,0.000000,0.412265,0.622831,0.197661,0.276726,0.426948,365.000000,340.000000,25.000000,35.000000,0.000000,0.000000,0.000000,0.000000,0.000000;
#CREDIT:;
#NOTES:
// measure 0
00000000
00000000
00000000
00000000
,  // measure 1
00000000
00000000
00000000
00000000
,  // measure 2
00000000
00000000
00000000
00000000
,  // measure 3
00000000
00000000
00000000
00000000
,  // measure 4
00000000
00022000
00033000
00000010
,  // measure 5
00010000
00000000
00000000
00001000
00000000
00000000
00010000
00000000
00000000
00100000
00000000
00100000
,  // measure 6
00010000
00000000
00100000
00020000
00000000
00000000
00000000
00000000
00000000
00230000
00000000
00000000
,  // measure 7
00000000
00000000
00000000
10300000
00000000
00000000
01000000
00000000
00000000
00010000
00001000
00010000
,  // measure 8
00001000
00010000
00001000
00010000
00000000
00000000
00001000
00000000
00000000
00101000
00000000
00000000
,  // measure 9
00010000
00000000
00001000
00000100
00000000
00000010
00001000
00000000
00000100
00001000
00000000
00000000
,  // measure 10
00000001
00000100
00010100
00000010
,  // measure 11
00001000
00000000
00010000
00100000
00000000
01000000
00100000
00000000
00000000
00010000
00000000
00000000
,  // measure 12
01000000
00000000
00000000
00010000
00000000
10000000
00010000
00000000
00000000
02020000
00000000
00000000
,  // measure 13
03030000
00000000
00000000
00001000
00000000
00000100
00001000
00000000
00000000
00022000
00000000
00000000
,  // measure 14
00033000
00000000
00000000
00010000
00000000
00100000
00010000
00000000
00000000
00202000
00000000
00000000
,  // measure 15
00303000
00000000
00000000
00100000
00000000
00010000
00001000
00000000
00000000
00002020
00000000
00000000
,  // measure 16
00003030
00000000
00000000
00000100
00000000
00001000
00000010
00000000
00000000
00000100
00000000
00000000
,  // measure 17
00001100
00000000
00000000
00001000
00000010
00001000
00000100
00000000
00000000
00010000
00000000
00000000
,  // measure 18
00110000
00000000
00000000
00001000
00010000
00000100
00001000
00000000
00000000
00000010
00000000
00000000
,  // measure 19
00000100
00000000
00000000
00000001
00000100
00000010
00000100
00000000
00000000
00000010
00000000
00000000
,  // measure 20
00001000
00000100
00010000
00001000
00010000
00001000
00010000
00000000
00000000
00010000
00000000
00000000
,  // measure 21
10000000
00010000
10000000
00100000
00000000
00000000
00010000
00000000
00010000
01000000
00000000
00000000
,  // measure 22
01000000
00100000
01000000
10000000
00010000
10000000
00010000
10000000
00100000
10000000
00100000
10000000
,  // measure 23
00010000
00000000
00000000
00100000
00001000
00100000
00001000
00010000
00001000
00010000
00000100
00000010
,  // measure 24
00000100
00000000
00001000
00000200
00000000
00000300
00000001
00000020
,  // measure 25
00000000
00000030
00000100
00002000
00000000
00003000
00000100
00000020
,  // measure 26
00000000
00000130
00002000
00000000
00000000
00000000
00003100
00000000
,  // measure 27
00000000
00010000
00001000
00000000
00000000
00010000
00100000
00000000
,  // measure 28
00100000
00000000
00010000
02000000
00000000
03000000
00010000
00200000
,  // measure 29
00000000
00300000
01000000
20000000
00000000
30000000
00010000
00002000
,  // measure 30
00000000
00003100
00000020
00000000
00000000
00000000
00000130
00000000
,  // measure 31
00000000
00000001
00000100
00000000
00000000
00001000
00000010
00000000
,  // measure 32
00001000
00000000
00100000
00000000
00001000
00010000
00100000
00000000
,  // measure 33
00010000
01000000
10000000
00000000
00100000
00000000
00010000
00000000
,  // measure 34
01000000
00000000
00002000
00000000
00000000
00003100
00000000
00000000
,  // measure 35
00000010
00000000
00000010
00001000
00000100
00000000
00000010
00000000
,  // measure 36
00000001
00000000
00000000
00000001
00000010
00000001
00000010
00000001
00000010
00000001
00001000
00000001
,  // measure 37
00001000
00000000
00000000
00010000
00001000
00010000
00001000
00010000
00001000
00100000
00001000
00100000
,  // measure 38
00001000
00000000
00000000
01000000
00010000
01000000
00010000
01000000
00100000
10000000
00100000
10000000
,  // measure 39
00010000
00000000
00010000
00100000
,  // measure 40
00001000
00220000
00330000
00001000
,  // measure 41
00020000
00000000
00000000
00031000
00000000
00000000
00000010
00000000
00000000
00001000
00000000
00000010
,  // measure 42
00001000
00000000
00000000
00001200
00000000
00000000
00000310
00000000
00001000
00000010
00000000
00000000
,  // measure 43
00000100
00000000
00000010
00000001
00000000
00000000
00001000
00000000
00000100
00001000
00000000
00000100
,  // measure 44
00000010
00000000
00000000
00000000
00010000
00000000
00002000
00000000
00000000
00000000
00000000
00000000
00010000
00003000
00000000
00000000
00100000
00000000
00001000
00000000
00000000
00000000
00000000
00000000
,  // measure 45
01000000
00000000
00000000
00000000
00100000
00000000
01000000
00000000
00000000
00000000
00000000
00000000
00020000
00000000
00000000
00000000
00000000
00000000
00230000
00000000
00000000
00000000
00000000
00300000
,  // measure 46
00001000
00000000
00000000
00012000
00000000
00000000
00003100
00000000
00010000
00001000
00000000
00000000
,  // measure 47
00000100
00000000
00001000
00000010
00000000
00000000
00000100
00000000
00000001
00000100
00000000
00000010
,  // measure 48
00001000
00000000
00000100
00002000
00000000
00000000
00003010
00000000
00010000
00001000
00000000
00000000
,  // measure 49
00010000
00000000
00100000
01000000
00000000
00000000
00010000
00000000
00010000
10000000
00010000
10000000
,  // measure 50
00010000
10000000
00010000
00200000
00000000
00000000
00000000
00000000
00000000
00000000
00000000
00000000
,  // measure 51
00000000
00000000
00300000
00000000
,  // measure 52
00000000
00000000
00000000
00010000
00000000
00010000
00001000
00000000
00010000
00000100
00000000
00000000
,  // measure 53
00000000
00000000
00000000
00001000
00000000
00000010
00000100
00000000
00000010
00001000
00000000
00000000
,  // measure 54
00000000
00000000
00000000
00000001
00000000
00001000
00000100
00000000
00001000
00010000
00000000
00000000
,  // measure 55
00000000
00000000
00000000
00010000
00000000
01000000
10000000
00000000
00100000
00010000
00000000
00000000
,  // measure 56
00000000
00000000
00000000
00100000
00000000
00010000
00001000
00000000
00010000
00000100
00000000
00000000
,  // measure 57
00000000
00000000
00000000
00000100
00000000
00000010
00000100
00000000
00000001
00001000
00000000
00000000
,  // measure 58
00000000
00000000
00000000
00010000
00000000
00000100
00000010
00000000
00000001
00000100
00000000
00000000
,  // measure 59
00000000
00000000
00000010
00000000
00000000
00000000
00000000
00000000
00000000
00000000
00000000
00000000
,  // measure 60
00000000
00000011
00000001
00001100
,  // measure 61
00000100
00000000
00000010
00001000
00000000
00000000
00000100
00000000
00000000
00001000
00000010
00001000
,  // measure 62
00000010
00010000
00001000
00010000
00000000
00000000
00101000
00000000
00000000
00011000
00000000
10000000
,  // measure 63
00100000
00000000
01000000
00010000
00000000
00000000
00100000
00000000
00000000
00100000
00001000
00010000
,  // measure 64
00100000
00010000
00000000
01000000
00000000
00000000
00110000
00000000
00000000
01010000
00000000
00000000
,  // measure 65
10010000
00000000
00000000
00110000
00000000
00000000
00011000
00000000
00000000
00001000
00010000
00001000
,  // measure 66
00010000
00001010
00001010
00001100
,  // measure 67
00000001
00000010
00000100
00010000
,  // measure 68
00001000
00220000
00330000
00000000
;
