#VERSION:0.83;
#TITLE:愛おしくってごめんね;
#SUBTITLE:;
#ARTIST:カントリー・ガールズ;
#TITLETRANSLIT:Itooshikutte Gomen ne;
#SUBTITLETRANSLIT:;
#ARTISTTRANSLIT:Country Girls;
#GENRE:Hello! Project;
#ORIGIN:;
#CREDIT:SAIKIO;
#BANNER:Itooshikutte Gomen ne-banner.png;
#BACKGROUND:bg.png;
#PREVIEWVID:;
#JACKET:Itooshikutte Gomen ne-jacket.png;
#CDIMAGE:;
#DISCIMAGE:;
#LYRICSPATH:;
#CDTITLE:Saikio Hello! Project.png;
#MUSIC:Itooshikutte Gomen ne.ogg;
#OFFSET:0.080000;
#SAMPLESTART:67.735001;
#SAMPLELENGTH:12.959998;
#SELECTABLE:YES;
#BPMS:0.000=152.010;
#STOPS:;
#DELAYS:;
#WARPS:;
#TIMESIGNATURES:0.000=4=4;
#TICKCOUNTS:0.000=4;
#COMBOS:0.000=1;
#SPEEDS:0.000=1.000=0.000=0;
#SCROLLS:0.000=1.000;
#FAKES:;
#LABELS:0.000=Song Start;
#BGCHANGES:0.000=Itooshikutte Gomen ne.avi=1.000=0=0=0=StretchNoLoop====,
99999=-nosongbg-=1.000=0=0=0 // don't automatically add -songbackground-
;
#KEYSOUNDS:;
#ATTACKS:
;

//---------------dance-single - ----------------
#NOTEDATA:;
#CHARTNAME:;
#STEPSTYPE:dance-single;
#DESCRIPTION:;
#CHARTSTYLE:;
#DIFFICULTY:Beginner;
#METER:2;
#RADARVALUES:0.139005,0.210649,0.000000,0.025165,0.000000,116.000000,116.000000,0.000000,3.000000,0.000000,0.000000,0.000000,0.000000,0.000000,0.139005,0.210649,0.000000,0.025165,0.000000,116.000000,116.000000,0.000000,3.000000,0.000000,0.000000,0.000000,0.000000,0.000000;
#CREDIT:;
#NOTES:
0000
0000
0000
0000
,
0000
0000
0000
0000
,
0000
0000
0000
0000
,
0000
0000
0000
0200
,
0000
0300
0000
0000
,
0000
0000
0000
0010
,
0000
0000
0000
0100
,
0000
0000
0000
1000
,
0000
0001
0000
1000
,
0000
0000
0000
0001
,
0000
0000
0000
1000
,
0000
0000
0000
0100
,
0000
0010
0000
0100
,
0000
0000
0000
0001
,
0000
0000
0000
1000
,
0000
0000
0000
0100
,
0000
0000
0000
0010
,
0000
0000
0000
0001
,
0000
0000
0000
1000
,
1000
0000
0000
0010
,
0000
0000
0000
0100
,
0100
0000
0000
0001
,
0000
0100
0000
0001
,
0000
0000
0000
1000
,
0000
0010
0000
1000
,
0000
0000
0000
0100
,
0100
0000
0010
0000
,
0100
0000
0000
1000
,
1000
0000
0001
0000
,
1000
0000
0000
0010
,
0000
0100
0000
0010
,
0000
0000
0000
0001
,
0000
1000
0000
0010
,
0010
0000
0000
0100
,
0000
1000
0000
0100
,
0000
0100
0000
0010
,
0000
0001
0000
0010
,
0000
0010
0000
0100
,
0100
0100
0000
0010
,
0010
0010
0000
0001
,
0000
1000
0000
0001
,
0000
0100
0000
1000
,
1000
1000
0000
0010
,
0000
0000
0000
1000
,
0000
0100
0000
0001
,
0000
0010
0000
0100
,
0000
1000
0000
0100
,
0000
0010
0000
0100
,
0100
0000
0000
0010
,
0010
0000
0000
0001
,
0000
1000
0000
0001
,
0001
0001
0000
1000
,
0000
0100
0000
0001
,
0000
0010
0000
1000
,
0000
0100
0000
0010
,
0000
0000
0000
1000
,
1000
0100
0000
0001
,
0000
0010
0000
0001
,
0001
0010
0000
0100
,
0000
1000
0000
0010
,
0000
0100
0000
0100
,
0000
0010
0000
0010
,
0000
0001
0000
0100
,
0000
0000
0000
0010
,
0000
0100
0000
0001
,
0000
0010
0000
0200
,
0000
0000
0300
0000
,
0000
0000
0000
0001
,
0000
0100
0000
1000
,
0000
0100
0000
0020
,
0000
0000
0030
0000
,
0000
0000
0000
0100
;

//---------------dance-single - ----------------
#NOTEDATA:;
#CHARTNAME:;
#STEPSTYPE:dance-single;
#DESCRIPTION:;
#CHARTSTYLE:;
#DIFFICULTY:Easy;
#METER:5;
#RADARVALUES:0.202515,0.282158,0.000000,0.100658,0.000000,169.000000,169.000000,0.000000,12.000000,0.000000,0.000000,0.000000,0.000000,0.000000,0.202515,0.282158,0.000000,0.100658,0.000000,169.000000,169.000000,0.000000,12.000000,0.000000,0.000000,0.000000,0.000000,0.000000;
#CREDIT:;
#NOTES:
0000
0000
0000
0000
,
0000
0000
0000
0000
,
0000
0000
0000
0000
,
0000
0000
0000
0200
,
0000
0300
0000
0000
,
0000
0000
0000
1000
,
0100
0001
0000
0001
,
0010
1000
0000
0200
,
0000
0300
0010
0010
,
0000
0000
0000
0001
,
0100
1000
0000
1000
,
0010
0001
0000
0020
,
0000
0030
0100
0100
,
0000
0000
0000
1000
,
0000
0000
0000
0001
,
0000
0000
0000
0100
,
0000
0000
0000
0010
,
0000
0000
0000
1000
,
0000
0000
0000
1000
,
0100
1000
0000
0001
,
0000
0000
0000
0010
,
0001
0010
0000
1000
,
1000
0100
0000
0010
,
0000
0100
0000
0001
,
0001
0100
0000
0010
,
0000
1000
0100
0000
,
0010
0001
0100
0010
,
0000
0001
0000
0000
,
0010
1000
0100
1000
,
0000
0010
0000
0100
,
0100
1000
0000
0010
,
0000
0100
0000
0001
,
0001
0100
0000
0010
,
0000
1000
0000
0002
,
0003
0100
0000
2000
,
3000
0010
0000
0001
,
1000
0001
0000
0010
,
0010
0100
0000
0001
,
0100
1000
0100
1000
,
0010
0000
0000
1000
,
1000
0001
0001
0100
,
0000
0010
0000
0001
,
0010
1000
0010
0000
,
0100
0000
0002
0000
,
1000
0100
1003
0000
,
0010
0000
2000
0000
,
0001
0010
3001
0000
,
0100
0010
0000
0001
,
0001
0100
0000
1000
,
1000
0010
0000
0100
,
0010
1000
0000
0001
,
0010
1000
0020
0000
,
1000
0100
1030
0000
,
0100
0010
0200
0000
,
0001
0010
0301
0000
,
0010
0100
0000
0001
,
0001
0100
1000
0000
,
0010
0010
0000
1000
,
1000
0100
0001
0000
,
0010
0100
0001
0000
,
0000
1000
1000
0010
,
0010
0001
0001
0010
,
0100
0010
0100
0000
,
0000
0000
0000
0010
,
0001
0100
0000
0100
,
1000
0010
0000
0020
,
0000
0030
0100
0100
,
0000
0010
0000
0001
,
1000
0010
0000
1000
,
0001
0100
0000
0200
,
0000
0300
0010
0010
,
0000
0001
0000
1000
,
0000
0200
0000
0000
0000
0000
0000
0000
,
0000
0000
0000
0000
,
0000
0000
0000
0300
;

//---------------dance-single - ----------------
#NOTEDATA:;
#CHARTNAME:;
#STEPSTYPE:dance-single;
#DESCRIPTION:;
#CHARTSTYLE:;
#DIFFICULTY:Medium;
#METER:8;
#RADARVALUES:0.274414,0.376211,0.109047,0.125823,0.000000,229.000000,216.000000,13.000000,15.000000,0.000000,0.000000,0.000000,0.000000,0.000000,0.274414,0.376211,0.109047,0.125823,0.000000,229.000000,216.000000,13.000000,15.000000,0.000000,0.000000,0.000000,0.000000,0.000000;
#CREDIT:;
#NOTES:
0000
0000
0000
0000
,
0000
0000
0000
0000
,
0000
0000
0000
0000
,
0000
0000
0000
0200
,
0000
0300
0000
0000
,
0000
0000
0000
1000
,
1000
0100
0010
0000
0001
0000
1000
0000
,
0100
0010
0001
0200
,
0000
0000
0300
0000
0010
0010
0000
0000
,
0000
0000
0010
1000
0010
0000
0001
0000
,
0001
0010
0100
0000
1000
0000
0001
0000
,
0010
0100
1000
0020
,
0000
0000
0030
0000
0100
0100
0000
0000
,
0000
1000
0000
1010
,
0000
0100
0000
1001
,
0000
0100
0000
0101
,
0000
0010
0000
0110
,
0000
0000
0000
1001
,
0000
0000
0000
1000
,
0100
1000
0010
1001
,
0100
0100
0000
0010
,
0100
0001
0000
0100
,
0100
0001
0000
0001
0000
0100
0000
0000
,
0000
0000
0100
0010
,
0010
1000
0000
1000
0000
0100
0000
0000
,
0000
0001
0001
0000
,
0010
0100
0001
0100
,
0010
1100
0000
0010
,
0100
0001
0010
0001
,
0010
0101
0000
1000
,
1000
0100
0000
0100
0000
0010
0000
0000
,
0000
0001
0000
0010
,
0010
0100
0000
0000
0000
1000
0001
0000
,
0000
0100
0010
0000
0000
0000
2000
0000
,
0000
0000
3010
0000
0100
0001
0000
0100
,
0000
0010
0000
0000
0000
0000
0002
0000
,
0000
0000
0103
0000
0000
0010
0000
0100
,
0000
0000
0000
0010
1000
0000
0000
0000
,
0010
0010
0100
0100
,
0001
0000
1000
0010
,
0010
1000
1000
0001
,
0100
1000
0010
1000
,
1000
0000
0001
0000
0001
0100
0000
0000
,
1000
0000
1000
0010
0000
0200
0000
0000
,
0001
0000
0000
0000
1300
0000
0000
0010
,
0000
0000
0010
0100
0000
0002
0000
0000
,
0100
0000
0013
0000
,
0100
0100
0000
1010
,
0001
0100
0000
0101
,
1000
0100
0010
0001
,
0001
0100
0010
1000
,
1000
0000
0001
1000
0000
0020
0000
0000
,
1000
1000
0130
0000
,
0001
0000
0001
0000
0010
2000
0000
0000
,
0100
0100
3010
0000
,
0010
1000
0100
0020
,
0000
1030
1000
0000
,
0100
0100
0010
0100
,
0001
0000
0010
0000
0010
0100
0000
0000
,
0001
0100
0010
0000
,
0000
0000
0001
0000
0001
0100
1000
0000
,
1000
0000
0010
0000
0001
0000
1000
0001
,
1000
0001
1000
0000
0010
0000
1001
0000
,
0000
0000
0000
0010
,
0001
0000
0001
0100
0000
0010
0000
0000
,
1000
0100
0000
2020
,
0000
0000
3030
0000
0001
0100
0000
0000
,
0000
0100
0100
0000
0010
0000
0000
0000
,
1000
0000
1000
0100
0000
0010
0000
0000
,
0001
0010
0100
0022
,
0000
0000
0033
0000
1000
0100
0000
0000
,
0000
0010
0010
0000
0100
0000
0100
0000
,
0000
0200
0000
0000
0000
0000
0000
0000
,
0000
0000
0000
0000
,
0000
0000
0000
0300
;

//---------------dance-single - ----------------
#NOTEDATA:;
#CHARTNAME:;
#STEPSTYPE:dance-single;
#DESCRIPTION:;
#CHARTSTYLE:;
#DIFFICULTY:Hard;
#METER:10;
#RADARVALUES:0.412220,0.470264,0.176152,0.117435,0.000000,344.000000,323.000000,21.000000,14.000000,0.000000,0.000000,0.000000,0.000000,0.000000,0.412220,0.470264,0.176152,0.117435,0.000000,344.000000,323.000000,21.000000,14.000000,0.000000,0.000000,0.000000,0.000000,0.000000;
#CREDIT:;
#NOTES:
// measure 0
0000
0000
0000
0000
,  // measure 1
0000
0000
0000
0000
,  // measure 2
0000
0000
0000
0000
,  // measure 3
0000
0000
0000
0200
,  // measure 4
0000
0300
0000
0000
,  // measure 5
0000
0000
0000
0000
0000
0000
0001
0100
,  // measure 6
1000
0000
1000
0100
0001
0000
0100
0000
,  // measure 7
0010
0000
1000
0000
0100
0000
1000
0010
,  // measure 8
1000
0010
1000
0000
0001
0000
1000
0010
,  // measure 9
0000
0100
0100
0001
0100
0000
1000
0010
,  // measure 10
0001
0000
0001
0010
1000
0000
0010
0000
,  // measure 11
0100
0000
0001
0000
0100
0000
0001
0100
,  // measure 12
0001
0100
0001
0000
1000
0000
0001
0100
,  // measure 13
0000
0010
0010
1000
0010
0000
0001
0000
,  // measure 14
0001
0010
0000
0000
0110
0000
1000
0000
,  // measure 15
1000
0100
0000
0000
0011
0000
1000
0000
,  // measure 16
1000
0001
0000
0000
1100
0000
0010
0000
,  // measure 17
0000
0000
0000
0110
,  // measure 18
0000
0000
0000
0100
,  // measure 19
0100
0010
0000
1000
0100
0000
0110
0000
,  // measure 20
0001
0000
0001
1000
0000
0100
0100
0000
,  // measure 21
0010
1000
0000
0001
0000
0100
0001
0000
,  // measure 22
1000
1000
0000
0010
0000
2000
0000
0000
,  // measure 23
3000
0000
0000
0010
0100
0001
0100
0000
,  // measure 24
0010
1000
0000
0100
0000
0020
0000
0030
,  // measure 25
0000
0100
0010
0100
0001
0100
0000
0000
,  // measure 26
0010
0001
0100
0000
0010
1000
0100
0000
,  // measure 27
0010
0001
0000
0100
0000
0001
1000
0000
,  // measure 28
0010
1000
0001
0000
0100
0010
1000
0000
,  // measure 29
0100
0010
0000
0001
0000
1000
1000
0000
,  // measure 30
0100
1000
0000
0010
0000
0002
0000
0003
,  // measure 31
0100
0100
0000
0000
0010
0000
0001
0000
,  // measure 32
1000
0100
0000
1000
0000
0100
0100
0000
,  // measure 33
0000
0001
1000
0000
0000
0010
2000
0000
,  // measure 34
3100
0000
0010
1000
0001
0100
0000
0100
,  // measure 35
0010
0100
0000
0001
0100
0000
0002
0000
,  // measure 36
0103
0000
0010
1000
0100
1000
0000
0010
,  // measure 37
0000
0100
0000
0100
1000
0000
0100
0000
,  // measure 38
1000
0000
0001
0100
0001
0100
0000
1000
,  // measure 39
0000
0010
0000
0100
0001
0010
0100
0010
,  // measure 40
0001
0010
0100
0010
1000
0000
0100
0000
,  // measure 41
0100
0010
0100
0000
0001
0000
0100
0000
,  // measure 42
0100
0000
0010
0010
0100
0001
0000
0100
,  // measure 43
1010
0000
1000
0010
0000
0200
0000
0010
,  // measure 44
0010
0000
0001
0000
0310
0000
0000
1000
,  // measure 45
0000
1000
0001
0100
0010
0020
0000
1000
,  // measure 46
1000
0000
1000
0000
0130
0100
0000
0000
,  // measure 47
0001
0010
0001
0000
0100
0000
1010
0000
,  // measure 48
1000
0100
0001
0000
0010
0000
0101
0000
,  // measure 49
0001
0100
1000
0000
0100
0000
0010
0000
,  // measure 50
0010
1000
0001
0000
1000
0000
0100
1000
,  // measure 51
0010
0000
0100
0001
0000
2000
0000
0010
,  // measure 52
0010
0000
0001
0000
3010
0010
0000
0001
,  // measure 53
0000
0100
0010
1000
0100
0002
0000
0100
,  // measure 54
0100
0000
1000
0000
0103
0100
0000
0000
,  // measure 55
0010
0100
1000
1100
,  // measure 56
0101
0000
1000
0100
0000
0001
0000
0000
,  // measure 57
1000
0001
0100
0011
,  // measure 58
1010
0000
0001
0100
0000
1000
0000
0000
,  // measure 59
1000
0100
1000
0010
0000
0100
0001
0100
,  // measure 60
0000
1000
0010
1000
0000
0001
0100
1000
,  // measure 61
0000
1000
0100
0010
0000
0001
0010
1000
,  // measure 62
0010
0001
0100
1000
0100
0000
1001
0000
,  // measure 63
0000
0000
0000
0010
,  // measure 64
1000
0100
0010
0000
0001
0010
0100
0000
,  // measure 65
1000
0101
1100
0020
,  // measure 66
1000
0000
0130
0000
0010
0110
0000
0001
,  // measure 67
0000
1000
1000
0001
0100
0000
0010
0000
,  // measure 68
0001
0010
0100
0000
1000
0100
0010
0000
,  // measure 69
0001
1100
0101
2000
,  // measure 70
0001
0000
3010
0000
0001
1001
0000
0010
,  // measure 71
0000
1000
0010
0000
0010
0000
1001
0000
,  // measure 72
0000
0220
0000
0000
0000
0000
0000
0000
,  // measure 73
0000
0000
0000
0000
,  // measure 74
0000
0000
0000
0330
;

//---------------dance-double - ----------------
#NOTEDATA:;
#CHARTNAME:;
#STEPSTYPE:dance-double;
#DESCRIPTION:;
#CHARTSTYLE:;
#DIFFICULTY:Easy;
#METER:5;
#RADARVALUES:0.208507,0.313509,0.033553,0.125823,0.000000,174.000000,170.000000,4.000000,15.000000,0.000000,0.000000,0.000000,0.000000,0.000000,0.208507,0.313509,0.033553,0.125823,0.000000,174.000000,170.000000,4.000000,15.000000,0.000000,0.000000,0.000000,0.000000,0.000000;
#CREDIT:;
#NOTES:
00000000
00000000
00000000
00000000
,
00000000
00000000
00000000
00000000
,
00000000
00000000
00000000
00000000
,
00000000
00000000
00000000
02000000
,
00000000
03000000
00000000
00000000
,
00000000
00000000
00000000
00010000
,
00001000
00000100
00000000
00001000
,
00010000
00100000
00000000
00020000
,
00000000
00030000
00010000
00000000
,
00000000
00100000
00010000
00000000
,
00001000
00000100
00000010
00000000
,
00010000
00100000
01000000
00002000
,
00000000
00003000
00001000
00000000
,
00000000
00001000
00001000
00000010
,
00000000
00010000
00000000
00100000
,
00000000
01000000
00000000
00010000
,
00000000
00001000
00000000
00000100
,
00000000
00000000
00000000
00000010
,
00000000
00000000
00000000
00001000
,
00010000
00100000
00010000
01000000
,
00000000
00000000
00000000
00100000
,
00010000
10000000
00000000
10000000
,
01000000
00100000
00010000
00000000
,
00001000
00000000
00000000
00001000
,
00000100
00000010
00000001
00000000
,
00000010
00000100
00000000
00000000
,
00000010
00001000
00010000
00010000
,
00001000
00000000
00100000
00000000
,
00010000
01000000
01000000
00100000
,
00010000
00000000
01000000
10000000
,
00000000
01000000
01000000
00000000
,
00010000
00000000
00001000
00000100
,
00000000
00000010
00000000
00000002
,
00000000
00000013
00000000
00000010
,
00000010
00001000
00000000
00010000
,
00100000
01000000
00000000
10000000
,
10000000
01000000
00000000
00100000
,
00010000
00001000
00000000
00001000
,
00000100
00000001
00000100
00001000
,
00010000
00000000
00100000
00010000
,
00010000
00001000
00001000
00000000
,
00000100
00000010
00000001
00000100
,
00000000
00000010
00001000
00000000
,
00100000
00010000
02000000
00000000
,
00010000
00010000
03000000
00000000
,
00010000
00001000
00000200
00000000
,
00001000
00001000
00000300
00000000
,
00000010
00001000
00000000
00011000
,
00100000
00000000
00000000
00011000
,
00000100
00000000
00000000
00000001
,
00000100
00000000
00000000
00000010
,
00000010
00001000
00200000
00000000
,
00010000
00010000
00300000
00000000
,
00001000
00010000
00000020
00000000
,
00001000
00001000
00000030
00000000
,
00010000
01000000
00000000
01010000
,
00100000
00010000
10000000
00000000
,
00100000
00010000
00001000
00001100
,
00000010
00000001
00000100
00000000
,
00000010
00000001
00000100
00000000
,
00000000
00000020
00000030
00002000
,
00003000
00020000
00030000
02000000
,
00000000
00000000
00000000
03000000
,
00000000
00000000
00000000
00100000
,
00010000
00001000
00000100
00000000
,
00001000
00010000
00100000
20000000
,
00000000
30000000
00010000
00000000
,
00100000
00100000
00010000
00000000
,
00000100
00001000
00010000
00000000
,
00001000
00000100
00000010
00000002
,
00000000
00000003
00001000
00000000
,
00000000
00010000
00000000
00001000
,
00000000
00000200
00000000
00000000
00000000
00000000
00000000
00000000
,
00000000
00000000
00000000
00000000
,
00000000
00000000
00000000
00000300
;

//---------------dance-double - ----------------
#NOTEDATA:;
#CHARTNAME:;
#STEPSTYPE:dance-double;
#DESCRIPTION:;
#CHARTSTYLE:;
#DIFFICULTY:Medium;
#METER:8;
#RADARVALUES:0.292389,0.407562,0.083882,0.125823,0.000000,244.000000,234.000000,10.000000,15.000000,0.000000,0.000000,0.000000,0.000000,0.000000,0.292389,0.407562,0.083882,0.125823,0.000000,244.000000,234.000000,10.000000,15.000000,0.000000,0.000000,0.000000,0.000000,0.000000;
#CREDIT:;
#NOTES:
00000000
00000000
00000000
00000000
,
00000000
00000000
00000000
00000000
,
00000000
00000000
00000000
00000000
,
00000000
00000000
00000000
02000000
,
00000000
03000000
00000000
00000000
,
00000000
00000000
00000000
00001000
,
00010000
00100000
01000000
00000000
00010000
00000000
00001000
00000000
,
00010000
00001000
00000100
00000000
00000100
00000000
00002000
00000000
,
00000000
00000000
00003000
00000000
00000100
00000100
00000000
00000000
,
00000000
00010000
00001000
00010000
,
00010000
00001000
00000100
00000000
00001000
00000000
00000100
00000000
,
00001000
00010000
00100000
00000000
00100000
00000000
00020000
00000000
,
00000000
00000000
00030000
00000000
00100000
00100000
00000000
00000000
,
00000000
00100000
00010000
01000000
,
01010000
00000000
10000000
00100000
,
11000000
00000000
00010000
00100000
,
00011000
00000000
00001000
00000100
,
00000000
00000000
00000000
00000110
,
00000000
00000000
00000000
00000001
,
00000100
00001000
00010000
01100000
,
00010000
10000000
00000000
00100000
,
01000000
01000000
00000000
00100000
00000000
00000000
01000000
00000000
,
01000000
00010000
00000000
00010000
00000000
00020000
00000000
00000000
,
00000000
00030000
00000000
00000000
00000100
00000000
00000010
00000000
,
00000001
00000001
00000000
00000010
00000000
00000001
00000000
00000000
,
00000000
00000100
00001000
00000000
,
00010000
00100000
00010000
01000000
,
01000000
00100000
00000000
10000000
,
01000000
00100000
00010000
00001000
,
00001000
00010000
00000000
00001000
00000000
00000000
00000100
00000000
,
00000010
00000010
00000000
00000100
00000000
00000020
00000000
00000000
,
00000000
00000030
00000000
00000000
00000100
00000000
00001000
00000000
,
00010000
00000000
00100000
00000000
00000000
00010000
00010000
00000000
,
00000000
01000000
00100000
00000000
00000000
00000000
00100000
00000000
,
00100000
00000000
00010000
00000000
00001000
00010000
00000000
00001000
,
00000000
00000100
00000000
00000000
00000000
00000000
00000010
00000000
,
00000010
00000000
00000001
00000000
00000100
00000010
00000000
00000100
,
00000000
00001000
00000000
00010000
00010000
00000000
00100000
00000000
,
00010000
00100000
10000000
00100000
,
00010000
01000000
00100000
01010000
,
01010000
00011000
00011000
00000000
,
00010000
00001000
00000100
00010000
,
00010000
00000000
00001000
00010000
00000000
00001000
00000000
00000000
,
00100000
00000000
00010000
00000000
00000000
02000000
00000000
00000000
,
00010000
00000000
00001000
00000000
03010000
00000000
00000000
00010000
,
00000000
00010000
00001000
00000000
00000000
00000200
00000000
00000000
,
00001000
00010000
00001300
00000000
,
00010000
00100000
00000000
01000000
,
10000000
01000000
00100000
00000000
00010000
00000000
00001000
00000000
,
00001000
00010000
00001000
00000000
00000100
00000000
00000010
00000000
,
00000001
00000100
00000000
00000010
,
00000100
00000000
00000010
00001000
00000000
00000020
00000000
00000000
,
00001000
00000000
00010000
00000000
00001030
00000000
00000000
00100000
,
00000000
00100000
00010000
00000000
00010000
00200000
00000000
00000000
,
00010000
00001000
00310000
00000000
,
00001000
00000000
00010000
00000000
01000000
00000000
00100000
00010000
,
00100000
00001000
00010000
00001000
,
00000100
00000000
00000010
00000000
00000001
00000000
00000001
00000100
,
00001000
00010000
00100000
00000000
,
00010000
01000000
00100000
00000000
,
00010000
00200000
00301000
00020000
,
00030010
00000000
00002000
00000000
00003001
00000000
00001000
00000100
,
00001000
00000100
00001000
00000000
00010000
00000000
00011000
00000000
,
00000000
00000000
00000000
00100000
,
00010000
00000000
00010000
00001000
00000000
00000100
00000000
00000000
,
00000010
00000001
00000100
00000020
,
00000000
00000000
00000030
00000000
00001000
00001000
00000000
00000000
,
00000000
00001000
00000100
00000000
,
00001000
00000000
00001000
00010000
00000000
00100000
00000000
00000000
,
10000000
00100000
01000000
00200000
,
00000000
00000000
00300000
00000000
00010000
00010000
00000000
00000000
,
00000000
00001000
00010000
00000100
,
00000000
00000200
00000000
00000000
00000000
00000000
00000000
00000000
,
00000000
00000000
00000000
00000000
,
00000000
00000000
00000000
00000300
;

//---------------dance-double - ----------------
#NOTEDATA:;
#CHARTNAME:;
#STEPSTYPE:dance-double;
#DESCRIPTION:;
#CHARTSTYLE:;
#DIFFICULTY:Hard;
#METER:10;
#RADARVALUES:0.372676,0.438913,0.092270,0.167764,0.000000,311.000000,300.000000,11.000000,20.000000,0.000000,0.000000,0.000000,0.000000,0.000000,0.372676,0.438913,0.092270,0.167764,0.000000,311.000000,300.000000,11.000000,20.000000,0.000000,0.000000,0.000000,0.000000,0.000000;
#CREDIT:;
#NOTES:
00000000
00000000
00000000
00000000
,
00000000
00000000
00000000
00000000
,
00000000
00000000
00000000
00000000
,
00000000
00000000
00000000
02000000
,
00000000
03000000
00000000
00000000
,
00000000
00000000
00000000
00001000
,
00001000
00000100
00000001
00000000
00000010
00000000
00000001
00000000
,
00000001
00000010
00001000
00000000
00010000
00000000
00200000
00000000
,
00010000
00000000
00310000
00000000
01000000
01000000
00000000
00100000
,
00000000
01000000
00010000
00000000
00100000
00000000
00010000
00000000
,
00010000
00100000
10000000
00000000
01000000
00000000
10000000
00000000
,
10000000
01000000
00010000
00000000
00001000
00000000
00000200
00000000
,
00001000
00000000
00001300
00000000
00000010
00000010
00000000
00000100
,
00000000
00000010
00001000
00000000
00000001
00000000
00001001
00000000
,
00000010
00010000
00000000
00000000
00001000
00000000
00100000
00000000
,
00010000
01000000
00000000
00000000
00100000
00000000
01010000
00000000
,
00100000
00010000
00000000
00000000
10000000
00000000
00100000
00000000
,
00000000
00000000
00000000
00001001
,
00000000
00000000
00000000
00000010
,
00000010
00001000
00000000
00010000
00100000
00000000
10010000
00000000
,
00000000
00000000
00000000
00000000
00000000
00010000
00100000
00000000
,
00001000
00010000
00000000
00000100
00000000
00000010
00000010
00000000
,
00000001
00000100
00000000
00001000
00000000
00000200
00000000
00000000
,
00000000
00001300
00000000
00010000
00001000
00010000
00001000
00000000
,
00100000
00010000
00000000
10000000
00000000
00100000
00000000
00000000
,
00000000
01000000
01000000
00000000
00010000
00001000
00000000
00000000
,
00010000
00100000
00010000
00000000
00001000
00010000
00000100
00000000
,
00000010
00000001
00000000
00000100
00000000
00000000
00000010
00000000
,
00000010
00001000
00000000
00010000
00100000
00010000
01000000
00000000
,
00100000
00010000
00000000
01000000
00000000
00100000
10000000
00000000
,
01000000
00100000
00000000
00010000
00000000
02000000
00000000
00000000
,
00000000
03000000
00000000
00010000
00000000
00010000
00001000
00000000
,
00000100
00000010
00000000
00000001
00000000
00000010
00000100
00000000
,
00000000
00000010
00001000
00000000
00000000
00010000
00002000
00000000
,
00013000
00000000
00100000
00010000
01000000
00000000
00100000
00000000
,
00010000
00000000
10000000
00010000
00000000
00100000
02000000
00000000
,
03001000
00000000
00010000
00001000
00010000
00001000
00000000
00000100
,
00000000
00000010
00000000
00000001
00000100
00000000
00000010
00000000
,
00000100
00001000
00010000
00000000
00100000
00000000
00010000
00000000
,
00010000
01000000
10000000
00000000
00100000
00000000
01000000
00010000
,
00100000
00000000
00001000
00010000
00000100
00000000
00000010
00000001
,
00000100
00000000
00000010
00001000
00010000
00000000
00010000
00000000
,
00010000
00000000
00001000
00010000
00001000
00100000
00000000
00011000
,
00011000
00000000
00100000
01000000
00000000
00200000
00000000
00000000
,
10000000
00000000
01000000
00000000
00310000
00000000
00000000
00010000
,
00000000
00010000
00001000
00000000
00000010
00000200
00000000
00000000
,
00000001
00000010
00001300
00000000
,
00001000
00010000
00100000
00000000
00000000
01000000
00000000
01000000
,
00100000
10000000
01000000
00000000
00100000
00000000
00010000
00001000
,
00010000
00000000
00000100
00000000
00000010
00000001
00000000
00000100
,
00000010
00001000
00001000
00000100
00000000
00000000
00010000
00000010
,
00010000
00001000
00100000
00001000
00000000
00002000
00000000
00000000
,
00010000
00000000
00000100
00000000
00013000
00010000
00000000
00100000
,
00000000
00100000
00001000
00000000
00001000
00020000
00000000
00000000
,
00001000
00000000
00100000
00000000
00001000
00031000
00000000
00000000
,
00001000
00000000
00010000
00000000
00000100
00000000
00000010
00000001
,
00000100
00000010
00001000
00000000
00010000
00000000
00100000
00010000
,
01000000
00100000
10000000
00000000
01000000
00000000
01010000
00000000
,
01010000
00000000
00001000
00010000
00000000
00000100
00000000
00000000
,
00000010
00000001
00000100
00000010
00000000
00002000
00000000
00003000
,
00000000
00000000
00000200
00000000
00010300
00000000
00001000
00100000
,
00001000
00000000
02000000
00000000
03010000
00000000
00001000
00010000
,
00001000
00000100
00000010
00000100
00001000
00000000
00011000
00000000
,
00000000
00000000
00000000
00100000
,
00010000
00000000
00010000
01000000
00000000
00002000
00000000
00003000
,
00001000
00000100
00000010
00000002
,
00000100
00000000
00000013
00000000
00001000
00000100
00000000
00010000
,
00000000
00010000
00001000
00100000
00001000
00000000
00000000
00000000
,
00001000
00000000
00001000
00000100
00000000
00020000
00000000
00030000
,
00010000
00100000
01000000
00200000
,
10000000
00000000
01300000
00000000
00010000
01000000
00000000
00001000
,
00000000
00001000
00010000
00000100
00010000
00000000
00101000
00000000
,
00000000
00020200
00000000
00000000
00000000
00000000
00000000
00000000
,
00000000
00000000
00000000
00000000
,
00000000
00000000
00000000
00030300
;
