#VERSION:0.83;
#TITLE:IN YOUR EYES;
#SUBTITLE:;
#ARTIST:KYLIE MINOGUE;
#TITLETRANSLIT:;
#SUBTITLETRANSLIT:;
#ARTISTTRANSLIT:;
#GENRE:POP;
#ORIGIN:;
#CREDIT:SAIKIO;
#BANNER:IN YOUR EYES-banner.png;
#BACKGROUND:bg.png;
#PREVIEWVID:;
#JACKET:IN YOUR EYES-jacket.png;
#CDIMAGE:;
#DISCIMAGE:;
#LYRICSPATH:;
#CDTITLE:Saikio Simfiles.png;
#MUSIC:IN YOUR EYES.ogg;
#OFFSET:-0.169000;
#SAMPLESTART:93.604080;
#SAMPLELENGTH:17.260038;
#SELECTABLE:YES;
#BPMS:0.000=124.020,
160.000=62.010,
176.000=124.020;
#STOPS:176.000=0.242,
176.500=0.250,
177.000=0.250,
177.500=0.250;
#DELAYS:;
#WARPS:;
#TIMESIGNATURES:0.000=4=4;
#TICKCOUNTS:0.000=4;
#COMBOS:0.000=1;
#SPEEDS:0.000=1.000=0.000=0;
#SCROLLS:0.000=1.000;
#FAKES:;
#LABELS:0.000=Song Start;
#BGCHANGES:-0.800=IN YOUR EYES.avi=1.000=0=0=0=StretchNoLoop====,
99999=-nosongbg-=1.000=0=0=0 // don't automatically add -songbackground-
;
#KEYSOUNDS:;
#ATTACKS:
;

//---------------dance-single - ----------------
#NOTEDATA:;
#CHARTNAME:;
#STEPSTYPE:dance-single;
#DESCRIPTION:;
#CHARTSTYLE:;
#DIFFICULTY:Beginner;
#METER:2;
#RADARVALUES:0.113383,0.163167,0.000000,0.015411,0.000000,103.000000,103.000000,0.000000,2.000000,0.000000,0.000000,0.000000,0.000000,0.000000,0.113383,0.163167,0.000000,0.015411,0.000000,103.000000,103.000000,0.000000,2.000000,0.000000,0.000000,0.000000,0.000000,0.000000;
#CREDIT:Saikio;
#NOTES:
0000
0000
0000
0000
,
0000
0000
0000
0000
,
0000
0000
0000
0000
,
0000
0000
0000
0000
,
0010
0000
0000
0000
,
0010
0000
0000
0000
,
0100
0000
0000
0000
,
0100
0000
0000
0000
,
0001
0000
0000
0000
,
0100
0000
0000
0000
,
1000
0000
0000
0000
,
0010
0000
0000
0000
,
0100
0000
0000
0000
,
0001
0000
0000
0000
,
0010
0000
0000
0000
,
1000
0000
1000
1000
,
1000
0000
0000
0100
,
0000
0010
0000
0000
,
0001
0000
0001
0000
,
0010
0000
1000
0000
,
0100
0000
0000
0000
,
0010
0000
0100
0000
,
0001
0000
0100
0000
,
0000
0010
0010
0010
,
0100
0000
0001
0000
,
1000
0000
0001
0000
,
0010
0000
0100
0000
,
0010
0000
0100
0100
,
0010
0000
1000
0000
,
0100
0000
0001
0000
,
0010
0000
1000
0000
,
0100
0000
0100
0000
,
0100
0000
0010
0000
,
0010
0000
0010
0000
,
0001
0000
0001
0000
,
0001
0000
1000
0000
,
0100
0000
0000
0000
,
0010
0000
0000
0000
,
0002
0000
0000
0000
,
0003
0000
0000
0000
,
0001
0000
0000
0000
,
0010
0000
0000
0000
,
1000
0000
0000
0000
,
0100
0000
0200
0000
,
0300
0000
0010
0000
,
0100
0000
0100
0000
,
0001
0000
1000
1000
,
0010
0000
1000
0000
,
0010
0010
0100
0000
,
0100
0000
0010
0000
,
0001
0000
0010
0000
,
0100
0100
0000
0001
,
0001
1000
0001
0000
,
0100
0000
0001
0000
,
0100
0000
1000
0000
,
0010
0000
0001
0000
,
0100
0100
0010
0000
,
0001
0000
0010
0010
,
1000
0000
0100
0000
,
0001
0001
0000
0010
,
0010
0100
0010
0000
;

//---------------dance-single - ----------------
#NOTEDATA:;
#CHARTNAME:;
#STEPSTYPE:dance-single;
#DESCRIPTION:;
#CHARTSTYLE:;
#DIFFICULTY:Easy;
#METER:5;
#RADARVALUES:0.206952,0.234059,0.053940,0.115585,0.000000,188.000000,181.000000,7.000000,15.000000,0.000000,0.000000,0.000000,0.000000,0.000000,0.206952,0.234059,0.053940,0.115585,0.000000,188.000000,181.000000,7.000000,15.000000,0.000000,0.000000,0.000000,0.000000,0.000000;
#CREDIT:;
#NOTES:
0000
0000
0000
0000
,
0000
0000
0000
0000
,
0000
0000
0000
0000
,
0000
0000
0000
0000
,
0001
0001
0100
0000
,
0010
0010
1000
0000
,
0100
0001
0100
0000
,
0010
1000
0010
0000
,
1000
1000
0100
0010
,
0100
0001
0100
0010
,
0000
1000
0100
0010
,
0001
0001
0100
0000
,
0010
0001
0010
1000
,
0100
0010
0100
0000
,
0001
1000
0100
1000
,
0001
0100
0010
0010
,
0200
0300
0001
0010
,
0001
0100
0000
0010
,
1000
0100
0001
0010
,
0000
0001
0100
2000
,
0000
3010
0000
0010
,
0100
1000
0000
0001
,
1000
0100
0010
0100
,
0000
0001
1000
0010
,
1001
1000
0010
0001
,
0100
1000
0010
0010
,
1000
0001
0100
1000
,
0000
0100
0010
0001
,
0110
0010
1000
0010
,
0100
1000
1000
0000
,
0100
0001
0010
0100
,
0002
0003
2000
3000
,
0020
0000
0000
0030
,
0200
0000
0000
0300
,
0002
0000
0000
0003
,
2000
0000
0000
3000
,
0100
0010
0001
0000
,
0010
0100
1000
0100
,
0020
0000
0000
0000
,
0030
0000
0000
0000
,
0200
0300
0020
0030
,
0001
0100
1000
0010
,
0200
0000
0300
0000
,
0010
0001
0200
0000
,
0300
0010
0110
0001
,
1000
0010
0001
0100
,
1000
1000
0001
0010
,
0100
0010
0000
0001
,
0010
1000
1001
0010
,
0100
0001
0100
0010
,
0010
0001
0100
1000
,
0010
0100
0001
1000
,
0010
0001
0101
0100
,
0010
1000
0010
0100
,
0100
1000
0100
0010
,
0001
0100
0010
0001
,
0010
1000
1010
0100
,
0100
0001
0100
0010
,
0010
1000
0100
0001
,
0100
1000
0001
0100
,
0100
0010
0220
0330
;

//---------------dance-single - ----------------
#NOTEDATA:;
#CHARTNAME:;
#STEPSTYPE:dance-single;
#DESCRIPTION:;
#CHARTSTYLE:;
#DIFFICULTY:Medium;
#METER:8;
#RADARVALUES:0.255387,0.304277,0.084762,0.231169,0.007706,232.000000,221.000000,11.000000,30.000000,0.000000,0.000000,0.000000,0.000000,0.000000,0.255387,0.304277,0.084762,0.231169,0.007706,232.000000,221.000000,11.000000,30.000000,0.000000,0.000000,0.000000,0.000000,0.000000;
#CREDIT:;
#NOTES:
0000
0000
0000
0000
,
0000
0000
0000
0000
,
0000
0000
0000
0000
,
0000
0000
0000
0000
,
0020
0100
0030
0100
,
2000
0001
3000
0001
,
0200
1000
0300
0100
,
0002
0010
0003
0100
,
0100
1000
0100
0001
,
0010
1000
1000
0001
,
0100
0010
0010
0001
,
0100
0000
1000
0100
1000
0000
0010
0000
,
0100
0001
0001
0010
,
0100
1000
0010
0010
,
0001
0000
0100
0000
1000
0000
0010
0100
,
0010
0001
0010
0010
,
0020
0000
0000
0030
0000
0000
0001
0100
,
0010
0000
0001
0001
0000
0000
0001
0000
,
0010
1000
0100
0001
,
0000
0010
0001
0100
,
2000
0000
0000
0000
3010
0000
0001
0010
,
0100
0000
1000
1000
0000
0000
0010
0000
,
1000
0100
0010
0200
,
0300
0100
1000
1001
,
0020
0130
0001
0100
,
0010
1000
0100
0000
0001
0000
0010
0000
,
1000
0100
0010
0100
,
0001
0010
0011
0100
,
2000
0000
3010
0000
0001
0000
1000
0100
,
0010
0100
0001
0010
,
1000
0000
0001
0010
0100
0000
0010
0000
,
0200
0000
0300
0010
0200
0000
0300
0000
,
0002
0003
2000
3000
,
0200
0300
0002
0003
,
0020
0030
2000
3000
,
0200
0300
0002
0003
,
0010
1000
0100
0001
,
0100
0000
0010
0000
1000
0000
0010
0100
,
0020
0000
0000
0030
,
0100
0000
0100
0000
,
0020
0000
0000
0030
1000
1000
0000
0000
,
0010
0000
1000
0000
0100
0001
0000
0010
0000
0000
0000
0000
0010
0000
0200
0000
,
0000
0000
0000
0300
1000
1000
0000
0000
,
0001
0100
0010
0000
0200
0000
0000
0000
,
0300
0010
0010
0010
0002
0000
0013
0000
,
1010
0000
0100
1000
0100
0000
0010
0001
,
0010
0100
0001
0100
,
1000
0010
0100
0001
,
0101
1000
2000
3010
,
1001
0000
0010
0000
0100
0010
0100
0000
,
0001
0000
0010
0000
0100
0000
0100
0001
,
0010
0000
1000
0010
0100
0000
0010
0000
,
0101
1000
0020
0130
,
1100
0000
1000
0001
0100
0000
0001
0100
,
1000
0010
0001
0100
,
1000
0010
0001
1100
,
0010
0100
0020
0100
,
0130
0000
0001
1000
0010
0000
0200
0000
,
0010
0310
0001
0100
,
0010
1000
0010
0101
,
1000
1010
0220
0330
;

//---------------dance-single - ----------------
#NOTEDATA:;
#CHARTNAME:;
#STEPSTYPE:dance-single;
#DESCRIPTION:;
#CHARTSTYLE:;
#DIFFICULTY:Hard;
#METER:11;
#RADARVALUES:0.337948,0.374494,0.115585,0.315931,0.134849,307.000000,292.000000,15.000000,41.000000,0.000000,0.000000,0.000000,0.000000,0.000000,0.337948,0.374494,0.115585,0.315931,0.134849,307.000000,292.000000,15.000000,41.000000,0.000000,0.000000,0.000000,0.000000,0.000000;
#CREDIT:;
#NOTES:
0000
0000
0000
0000
,
0000
0000
0000
0000
,
0000
0000
0000
0000
,
0000
0000
0000
0000
,
0020
0000
1000
0000
0100
0030
0001
0000
,
0200
0010
0001
1300
,
0002
1000
0010
0103
,
2000
0100
0001
3010
,
0001
0000
0010
0100
1000
0000
0001
1000
,
0010
0000
1000
0100
0010
0000
0001
0100
,
1000
0000
0100
0000
0000
1000
0000
0000
0100
0000
0000
0010
0000
0000
0001
0000
,
0000
0000
0100
0000
0000
0100
0000
0000
0010
0000
0000
0000
1000
0000
0000
0000
,
0001
0100
1000
0000
0010
1000
0100
0000
,
0010
0001
0100
0000
0010
0000
1000
0000
,
0001
0000
0100
0000
0000
0010
0000
0000
1000
0000
0000
0000
0001
0000
0000
0000
,
1000
0100
1010
0002
,
2000
0003
0000
0000
3010
0000
0000
0000
0001
0000
0000
0000
0100
0000
1000
0000
,
0010
0000
1000
2000
0000
3000
0010
0100
,
0001
0000
1000
0000
0100
0001
0010
1000
,
0000
0000
0010
0000
1000
0100
0001
0010
,
0200
0000
0001
0000
0310
0000
0001
0100
,
1000
0000
0010
0020
0000
0030
0001
0100
,
0010
0000
1000
0000
0100
0010
0000
0100
,
0000
1010
0100
0110
,
0020
0000
0130
0000
0010
1000
0100
0000
,
0010
0000
0000
0010
0000
0000
0001
0000
0100
0000
0000
0100
0000
0000
0000
0000
,
0010
0000
0000
1000
0000
0000
0100
0000
0010
0000
0000
0001
0000
0000
0100
0000
,
0010
0001
0110
1000
,
0012
0000
0103
0000
0100
0000
0001
1000
,
0100
0000
0000
0000
0010
0000
0001
0000
0100
0000
0000
0010
0000
0000
1000
0000
,
0100
0000
0000
0001
0000
0000
0010
0000
1000
0000
0000
0100
0000
0000
1000
0000
,
2000
0000
0000
0000
0000
3000
0001
0000
0200
0000
0000
0000
0300
0000
0010
0000
,
2000
0000
3100
0001
0020
0000
0130
1000
,
0200
0000
0301
0010
2000
0000
3001
0100
,
0002
0000
0103
1000
0020
0000
1030
0100
,
0200
0000
0310
0001
2000
0000
3100
0000
,
0001
0000
1000
0100
0000
0001
1000
0000
,
0010
0000
0001
0000
0000
0010
0000
0000
0100
0000
0000
1000
0000
0000
1000
0000
,
2000
0000
3002
0000
,
0023
0000
2030
0000
,
3200
0000
0300
0000
0000
0000
0010
0000
0001
0000
0100
0100
0000
0000
0010
0100
,
1000
0000
0100
0000
0001
0010
0000
2000
0000
0000
0000
3000
1000
0100
0001
0020
,
0000
0000
0000
0000
0030
0000
0100
0000
0010
0000
0001
0001
0000
0000
0010
1000
,
0100
0000
0001
0000
0100
0010
0000
0200
0000
0000
0000
0000
0000
0000
0000
0000
,
0310
0002
2003
3200
0310
1000
0100
0000
,
0010
0000
0001
0000
0100
0000
0000
0000
0010
0000
0000
0010
0000
0000
1000
0000
,
0100
0000
0000
0100
0000
0000
0001
0000
1000
0000
0000
0010
0000
0000
0100
0000
,
0001
0000
0000
1000
0000
0000
0100
0000
0010
0000
0000
0000
0001
0000
0000
0000
,
1010
0100
1002
0103
,
0010
0000
0000
0000
1000
0000
0100
0000
1000
0000
0000
0001
0000
0000
0010
0000
,
0100
0000
0000
0010
0000
0000
0001
0000
1000
0000
0000
0100
0000
0000
0010
0000
,
0001
0000
0000
1000
0000
0000
0010
0000
1000
0000
0000
0000
0101
0000
0000
0000
,
0010
1001
1200
0310
,
1000
0000
0010
0001
1000
0000
0001
0100
,
0002
0000
0013
0100
2000
0000
3100
0010
,
0002
0103
0010
1100
,
0011
0000
0000
0000
0110
0000
0000
0000
1000
0000
0010
0000
0000
0010
0000
0000
,
0100
0000
0000
0000
0001
0000
1000
0000
0100
0000
0010
0000
0000
0010
0000
0000
,
0001
0000
0000
0000
0100
0000
0000
0000
0010
0000
0000
1000
0000
0000
0001
0000
,
0010
0000
0000
0100
0000
0000
1000
0000
1000
0000
0000
0000
0201
0000
0000
0000
,
0320
1030
0220
0330
;

//---------------dance-double - ----------------
#NOTEDATA:;
#CHARTNAME:;
#STEPSTYPE:dance-double;
#DESCRIPTION:;
#CHARTSTYLE:;
#DIFFICULTY:Easy;
#METER:5;
#RADARVALUES:0.217960,0.257465,0.115585,0.200347,0.000000,198.000000,183.000000,15.000000,26.000000,0.000000,0.000000,0.000000,0.000000,0.000000,0.217960,0.257465,0.115585,0.200347,0.000000,198.000000,183.000000,15.000000,26.000000,0.000000,0.000000,0.000000,0.000000,0.000000;
#CREDIT:;
#NOTES:
00000000
00000000
00000000
00000000
,
00000000
00000000
00000000
00000000
,
00000000
00000000
00000000
00000000
,
00000000
00000000
00000000
00000000
,
00000002
00000003
00000020
00000030
,
00002000
00003000
00000200
00000300
,
00020000
00030000
00200000
00300000
,
02000000
03000000
20000000
30000000
,
00100000
00010000
00001000
00000100
,
00001000
00000010
00000010
00000100
,
00000001
00000100
00001000
00010000
,
01000000
10000000
00100000
00000000
,
00010000
00001000
00000100
00001000
,
00001000
00000010
00000100
00000000
,
00000001
00000100
00001000
00010000
,
00100000
00010000
01000000
10000000
,
00200000
00300000
00010000
00001000
,
00000100
00000010
00000000
00000010
,
00001000
00000100
00000001
00000010
,
00000000
00000100
00001000
00020000
,
00100000
01030000
00000000
00010000
,
01000000
10000000
00000000
00100000
,
00010000
00001000
00000010
00000100
,
00000000
00000010
00000100
00000001
,
00000110
00001000
00000100
00010000
,
00100000
00100000
00010000
00000000
,
01000000
01000000
10000000
00100000
,
00000000
00010000
00001000
00000100
,
00000011
00000010
00000001
00000100
,
00000010
00000010
00001000
00000000
,
00010000
01000000
10000000
00100000
,
00020000
00030000
00002000
00003000
,
00001100
00000000
00001010
00000000
,
00000101
00000000
00000110
00000000
,
00001100
00000000
00011000
00000000
,
00110000
00000000
01010000
00000000
,
20000000
30000000
00020000
00030000
,
00100000
00010000
00001000
00000100
,
00000002
00000003
00000020
00000030
,
00002000
00003000
02000000
03000000
,
00200000
00000000
00310000
00000000
,
01000000
10000000
00100000
00000000
,
00020000
00000000
00030000
00000000
,
00001000
00000100
00000020
00020030
,
10030000
00100000
01100000
00010000
,
01000000
10000000
00100000
00100000
,
00010000
00001000
00000100
00000100
,
00000010
00000001
00000000
00000100
,
00001000
00010000
00110000
01000000
,
00100000
10000000
10000000
00100000
,
00010000
00000000
00001000
00000010
,
00000100
00000001
00000100
00000010
,
00001000
00000100
00001100
00010000
,
00001000
00100000
00100000
00010000
,
00200000
01000000
01300000
10000000
,
01000000
00010000
00000000
00100000
,
00010000
00000100
00001000
00001010
,
00000100
00000001
00000010
00000110
,
00001000
00000100
00010000
00010000
,
00100000
00010000
00001000
00000200
,
00002300
00013000
00200000
00300000
;

//---------------dance-double - ----------------
#NOTEDATA:;
#CHARTNAME:;
#STEPSTYPE:dance-double;
#DESCRIPTION:;
#CHARTSTYLE:;
#DIFFICULTY:Medium;
#METER:9;
#RADARVALUES:0.275202,0.304277,0.092468,0.154113,0.007706,250.000000,238.000000,12.000000,20.000000,0.000000,0.000000,0.000000,0.000000,0.000000,0.275202,0.304277,0.092468,0.154113,0.007706,250.000000,238.000000,12.000000,20.000000,0.000000,0.000000,0.000000,0.000000,0.000000;
#CREDIT:;
#NOTES:
00000000
00000000
00000000
00000000
,
00000000
00000000
00000000
00000000
,
00000000
00000000
00000000
00000000
,
00000000
00000000
00000000
00000000
,
00000001
00000100
00001000
00000000
,
00010000
00100000
01000000
00000000
,
10000000
01000000
00100000
00000000
,
00010000
00001000
00000100
00001000
,
00000010
00000010
00000100
00000001
,
00000100
00001000
00010000
00010000
,
00100000
00010000
01000000
01000000
,
10000000
00000000
00100000
00010000
00001000
00000000
00010000
00000000
,
00001000
00000100
00000010
00000010
,
00000001
00000100
00001000
00010000
,
00100000
00001000
00010000
01000000
,
10000000
00000000
00100000
00000000
00001000
00010000
00001000
00000000
,
00000200
00000000
00001300
00000000
00000010
00000000
00001000
00001000
,
00000100
00000000
00000010
00000010
00000000
00000000
00000100
00000000
,
00000001
00000100
00001000
00000010
,
00000001
00000000
00000100
00000000
00001000
00000000
00010000
00100000
,
02000000
00100000
13000000
01000000
,
10000000
00000000
00100000
00100000
00000000
00000000
00001000
00000000
,
00010000
00000000
00000100
00000000
00001000
00000010
00000000
00000200
,
00000000
00000300
00001000
00000000
00011000
00000000
00100000
00000000
,
00020000
00000000
01030000
00000000
00010000
00100000
00001000
00000000
,
00010000
00000000
00001000
00000100
00000010
00000000
00000100
00000000
,
00000001
00000000
00000001
00000010
00000100
00000000
00001000
00000000
,
00000100
00011000
00101000
00010000
,
00002000
00000000
00003100
00000000
00000010
00000000
00001000
00000010
,
00001000
00000001
00000100
00001000
,
00000100
00000000
00000100
00001000
00000010
00000000
00000100
00000001
,
00000010
00000000
00000000
00000100
00001000
00000000
00000000
00010000
,
00100000
00000000
00000000
01000000
10000000
00000000
00000000
00100000
,
00010000
00000000
00000000
00001000
00000100
00000000
00000000
00000010
,
00000001
00000000
00000000
00000100
00001000
00000000
00000000
00010000
,
01000000
00000000
00000000
00100000
10000000
00000000
00000000
01000000
,
00200000
00300000
00020000
00030000
,
00002000
00003000
00000200
00000300
,
00002000
00000000
00000000
00000000
02000000
00003000
00000000
00000000
,
03200000
00000000
00320000
00000000
,
02030000
03000000
00000000
00000000
00010000
00010000
00000000
00000000
,
00001000
00000000
00000100
00000000
00000001
00000010
00000000
00001000
00000000
00000000
00000000
00000000
00010000
00000000
02000000
00000000
,
00000000
00000000
00000000
03000000
10000000
10000000
00000000
00000000
,
00010000
00100000
01000000
00000000
02000000
00000000
00000000
00000000
,
03000000
00100000
01000000
00100000
00020000
00000000
00130000
00000000
,
00010000
00001000
00000100
00000000
00000010
00000000
00001010
00000000
,
00000001
00000100
00001000
00000000
00000100
00000000
00001000
00000000
,
00010000
00100000
01000000
00101000
,
00010100
00001000
00002000
00003010
,
00000100
00000000
00000010
00000001
00001000
00000000
00000100
00000000
,
00000001
00000000
00000010
00000000
00000100
00000000
00000100
00001000
,
00010000
00000000
00100000
01000000
10000000
00000000
10010000
00000000
,
00110000
00001000
00020000
00031000
,
00000100
00000000
00001000
00000010
00000001
00000000
00000100
00001000
,
00000010
00000000
00000100
00000000
00001000
00000000
00010000
01000000
,
10000000
00100000
00010000
00011000
,
00010100
00000000
00001000
00000000
00000010
00000000
00000100
00000001
,
00001000
00000000
00000010
00000000
00000100
00000000
00001000
00000001
,
00000010
00000000
00000100
00000000
00001000
00000000
00010000
01000000
,
00100000
10000000
01000000
01100000
,
00110000
01000000
00200000
00300000
;

//---------------dance-double - ----------------
#NOTEDATA:;
#CHARTNAME:;
#STEPSTYPE:dance-double;
#DESCRIPTION:;
#CHARTSTYLE:;
#DIFFICULTY:Hard;
#METER:12;
#RADARVALUES:0.357762,0.491524,0.231169,0.300520,0.150260,325.000000,295.000000,30.000000,39.000000,0.000000,0.000000,0.000000,0.000000,0.000000,0.357762,0.491524,0.231169,0.300520,0.150260,325.000000,295.000000,30.000000,39.000000,0.000000,0.000000,0.000000,0.000000,0.000000;
#CREDIT:;
#NOTES:
// measure 0
00000000
00000000
00000000
00000000
,  // measure 1
00000000
00000000
00000000
00000000
,  // measure 2
00000000
00000000
00000000
00000000
,  // measure 3
00000000
00000000
00000000
00000000
,  // measure 4
00001000
00010000
00100000
00000000
00010000
01000000
10000000
00000000
,  // measure 5
00100000
00010000
00001000
00000000
00000100
00001000
00000010
00000000
,  // measure 6
00000010
00000010
00000100
00000000
00001000
00000100
00001000
00000000
,  // measure 7
00010000
00100000
01000000
00000000
10000000
10000000
00100000
00000000
,  // measure 8
10000000
00000000
00100000
00000000
00000000
00010000
00000000
00000000
00001000
00000000
00000000
00000000
00010000
00000000
00001000
00000000
,  // measure 9
00000100
00000000
00001000
00000000
00000000
00000010
00000000
00000000
00000100
00000000
00000000
00000000
00000001
00000000
00000010
00000000
,  // measure 10
00000100
00000000
00001000
00000000
00000000
00000100
00000000
00000000
00010000
00000000
00000000
00001000
00000000
00000000
00010000
00000000
,  // measure 11
00000000
00000000
00100000
00000000
00000000
00010000
00000000
00000000
20000000
00000000
00000000
00000000
30010000
00000000
00000000
00000000
,  // measure 12
00100000
00010000
00001000
00000000
00000100
00000000
00000010
00000000
,  // measure 13
00001000
00000100
00000001
00000000
00000010
00000000
00000100
00000000
,  // measure 14
00000001
00001000
00000100
00000000
00010000
00000000
00001000
00000000
,  // measure 15
00100000
00010000
02000000
03020000
,  // measure 16
00032000
00000000
00013000
00000000
00100000
00000000
00010000
00001000
,  // measure 17
00000100
00000000
00000000
00000000
00010000
00000000
00020000
00000000
00000000
00030000
00000000
00000000
00001000
00000000
00000100
00000000
,  // measure 18
00001000
00000000
00000010
00000000
00000100
00000001
00000010
00001000
,  // measure 19
00000000
00000000
00000100
00000000
00010000
01000000
10000000
00100000
,  // measure 20
00200000
00000000
00010000
00000000
00310000
00000000
00001000
00010000
,  // measure 21
00100000
00000000
00000000
00000000
00001000
00000000
00002000
00000000
00000000
00003000
00000000
00000000
00000100
00000000
00000010
00000000
,  // measure 22
00001000
00000000
00000001
00000000
00000100
00000010
00000000
00000200
,  // measure 23
00000000
00000300
00001100
00000000
00011000
00000000
00110000
00000000
,  // measure 24
20010000
00000000
30100000
00000000
00010000
00100000
00010000
00000000
,  // measure 25
00001000
00000000
00000000
00000100
00000000
00000000
00000100
00000000
00001000
00000000
00000000
00000010
00000000
00000000
00000001
00000000
,  // measure 26
00000100
00000000
00000000
00000100
00000000
00000000
00001000
00000000
00010000
00000000
00000000
00010000
00000000
00000000
00100000
00000000
,  // measure 27
10000000
00110000
00011000
00001100
,  // measure 28
00002010
00000000
00003100
00000000
00000010
00000000
00000100
00000001
,  // measure 29
00000010
00000000
00000000
00000100
00000000
00000000
00001000
00000000
00001000
00000000
00000000
00000100
00000000
00000000
00000000
00000000
,  // measure 30
00010000
00000000
00000000
00010000
00000000
00000000
00100000
00000000
00010000
00000000
00000000
01000000
00000000
00000000
10000000
00000000
,  // measure 31
00200000
00000000
00300000
00010000
00002000
00000000
00003000
00000100
,  // measure 32
00000020
00000000
00000030
00000001
00000200
00000000
00000300
00000010
,  // measure 33
00002000
00000000
00003000
00000100
00020000
00000000
00030000
00100000
,  // measure 34
02000000
00000000
03000000
10000000
00200000
00000000
00300000
00001000
,  // measure 35
00000200
00000000
00000300
00000010
00000020
00000000
00000030
00000001
,  // measure 36
00000010
00000000
00000000
00000100
00000000
00000000
00001000
00000000
00000000
00000000
00010000
00000000
01000000
00000000
00000000
00000000
,  // measure 37
00000000
00000000
00100000
00000000
00000000
00010000
00000000
00000000
00001000
00000000
00000000
00000100
00000000
00000000
00000001
00000000
,  // measure 38
00000200
00000000
00000300
00001000
00200000
00000000
00300000
10000000
,  // measure 39
02000000
00000000
03000000
00010000
00002000
00000000
00003000
00000100
,  // measure 40
00022000
00000000
00033000
00000000
00000000
00000000
00100000
00000000
00010000
00000000
00001000
00001000
00000000
00000000
00001000
00000100
,  // measure 41
00000001
00000000
00000001
00000000
00000010
00001000
00000000
00000100
00000000
00000000
00000000
00000000
00010000
01000000
10000000
00200000
,  // measure 42
00000000
00000000
00000000
00000000
00000000
00000000
00310000
00000000
00001000
00000000
00001000
00001000
00000000
00000000
00001000
00000100
,  // measure 43
00000010
00000000
00000001
00000000
00000100
00001000
00000000
00020000
00000000
00000000
02030000
00000000
03020000
00000000
20030000
00000000
,  // measure 44
30100000
10010000
00110000
01100000
00100000
00010000
00001000
00000000
,  // measure 45
00001000
00000000
00000100
00000000
00000010
00000000
00000000
00000000
00001010
00000000
00000000
00000010
00000000
00000000
00001000
00000000
,  // measure 46
00000100
00000000
00000000
00000010
00000000
00000000
00000000
00000000
00000001
00000000
00000000
00000100
00000000
00000000
00001000
00000000
,  // measure 47
00100000
00000000
00000000
01000000
00000000
00000000
01000000
00000000
10000000
00000000
00000000
00000000
10010000
00000000
00000000
00000000
,  // measure 48
00110000
00011000
00000120
00000130
,  // measure 49
00001000
00000000
00000000
00000000
00000100
00000000
00001000
00000000
00010000
00000000
00000000
00100000
00000000
00000000
00010000
00000000
,  // measure 50
10000000
00000000
00000000
01000000
00000000
00000000
00010000
00000000
00001000
00000000
00000000
00000100
00000000
00000000
00001000
00000000
,  // measure 51
00000010
00000000
00000000
00000100
00000000
00000000
00000001
00000000
00000100
00000000
00000000
00000000
00001010
00000000
00000000
00000000
,  // measure 52
00001100
00011000
02010000
03010000
,  // measure 53
00100000
00000000
00000000
00000000
10000000
00000000
01000000
00000000
00100000
00000000
00000000
00100000
00000000
00000000
00001000
00000000
,  // measure 54
00020000
00000000
00001000
00000000
00032000
00000000
00003100
00000001
,  // measure 55
00000020
00000031
00000100
00101000
,  // measure 56
00011000
00000000
00000000
00000000
01100000
00000000
00000000
00000000
00210000
00000000
00010000
00000000
00300000
00010000
00000000
00000000
,  // measure 57
00001000
00000000
00000000
00000000
00001100
00000000
00000000
00000000
00000100
00000000
00001000
00000000
00000000
00001000
00000000
00000000
,  // measure 58
00000010
00000000
00000000
00000000
00000100
00000000
00000000
00000000
00000010
00000000
00000000
00000001
00000000
00000000
00000010
00000000
,  // measure 59
00000100
00000000
00000000
00001000
00000000
00000000
00000100
00000000
00000100
00000000
00000000
00000000
00001100
00000000
00000000
00000000
,  // measure 60
00011000
00110000
02200000
03300000
;
