#TITLE:How You Like That;
#SUBTITLE:;
#ARTIST:BLACKPINK;
#TITLETRANSLIT:How You Like That;
#SUBTITLETRANSLIT:;
#ARTISTTRANSLIT:BLACKPINK;
#GENRE:K-POP;
#CREDIT:SAIKIO;
#BANNER:How You Like That-banner.png;
#BACKGROUND:bg.png;
#LYRICSPATH:;
#CDTITLE:Saikio Simfiles.png;
#MUSIC:How You Like That.ogg;
#OFFSET:-0.205000;
#SAMPLESTART:39.744053;
#SAMPLELENGTH:15.600063;
#SELECTABLE:YES;
#BPMS:0.000000=130.009995
;
#STOPS:125.000000=0.231000,
128.500000=0.231000
;
#BGCHANGES:-1.000=How You Like That.avi=1.000=0=0=0=StretchNoLoop====,
99999=-nosongbg-=1.000=0=0=0 // don't automatically add -songbackground-
;
#KEYSOUNDS:;
#ATTACKS:;

//---------------dance-single - ----------------
#NOTES:
     dance-single:
     :
     Beginner:
     3:
     0.131448,0.184134,0.017040,0.025559,0.000000,108.000000,106.000000,2.000000,3.000000,0.000000,0.000000,0.131448,0.184134,0.017040,0.025559,0.000000,108.000000,106.000000,2.000000,3.000000,0.000000,0.000000:
0000
0000
0000
0000
,
0000
0000
0000
0000
,
0000
0000
0000
0000
,
0000
0000
0000
0000
,
0000
0200
0000
0000
,
0000
0300
0000
0000
,
0000
1000
0000
0000
,
0000
1000
0000
0000
,
0000
1000
0000
1000
,
0000
1000
0000
0000
,
0000
0001
0000
0000
,
0000
0001
0000
0000
,
0000
0001
0000
0001
,
0000
0001
0000
0000
,
0000
0010
0000
0000
,
0000
0010
0000
0000
,
0000
0100
0000
0000
,
0000
0100
0000
0000
,
0000
1000
0000
0000
,
0000
1000
0000
0000
,
0000
0010
0000
0010
,
0000
0100
0000
0000
,
0000
1001
0000
1000
,
0000
0001
0000
1000
,
0000
1000
0000
0100
,
0000
0010
0010
0010
,
0000
0110
0000
0100
,
0000
0100
0000
0010
,
0000
0001
0000
0001
,
0000
0100
0100
0100
,
0000
0000
0000
1000
,
0100
0000
0000
0000
0000
0001
0000
0010
,
0000
0000
1000
0001
,
0000
0010
0010
0000
,
0000
0001
1000
0000
,
0000
0100
0001
0000
,
0000
0010
1000
0000
,
0000
0010
0010
0000
,
0200
0000
0000
0000
,
0300
0000
0010
0000
,
0020
0000
0000
0000
,
0030
0000
0100
0000
,
0001
0000
0001
0000
,
0100
0000
0100
0000
,
1000
0000
1000
0000
,
0010
0000
0010
0000
,
0100
0100
0100
0000
,
0001
0000
0100
0000
,
0010
0010
0010
0000
,
1000
0000
0001
0000
,
1000
1000
1000
0000
,
0010
0000
1000
0000
,
0001
0001
0001
0000
,
0010
0000
0000
0000
,
1000
0100
0010
0000
,
0010
0000
0100
0000
,
0001
0010
0100
0000
,
0001
0000
1000
0000
,
1000
0001
0100
0000
,
0010
0000
0100
0000
,
0001
1000
0100
0000
,
0001
0000
0010
0010
;

//---------------dance-single - ----------------
#NOTES:
     dance-single:
     :
     Easy:
     6:
     0.233685,0.369758,0.204475,0.076678,0.000000,192.000000,168.000000,24.000000,9.000000,0.000000,0.000000,0.233685,0.369758,0.204475,0.076678,0.000000,192.000000,168.000000,24.000000,9.000000,0.000000,0.000000:
0000
0000
0000
0000
,
0000
0000
0000
0000
,
0000
0000
0000
0000
,
0000
0000
0000
0000
,
0000
0020
0000
0000
,
0000
0030
0000
0000
,
0000
0010
0000
0010
,
0000
0100
0000
0100
,
0000
0001
0010
0100
,
0000
1000
0000
0010
,
0000
0100
0000
0100
,
0000
0010
0000
0010
,
0000
1000
0100
0010
,
0000
0010
0000
0001
,
0000
0100
0000
1000
,
0000
0100
0000
0010
,
0000
0100
0000
0001
,
0000
0100
0000
1000
,
0000
0010
0000
1000
,
0000
0001
0000
0100
,
0000
0010
0010
0010
,
0000
0000
0200
0000
0000
0000
0000
0300
,
0000
0110
0000
1000
,
0100
0001
0000
0010
,
0001
1001
1000
1000
,
0001
0010
0010
0100
,
0010
0110
0000
0010
,
0001
0100
0000
0001
,
0100
1001
0001
0001
,
1000
0010
0010
1000
,
0200
0300
0000
0000
0010
0000
1000
0000
,
0100
0000
0010
0010
0000
0001
0000
0010
,
0000
0100
0100
0000
1000
0000
0100
0000
,
0010
0000
0001
0000
1001
0000
0020
0030
,
0000
0100
0001
1000
,
0000
0010
1000
0001
,
0000
0100
0001
1000
,
0010
0001
0110
0000
,
0200
0000
0000
0300
,
0010
0000
0010
0000
,
0002
0000
0000
0003
,
1000
0000
1000
0000
,
0001
0000
0001
0000
,
1000
0000
1000
0000
,
0010
0001
0100
0000
,
0002
0003
2000
3000
,
0010
0001
0100
0100
,
0010
1000
0100
1100
,
1100
0001
0100
1000
,
0001
0010
0001
0011
,
0100
1000
0001
0100
,
0100
0010
1000
1010
,
1010
0001
0100
1000
,
0010
0000
0010
0000
0000
0010
0010
0000
,
1001
1100
1001
0001
,
0100
0100
0010
0001
,
1001
0011
1001
0010
,
0100
1000
0100
1000
,
1010
1001
1100
0010
,
0110
0001
0100
0001
,
0101
1001
0101
0010
,
0100
1000
0000
0200
,
0300
0000
0000
0000
;

//---------------dance-single - ----------------
#NOTES:
     dance-single:
     :
     Medium:
     10:
     0.306712,0.395371,0.051119,0.085198,0.000000,252.000000,246.000000,6.000000,10.000000,0.000000,0.000000,0.306712,0.395371,0.051119,0.085198,0.000000,252.000000,246.000000,6.000000,10.000000,0.000000,0.000000:
0000
0000
0000
0000
,
0000
0000
0000
0000
,
0000
0000
0000
0000
,
0000
0000
0000
0000
,
0000
0020
0000
0000
,
0000
0030
0000
0000
,
0000
1000
1000
0000
,
0100
0001
0010
0000
,
0100
0002
0003
2000
,
3000
0001
0100
0000
,
0100
1000
0100
0000
,
0010
0001
0010
0000
,
0010
0002
0003
2000
,
3000
0001
0000
0100
,
0000
0010
1000
0100
,
0000
0001
0100
0001
,
0000
0010
1000
0100
,
0000
1000
0001
0100
,
0000
0010
0010
0100
,
0001
0100
0001
0000
,
1000
0100
0100
1000
,
0000
0020
1030
0010
,
0000
0000
0110
0000
0001
0100
0010
0000
,
1000
0000
0100
0100
0100
0000
1000
0000
,
0010
0000
1001
0000
1000
0001
1000
0000
,
0001
0000
0100
0010
0100
0000
0001
0000
,
0100
0000
0110
0000
0001
0000
0010
0010
,
0010
1000
0100
0000
0000
0000
0100
0000
,
0010
0000
0001
0000
0001
0100
1000
0000
,
0100
0000
1000
0010
0001
0000
0010
0000
,
0200
0300
0010
0000
0001
0010
0100
0000
,
0001
0000
0101
0010
0000
1000
0100
0010
,
0000
1100
0001
0000
0010
0001
0100
0000
,
0010
0010
0010
0000
0100
0000
0001
0000
,
1000
0000
1000
0100
0001
0000
0010
0000
,
0000
0000
0001
0010
1000
0000
0100
0000
,
0000
0000
0001
1000
0010
0000
0100
0000
,
0010
0010
0200
0000
,
0310
0000
0010
0000
,
1000
0000
0100
0000
1000
0100
0000
0000
,
0010
0000
0010
0000
,
0001
0000
0001
0000
,
0100
0000
0001
0100
0001
0000
0010
0000
,
0010
0000
1000
0010
1000
0000
0100
0000
,
1000
0100
0100
0010
,
0002
0003
2000
3000
,
0010
0000
0010
1000
0100
0000
0010
0001
,
0100
0000
0010
1000
0100
0100
1000
1000
,
0010
0000
0100
0010
0001
0000
0010
0100
,
1000
0100
1001
0001
,
0010
0000
1000
0010
0001
0000
0001
0010
,
1000
0000
1000
0100
0010
0001
0001
0100
,
0100
0000
0010
1000
0100
0000
0010
0001
,
0100
0000
0001
0100
0000
0010
0010
0000
,
0001
0010
0001
0010
1000
0000
1000
0100
,
0010
0100
0100
0000
1000
0001
1000
0000
,
0010
1000
0100
1000
0100
0000
0010
0100
,
0001
0000
1000
1000
0100
0000
0001
0000
,
1000
0010
0001
0010
0001
0000
0100
1000
,
0010
1000
0001
0000
0100
0100
0010
0000
,
0001
1000
0001
0010
0100
0000
1000
0100
,
0010
0000
0001
0001
0000
0010
0010
0100
;

//---------------dance-single - ----------------
#NOTES:
     dance-single:
     :
     Hard:
     12:
     0.430857,0.527516,0.127797,0.085198,0.195955,354.000000,339.000000,15.000000,10.000000,0.000000,0.000000,0.430857,0.527516,0.127797,0.085198,0.195955,354.000000,339.000000,15.000000,10.000000,0.000000,0.000000:
0000
0000
0000
0000
,
0000
0000
0000
0000
,
0000
0000
0000
0000
,
0000
0000
0000
0000
,
0000
0020
0000
0000
,
0000
0030
0000
0000
,
0000
0000
1000
0100
0010
0001
0000
0000
,
0010
0000
0001
0010
0100
0001
0000
0000
,
1000
0010
0100
0000
0100
0010
0001
0000
,
0100
0010
1000
0001
,
0100
0010
1000
0100
0001
0010
0000
0000
,
0001
0000
0100
0010
1000
0100
0000
0000
,
0001
0000
0010
0000
0010
1000
0001
0000
,
1000
2000
3000
0010
,
1000
0000
0000
0000
0001
0000
0000
0010
0000
0000
0100
0000
1000
0000
0000
0100
,
0000
0000
0010
0000
0001
0000
0000
1000
0000
0000
0010
0000
1000
0000
0000
0000
,
0000
0000
0100
0000
0001
0000
0000
0010
0000
0000
0001
0000
0010
0000
0000
0100
,
0000
0000
0010
0000
0001
0000
0000
0010
0000
0000
0100
0000
2000
0000
0000
0000
,
3100
0000
0000
0000
0010
0000
0000
0010
0000
0000
1000
0000
0100
0000
0000
0100
,
0000
0000
0001
0000
0010
0000
0000
0010
0000
0000
0100
0000
0001
0000
0000
0000
,
0100
0010
0000
0000
1000
0100
0000
0000
0010
0001
0000
0000
0100
0000
0000
0000
,
0010
0000
0002
0010
0100
1000
0103
0000
,
0000
0000
0110
0000
0001
0100
0010
0000
,
1000
0000
0000
0000
0100
0000
0010
0000
0100
0000
0000
0000
0010
0001
0000
0000
,
0100
0000
2000
0000
3010
0001
0002
0000
,
0013
0000
0100
0010
0100
0000
0010
1000
,
0100
0000
0000
0000
0110
0000
0000
0000
1000
0000
0100
0010
0100
0000
0010
0100
,
0001
1000
0010
0000
0100
0000
0001
0010
,
0100
0000
0110
0000
0001
0010
2000
0000
,
3100
0000
0001
0100
0010
0000
1001
0000
,
0010
0000
0000
0000
0100
0000
0000
0000
0001
0100
0001
0000
1000
0000
0100
0000
,
0010
0000
0000
0000
0110
0000
1000
0100
1000
0000
0001
0000
0010
0000
0100
0000
,
0000
0000
0110
0000
0001
0010
0001
0000
1000
0000
0100
0000
0010
0000
0000
0000
,
0001
0100
0010
0000
1001
0000
0010
0000
,
0100
0000
0000
0000
0010
1000
0010
0000
0001
0000
0100
0000
0010
0000
0000
0000
,
0011
0000
0000
0000
0001
0100
0001
0000
0010
0000
1000
0000
0100
0000
0000
0000
,
1010
0000
0000
0000
1000
0100
1000
0000
0010
0000
0100
0000
0001
0000
0000
0000
,
0010
0010
1000
0000
0200
0000
0000
0000
,
0310
0000
1000
0000
,
0010
0000
0100
0000
0001
0100
0000
0010
,
0000
0000
0010
0001
0100
0000
0100
0000
,
1000
0000
0100
0000
0010
0100
0000
0001
,
0110
1000
1010
0010
,
0011
0001
1001
1000
,
0100
1000
0100
0010
0001
0000
0010
0100
,
2000
0000
3100
0010
0002
0000
0003
0000
,
0010
0000
0000
0010
1000
0000
0100
0000
0001
0000
0000
0001
0100
0000
0010
0000
,
0001
0000
0000
1000
0001
0000
0010
0000
0100
0000
1000
0000
1000
0000
1000
0000
,
0100
0000
0000
0001
0100
0000
0010
0000
1000
0000
0000
0010
1000
0000
0100
0000
,
0010
0000
0000
0001
0100
0000
0010
0000
1010
0000
0000
0000
1100
0000
0000
0000
,
0010
0000
0000
0010
0001
0000
0100
0000
1000
0000
0000
1000
0100
0000
0010
0000
,
0001
0000
0000
0010
1000
0000
0001
0000
0100
0000
0001
0000
0001
0000
0001
0000
,
0010
0000
0000
0010
1000
0000
0001
0000
0100
0000
0000
1000
0010
0000
1000
0000
,
0001
0000
0000
0010
0100
0000
0001
0000
0000
0000
0010
0000
0010
0000
0000
0000
,
0001
0000
0010
0000
0001
0000
1000
0010
1000
0000
0000
0000
0001
0000
1000
0000
,
0100
0000
0010
0100
0001
0000
0000
0000
0010
0000
0100
0000
0001
0000
0100
0000
,
0010
0010
0001
1000
1000
0000
0010
0001
,
0010
0000
0000
0010
0100
0001
0100
0000
0010
0000
0000
0010
1000
0000
0000
0000
,
0100
0000
0010
0000
0001
0000
0100
0010
0100
0000
0000
0000
0001
0000
1000
0000
,
0100
0000
0001
0010
0001
0000
0000
0000
1000
0100
0000
0000
0010
0000
0000
0000
,
1000
0000
0100
0000
1000
0000
0010
1000
0010
0000
0000
0000
0100
0000
0001
0000
,
0010
0000
0000
0000
0000
0000
0000
0000
0000
0001
0000
0000
0100
0000
0000
0001
0000
0000
0100
0000
0000
0000
0000
0000
0000
0000
0000
0000
0000
0000
0000
0000
0000
0000
0000
0000
0010
0000
0000
0000
0100
0000
0000
0000
0010
0000
0000
0000
;

//---------------dance-double - ----------------
#NOTES:
     dance-double:
     :
     Easy:
     6:
     0.233685,0.289939,0.136316,0.051119,0.000000,192.000000,176.000000,16.000000,6.000000,0.000000,0.000000,0.233685,0.289939,0.136316,0.051119,0.000000,192.000000,176.000000,16.000000,6.000000,0.000000,0.000000:
00000000
00000000
00000000
00000000
,
00000000
00000000
00000000
00000000
,
00000000
00000000
00000000
00000000
,
00000000
00000000
00000000
00000000
,
00000000
02000000
00000000
00000000
,
00000000
03000000
00000000
00000000
,
00000000
00000100
00001000
00000000
,
00000000
00010000
00100000
00000000
,
00000000
00100000
01000000
10000000
,
01000000
00010000
00000000
00000000
,
00001000
00000100
00000000
00000000
,
00000010
00000001
00000000
00000000
,
00001000
00010000
00100000
01000000
,
10000000
00200000
00300000
00000000
,
00000000
00010000
00001000
00000100
,
00000000
00100000
00010000
01000000
,
00000000
00010000
10000000
00100000
,
00000000
00010000
00001000
00000100
,
00000000
00000010
00000001
00000100
,
00000000
00001000
00010000
00001000
,
00000000
00010000
00100000
00010000
,
00000000
00000200
00000000
00000300
,
00000000
00011000
00000000
00010000
,
00100000
00010000
01000000
10000000
,
00010000
00110000
00001000
00010000
,
00000100
00001000
00000100
00000100
,
00000000
00001010
00000000
00000100
,
00000010
00000010
00000010
00000000
00000000
00000000
00000001
00000000
,
00000100
00001000
00010000
00100000
,
10000000
00010000
01000000
01010000
,
00100000
00000000
00010000
00001000
,
00010000
00000000
00110000
00000000
00000000
00010000
00000000
00001000
,
00000000
00011000
00000000
00000000
00000100
00000000
00001000
00000000
,
00000010
00000001
00000100
00000010
,
00000000
00000010
00001000
00010000
,
00011000
00010000
01000000
00100000
,
01100000
10000000
01000000
00010000
,
00001000
00000100
00002000
00000000
,
00003000
00000000
00000000
00000000
,
00010000
00000000
01000000
00000000
,
00001000
00000000
00000100
00000000
,
00000010
00000000
00000001
00000000
,
00001001
00000000
00000100
00000000
,
00011000
00000000
00100000
00000000
,
00010000
01000000
10000000
00000000
,
20000000
30000000
00020000
00030000
,
00001000
00010000
00000100
00001000
,
00000010
00000100
00000001
00000110
,
00000010
00000100
00001000
00000100
,
00010000
00100000
00101000
00000000
,
00100000
00010000
01000000
10000000
,
00010000
00001000
00000100
00001001
,
00000100
00001000
00001000
00000010
,
00000100
00000000
00000001
00000000
00000000
00000010
00000010
00000000
,
00001000
00100000
10000000
00100000
,
00010000
01000000
00010000
00100000
,
00011000
00000100
00000001
00000100
,
00001000
00000010
00001000
00010000
,
00101000
00100000
00010000
01000000
,
10000000
00100000
00010000
00001000
,
00010100
00001000
00000010
00000100
,
00000001
00000000
00001000
00000000
00000000
00000000
01000000
01000000
;

//---------------dance-double - ----------------
#NOTES:
     dance-double:
     :
     Medium:
     10:
     0.314015,0.369758,0.076678,0.068158,0.000000,258.000000,249.000000,9.000000,8.000000,0.000000,0.000000,0.314015,0.369758,0.076678,0.068158,0.000000,258.000000,249.000000,9.000000,8.000000,0.000000,0.000000:
00000000
00000000
00000000
00000000
,
00000000
00000000
00000000
00000000
,
00000000
00000000
00000000
00000000
,
00000000
00000000
00000000
00000000
,
00000000
00000200
00000000
00000000
,
00000000
00000300
00000000
00000000
,
00000000
00000000
00001000
00000000
00010000
00001000
00000000
00000000
,
00000000
00000000
00100000
00000000
00001000
00010000
00000000
00000000
,
00000000
00010000
00001000
00000100
,
00000010
00000002
00000003
00000000
,
00000001
00000000
00000100
00000000
00001000
00000100
00000000
00000000
,
00010000
00000000
00001000
00000000
00100000
00010000
00000000
00000000
,
00000000
00010000
00100000
10000000
,
01000000
00200000
00300000
00000000
,
00010000
00100000
00010000
00001000
,
00000100
00001000
00000010
00000100
,
00000000
00000001
00000100
00001000
,
00010000
00100000
00010000
01000000
,
00000000
10000000
00010000
00100000
,
00010000
00001000
00010000
00000100
,
00000000
00001000
00010000
00001000
,
00001000
00000000
00010000
00001000
00010000
00000000
00002000
00000000
,
00000000
00003000
00011000
00000000
00000000
00100000
00010000
00000000
,
01000000
00000000
10000000
00000000
00010000
00000000
00100000
00010000
,
00001000
00000000
00010000
00000000
00010000
00001000
00000100
00000000
,
00001000
00000000
00000010
00000010
00000100
00000000
00000010
00000000
,
00000001
00000000
00000011
00000000
00000000
00000010
00000010
00001000
,
00000100
00000010
00000100
00000000
00001000
00000000
00010000
00001000
,
00010000
00000000
00011000
00000000
00001000
00010000
00001000
00000000
,
00000100
00000000
00001000
00010000
01000000
00000000
00100000
00000000
,
01000000
00000000
00010000
00100000
,
00010000
00000000
01010000
00001000
00000000
00000010
00000000
00001000
,
00000000
00001100
00010000
00000000
00001000
00000000
00100000
00000000
,
01000000
01000000
00010000
00000000
01000000
00000000
00010000
00000000
,
00001000
00000000
00001000
00000100
00000010
00000000
00000001
00000000
,
00000011
00000000
00000010
00000100
00001000
00000000
00000100
00000000
,
00001100
00000000
00001000
00010000
01000000
00000000
00010000
00000000
,
00100000
10000000
02000000
00000000
,
03010000
00000000
00001000
00000000
,
00000100
00000000
00000000
00000000
00000010
00000001
00000000
00000000
,
00000100
00000000
00000010
00000000
,
00001000
00000000
00000000
00000000
00010000
00001000
00000000
00000000
,
00100000
00000000
10010000
00000000
,
00010000
00000000
00001001
00000000
,
00001000
00000000
00000100
00001000
00000100
00000000
00000000
00000000
,
00002000
00003000
00020000
00030000
,
00001000
00000000
00001000
00010000
00100000
00000000
00010000
00001000
,
00000100
00000000
00001000
00000010
00000100
00000001
00000001
00000100
,
00000100
00000000
00000010
00000001
00000100
00000000
00000010
00001000
,
00000100
00000000
00000100
00010000
00002000
00000000
00013000
00000000
,
00100000
00000000
00010000
00100000
10000000
00000000
01000000
00010000
,
00001000
00000000
00010000
00001000
00010000
00001000
00001000
00000100
,
00000100
00000000
00000010
00000100
00000001
00000000
00000010
00000100
,
00001000
00000000
00000001
00000000
00000000
00000010
00000010
00000000
,
00000010
00001000
00010000
00001000
00010000
00000000
00100000
00010000
,
10000000
00010000
01000000
00000000
00100000
00010000
00001000
00000000
,
00100000
00010000
00001000
00010000
00001000
00000000
00000100
00001000
,
00000010
00000010
00000100
00000000
00000001
00000100
00001000
00000000
,
00000010
00001000
00000010
00001000
00000100
00000000
00010000
00100000
,
00010000
01000000
10000000
00000000
01000000
00100000
01000000
00000000
,
00010000
00001000
00010000
00000100
00001000
00000000
00001000
00000010
,
00000100
00000001
00000010
00000000
00001000
00000000
00010000
00010000
,
00001000
00000000
00000000
00000000
;

//---------------dance-double - ----------------
#NOTES:
     dance-double:
     :
     Hard:
     13:
     0.410166,0.527516,0.178915,0.076678,0.166136,337.000000,316.000000,21.000000,9.000000,0.000000,0.000000,0.410166,0.527516,0.178915,0.076678,0.166136,337.000000,316.000000,21.000000,9.000000,0.000000,0.000000:
// measure 0
00000000
00000000
00000000
00000000
,  // measure 1
00000000
00000000
00000000
00000000
,  // measure 2
00000000
00000000
00000000
00000000
,  // measure 3
00000000
00000000
00000000
00000000
,  // measure 4
00000000
02000000
00000000
00000000
,  // measure 5
00000000
03000000
00000000
00000000
,  // measure 6
00000000
00000000
00100000
00010000
00001000
00000100
00000000
00000000
,  // measure 7
00000010
00000000
00000100
00001000
00010000
00100000
00000000
00000000
,  // measure 8
00010000
00000000
00100000
00000000
00100000
00010000
01000000
00000000
,  // measure 9
00100000
00020000
00030000
01000000
,  // measure 10
00100000
00000000
00010000
00001000
00000100
00010000
00000000
00000000
,  // measure 11
00000100
00000000
00001000
00010000
00100000
00001000
00000000
00000000
,  // measure 12
00010000
00000000
00100000
00000000
00010000
01000000
10000000
00000000
,  // measure 13
01000000
00200000
00300000
00010000
,  // measure 14
01000000
00000000
00000000
00000000
00001000
00000000
00000000
00010000
00000000
00000000
00000100
00000000
00000010
00000000
00000000
00000001
,  // measure 15
00000000
00000000
00001000
00000000
00000100
00000000
00000000
00000001
00000000
00000000
00000100
00000000
00010000
00000000
00000000
00000000
,  // measure 16
00000000
00000000
00010000
00000000
00001000
00000000
00000000
00010000
00000000
00000000
00100000
00000000
01000000
00000000
00000000
10000000
,  // measure 17
00000000
00000000
00010000
00000000
10000000
00000000
00000000
01000000
00000000
00000000
00100000
00000000
00020000
00000000
00000000
00000000
,  // measure 18
00030000
00000000
00000000
00000000
00001000
00000000
00000000
00000010
00000000
00000000
00000100
00000000
00000010
00000000
00000000
00000001
,  // measure 19
00000000
00000000
00000010
00000000
00000100
00000000
00000000
00000001
00000000
00000000
00001000
00000000
00000010
00000000
00000000
00000000
,  // measure 20
00000100
00000000
00000000
00000000
00001000
00010000
00000000
00000000
00100000
00000000
00000000
00000000
01000000
00000000
00000000
00000000
,  // measure 21
10000000
00200000
00320000
00031000
,  // measure 22
00000000
00000000
00011000
00000000
00000000
00000100
00001000
00000000
,  // measure 23
00010000
00000000
00000000
00000000
00001000
00000000
00000100
00000000
00000010
00000000
00000000
00000000
00000001
00000010
00000000
00000000
,  // measure 24
00000100
00000000
00000110
00000000
00000010
00000100
00000010
00000000
,  // measure 25
00000100
00000000
00001000
00000100
00010000
00000000
00001000
00010000
,  // measure 26
00100000
00000000
00000000
00000000
00110000
00000000
00000000
00000000
01000000
00000000
00100000
01000000
00100000
00000000
00010000
00100000
,  // measure 27
00001000
00010000
00001000
00000000
00001000
00000000
00010000
00001000
,  // measure 28
00000100
00000000
00001010
00000000
00000010
00000100
00001000
00000000
,  // measure 29
00010000
00000000
00010000
01000000
10000000
00000000
00100000
00000000
,  // measure 30
00110000
00000000
00000000
00000000
00010000
00000000
00000000
00000000
00010000
00001000
00010000
00000000
00000100
00000000
00010000
00000000
,  // measure 31
00001000
00000000
00000000
00000000
00010100
00000000
00000010
00001000
00000010
00000000
00000100
00000000
00001000
00000000
00000100
00000000
,  // measure 32
00000000
00000000
00011000
00000000
00010000
01000000
00010000
00000000
01000000
00000000
00100000
00000000
00010000
00000000
00000000
00000000
,  // measure 33
01000000
10000000
01000000
00000000
01100000
00000000
00010000
00000000
,  // measure 34
00001000
00000000
00000000
00000000
00010000
00001000
00010000
00000000
00000100
00000000
00010000
00000000
00001000
00000000
00000000
00000000
,  // measure 35
00001100
00000000
00000000
00000000
00010000
01000000
00010000
00000000
00100000
00000000
00010000
00000000
00001000
00000000
00000000
00000000
,  // measure 36
00110000
00000000
00000000
00000000
00001000
00000010
00001000
00000000
00000100
00000000
00001000
00000000
00000010
00000000
00000000
00000000
,  // measure 37
00000100
00000001
00000100
00000000
00002000
00000000
00000000
00000000
,  // measure 38
00013000
00000000
00010000
00000000
,  // measure 39
10010000
00000000
00000000
00000000
00100000
00010000
00000000
00000000
,  // measure 40
00011000
00000000
00001000
00000000
,  // measure 41
00001001
00000000
00000000
00000000
00000010
00000100
00000000
00000000
,  // measure 42
00000110
00000000
00001100
00000000
,  // measure 43
00011000
00000000
00101000
00000000
,  // measure 44
00010000
01000000
10000000
00100000
00010000
00000000
10000000
00010000
,  // measure 45
20000000
00000000
30010000
00001000
00020000
00000000
00031000
00000000
,  // measure 46
00010000
00000000
00000000
00000010
00010000
00000000
00010000
00000000
00000100
00000000
00000000
00001000
00000010
00000000
00000100
00000000
,  // measure 47
00000100
00000000
00000000
00000001
00001000
00000000
00000001
00000000
00000100
00000000
00001000
00000000
00001000
00000000
00001000
00000000
,  // measure 48
00000010
00000000
00000000
00001000
00000100
00000000
00001000
00000000
00010000
00000000
00000000
00001000
00010000
00000000
00001000
00000000
,  // measure 49
00100000
00000000
00000000
00010000
10000000
00000000
00010000
00000000
00100000
00000000
00000000
00000000
01010000
00000000
00000000
00000000
,  // measure 50
00010000
00000000
00000000
00001000
00100000
00000000
00001000
00000000
00010000
00000000
00000000
00001000
00000100
00000000
00001000
00000000
,  // measure 51
00000010
00000000
00000000
00000100
00010000
00000000
00000100
00000000
00001000
00000000
00010000
00000000
00010000
00000000
00010000
00000000
,  // measure 52
00100000
00000000
00000000
10000000
00010000
00000000
10000000
00000000
00100000
00000000
00000000
00010000
00001000
00000000
00010000
00000000
,  // measure 53
00000100
00000000
00000000
00001000
00000010
00000000
00001000
00000000
00000000
00000000
00000010
00000000
00000010
00000000
00000000
00000000
,  // measure 54
00000001
00000010
00000100
00000010
00001000
00000000
00000100
00001000
,  // measure 55
00010000
00000000
00001000
00100000
00001000
00000000
00000000
00000000
00010000
00000000
00100000
00000000
01000000
00000000
00000000
00000000
,  // measure 56
11000000
00100000
00010000
00001000
00001000
00000000
00000100
00000010
,  // measure 57
00000100
00000000
00000000
00000010
00001000
00000010
00001000
00000000
00000001
00000000
00001000
00000000
00000010
00000000
00000000
00000000
,  // measure 58
00000011
00000100
00001000
00010000
00010000
00000000
00100000
01000000
,  // measure 59
10000000
00000000
00100000
00000000
00010000
00000000
00000000
00000000
00001000
00010000
00000000
00000000
00000100
00000000
00000000
00000000
,  // measure 60
00001010
00000100
00000010
00001000
00010000
00000000
00100000
00010000
,  // measure 61
00100000
00000000
00000000
00000000
00000000
00000000
00000000
00000000
00000000
00010000
00000000
00000000
00001000
00000000
00000000
00010000
00000000
00000000
00000100
00000000
00000000
00000000
00000000
00000000
00000000
00000000
00000000
00000000
00000000
00000000
00000000
00000000
00000000
00000000
00000000
00000000
00010000
00000000
00000000
00000000
00001000
00000000
00000000
00000000
00010000
00000000
00000000
00000000
;
